VERSION	0.00.00	1.04.00
FES_MODE	0
BPM_DEF	130.000	130.000	130.000	130.000
MET_DEF	4	4
RESOLUTION	384
CLK_DEF	384
COMPATIBLE_CODE	MA2

BPM	0	0	130.000
MET	0	0	4	4

NMTAP	2	0	6
NMTAP	2	192	6
NMTAP	3	0	5
NMTAP	3	192	5
NMTAP	4	0	4
NMTAP	4	192	4
NMTAP	5	0	2
NMTAP	5	0	3
NMTAP	6	0	1
NMTAP	6	192	1
NMTAP	7	0	2
NMTAP	7	192	2
NMTAP	8	0	3
NMTAP	8	192	3
NMTAP	9	0	4
NMTAP	9	0	5
NMTAP	10	0	5
NMTAP	10	96	5
NMTAP	10	192	4
NMTAP	10	192	5
NMTAP	11	0	6
NMTAP	11	96	6
NMTAP	11	192	6
NMTAP	11	192	7
NMTAP	12	0	0
NMTAP	12	96	0
NMTAP	12	192	0
NMTAP	12	192	1
NMTAP	13	0	2
NMTAP	13	0	3
NMTAP	13	96	2
NMTAP	13	96	3
NMTAP	13	192	2
NMTAP	13	192	3
NMTTP	14	0	1	B	0	L1
NMTTP	14	96	2	B	0	L1
NMTTP	14	192	3	B	0	L1
NMTTP	15	0	6	B	0	L1
NMTTP	15	96	5	B	0	L1
NMTTP	15	192	4	B	0	L1
NMTTP	16	0	1	B	0	L1
NMTTP	16	96	2	B	0	L1
NMTTP	16	192	3	B	0	L1
NMTTP	16	288	4	B	0	L1
NMTTP	17	0	5	B	0	L1
NMTTP	17	96	6	B	0	L1
NMTTP	17	192	0	C	0	L1
NMTTP	18	0	0	B	0	L1
NMTTP	18	0	7	B	0	L1
NMTTP	18	192	1	B	0	L1
NMTTP	18	192	6	B	0	L1
NMTTP	19	0	2	B	0	L1
NMTTP	19	0	5	B	0	L1
NMTTP	19	192	3	B	0	L1
NMTTP	19	192	4	B	0	L1
NMTHO	20	0	0	384	C	1	L1
NMTAP	22	0	1
EXTAP	22	96	1
NMTAP	22	192	0
NMTAP	22	288	0
NMTAP	23	0	7
NMTAP	23	96	7
NMTAP	23	192	6
NMTAP	23	192	7
NMTAP	24	0	6
NMTAP	24	96	6
NMTAP	24	192	7
NMTAP	24	288	7
NMTAP	25	0	0
NMTAP	25	96	0
NMTAP	25	192	0
NMTAP	25	192	1
NMTAP	26	0	1
NMTAP	26	96	1
NMTAP	26	192	2
NMTAP	26	288	2
NMTAP	27	0	3
NMTAP	27	96	3
NMTAP	27	192	4
NMTAP	27	192	5
NMTAP	28	0	6
NMTAP	28	96	6
NMTAP	28	192	5
NMTAP	28	288	5
NMTAP	29	0	4
NMTAP	29	96	4
BXTAP	29	192	2
BXTAP	29	192	3
NMTAP	30	0	2
NMTAP	30	96	2
NMTAP	30	192	0
NMTAP	30	192	1
NMTAP	30	288	0
NMTAP	30	288	1
NMTAP	31	0	7
NMTAP	31	96	7
NMTAP	31	192	6
NMTAP	31	192	7
NMTAP	32	0	5
NMTAP	32	96	5
NMTAP	32	192	6
NMTAP	32	192	7
NMTAP	32	288	6
NMTAP	32	288	7
NMTAP	33	0	0
NMTAP	33	96	0
NMTAP	33	192	0
NMTAP	33	192	1
NMTAP	34	0	1
NMTAP	34	96	1
NMTAP	34	192	2
NMTAP	34	192	3
NMTAP	34	288	2
NMTAP	34	288	3
NMTAP	35	0	4
NMTAP	35	96	4
NMTAP	35	192	4
NMTAP	35	192	5
NMTAP	36	0	6
NMTAP	36	96	6
NMTAP	36	192	4
NMTAP	36	192	5
NMTAP	36	288	4
NMTAP	36	288	5
NMTAP	37	0	3
NMTAP	37	96	3
EXTAP	37	192	2
EXTAP	37	192	3
NMHLD	38	0	2	192
NMHLD	38	192	3	192
NMHLD	39	0	4	192
NMTAP	39	192	5
NMHLD	40	0	5	192
NMHLD	40	192	4	192
NMHLD	41	0	3	192
NMTAP	41	192	2
NMHLD	42	0	1	192
NMHLD	42	192	2	192
NMHLD	43	0	3	192
NMTAP	43	192	4
NMHLD	44	0	6	192
NMHLD	44	192	5	192
NMHLD	45	0	4	192
NMTAP	45	192	3
NMSTR	46	0	2
NMSI_	46	0	2	96	192	5
NMSTR	47	0	6
NMSI_	47	0	6	96	192	3
NMSTR	48	0	1
NMSI_	48	0	1	96	192	4
NMSTR	49	0	5
NMSI_	49	0	5	96	192	0
NMSTR	50	0	1
NMSUR	50	0	1	96	480	4
NMTHO	52	0	0	384	C	0	L1
BRTAP	54	0	6
NMTAP	54	48	6
NMTAP	54	96	6
NMTAP	54	192	6
NMTAP	54	192	7
NMTAP	54	288	6
NMTAP	54	288	7
NMTAP	55	0	0
NMTAP	55	48	0
NMTAP	55	96	0
NMTAP	55	192	0
NMTAP	55	192	1
NMTAP	56	0	2
NMTAP	56	48	2
NMTAP	56	96	2
NMTAP	56	192	0
NMTAP	56	192	1
NMTAP	56	288	0
NMTAP	56	288	1
NMTAP	57	0	7
NMTAP	57	48	7
NMTAP	57	96	7
NMTAP	57	192	6
NMTAP	57	192	7
NMTAP	58	0	6
NMTAP	58	48	6
NMTAP	58	96	6
NMTAP	58	192	4
NMTAP	58	192	5
NMTAP	58	288	4
NMTAP	58	288	5
NMTAP	59	0	3
NMTAP	59	48	3
NMTAP	59	96	3
NMTAP	59	192	2
NMTAP	59	192	3
NMTAP	60	0	1
NMTAP	60	48	1
NMTAP	60	96	1
NMTAP	60	192	2
NMTAP	60	192	3
NMTAP	60	288	2
NMTAP	60	288	3
NMTAP	61	0	4
NMTAP	61	48	4
NMTAP	61	96	4
EXTAP	61	192	4
EXTAP	61	192	5
NMTAP	62	0	5
NMTAP	62	48	5
NMTAP	62	96	5
NMTAP	62	192	6
NMTAP	62	240	6
NMTAP	62	288	6
NMTAP	63	0	7
NMTAP	63	48	7
NMTAP	63	96	7
NMTAP	63	192	0
NMTAP	63	192	1
NMTAP	63	288	0
NMTAP	63	288	1
NMTAP	64	0	2
NMTAP	64	48	2
NMTAP	64	96	2
NMTAP	64	192	1
NMTAP	64	240	1
NMTAP	64	288	1
NMTAP	65	0	0
NMTAP	65	48	0
NMTAP	65	96	0
EXTAP	65	192	6
EXTAP	65	192	7
NMTAP	66	0	6
NMTAP	66	48	6
NMTAP	66	96	6
NMTAP	66	192	5
NMTAP	66	240	5
NMTAP	66	288	5
NMTAP	67	0	4
NMTAP	67	48	4
NMTAP	67	96	4
NMTAP	67	192	2
NMTAP	67	192	3
NMTAP	67	288	2
NMTAP	67	288	3
NMTAP	68	0	1
NMTAP	68	48	1
NMTAP	68	96	1
NMTAP	68	192	2
NMTAP	68	240	2
NMTAP	68	288	2
NMTAP	69	0	3
NMTAP	69	48	3
NMTAP	69	96	3
BXTAP	69	192	4
BXTAP	69	192	5
NMHLD	70	0	6	192
NMTAP	70	192	7
NMHLD	71	0	0	192
NMTAP	71	192	7
NMTAP	71	288	1
NMTAP	71	288	6
NMTAP	71	336	1
NMTAP	71	336	6
BXTAP	72	0	1
BXTAP	72	0	6

T_REC_TAP	200
T_REC_BRK	1
T_REC_XTP	7
T_REC_BXX	6
T_REC_HLD	14
T_REC_XHO	0
T_REC_BHO	0
T_REC_BXH	0
T_REC_STR	5
T_REC_BST	0
T_REC_XST	0
T_REC_XBS	0
T_REC_TTP	21
T_REC_THO	2
T_REC_SLD	5
T_REC_BSL	0
T_REC_ALL	261
T_NUM_TAP	233
T_NUM_BRK	7
T_NUM_HLD	16
T_NUM_SLD	5
T_NUM_ALL	261
T_JUDGE_TAP	240
T_JUDGE_HLD	72
T_JUDGE_SLD	5
T_JUDGE_ALL	317
TTM_EACHPAIRS	45
TTM_SCR_TAP	116500
TTM_SCR_BRK	18200
TTM_SCR_HLD	16000
TTM_SCR_SLD	7500
TTM_SCR_ALL	158200
TTM_SCR_S	152800
TTM_SCR_SS	157500
TTM_RAT_ACV	10044

