VERSION	0.00.00	1.04.00
FES_MODE	0
BPM_DEF	130.000	130.000	130.000	130.000
MET_DEF	4	4
RESOLUTION	384
CLK_DEF	384
COMPATIBLE_CODE	MA2

BPM	0	0	130.000
MET	0	0	4	4

NMTAP	2	0	3
NMTAP	2	192	3
NMTAP	3	0	3
NMTAP	4	0	4
NMTAP	4	192	4
NMTAP	5	0	4
NMTAP	6	0	3
NMTAP	6	192	3
NMTAP	7	0	3
NMTAP	8	0	4
NMTAP	8	192	4
NMTAP	9	0	3
NMTAP	9	0	4
NMTAP	10	0	4
NMTAP	10	96	4
EXTAP	10	192	4
NMTAP	11	0	5
EXTAP	11	192	5
NMTAP	12	0	6
NMTAP	12	96	6
EXTAP	12	192	6
NMTAP	13	0	0
NMTAP	13	0	7
NMTAP	14	0	1
NMTAP	14	96	1
NMTAP	14	192	1
NMTAP	15	0	2
NMTAP	15	192	2
NMHLD	16	0	3	336
NMHLD	16	0	4	336
NMTTP	18	0	3	B	0	L1
NMTTP	18	0	4	B	0	L1
NMTTP	19	0	2	B	0	L1
NMTTP	19	0	5	B	0	L1
NMTTP	20	0	1	B	0	L1
NMTTP	20	0	6	B	0	L1
NMTTP	21	0	0	C	1	L1
NMTAP	22	0	0
NMTAP	22	96	0
NMTAP	22	192	0
NMTAP	23	0	1
NMTAP	23	96	1
NMTAP	23	192	1
NMTAP	24	0	2
NMTAP	24	96	2
NMTAP	24	192	2
NMTAP	25	0	2
NMTAP	25	0	3
NMTAP	25	192	2
NMTAP	25	192	3
NMTAP	26	0	4
NMTAP	26	96	4
NMTAP	26	192	4
NMTAP	27	0	5
NMTAP	27	96	5
NMTAP	27	192	5
NMTAP	28	0	6
NMTAP	28	96	6
NMTAP	28	192	6
NMTAP	29	0	6
NMTAP	29	0	7
NMTAP	29	192	6
NMTAP	29	192	7
NMTAP	30	0	7
NMTAP	30	96	7
NMTAP	30	192	7
NMTAP	31	0	6
NMTAP	31	96	6
NMTAP	31	192	6
NMTAP	32	0	5
NMTAP	32	96	5
NMTAP	32	192	5
NMTAP	33	0	3
NMTAP	33	0	4
NMTAP	33	192	3
NMTAP	33	192	4
NMTAP	34	0	3
NMTAP	34	96	3
NMTAP	34	192	3
NMTAP	35	0	2
NMTAP	35	96	2
NMTAP	35	192	2
NMTAP	36	0	1
NMTAP	36	96	1
NMTAP	36	192	1
NMTAP	37	0	0
NMTAP	37	0	7
NMSTR	38	0	0
NMSI_	38	0	0	96	288	4
NMSTR	40	0	5
NMSI_	40	0	5	96	288	2
NMSTR	42	0	1
NMSI_	42	0	1	96	288	5
NMSTR	44	0	6
NMSI_	44	0	6	96	288	2
NMHLD	46	0	0	336
NMHLD	46	0	1	336
NMHLD	48	0	2	336
NMHLD	48	0	3	336
NMHLD	50	0	4	384
NMHLD	50	0	5	384
NMHLD	52	0	6	384
NMHLD	52	0	7	384
BRTAP	54	0	7
NMTAP	54	96	7
NMTAP	54	192	7
NMTAP	54	288	7
NMTAP	55	0	6
NMTAP	55	96	6
NMTAP	55	192	6
NMTAP	55	192	7
NMTAP	56	0	5
NMTAP	56	96	5
NMTAP	56	192	5
NMTAP	56	288	5
NMTAP	57	0	4
NMTAP	57	96	4
NMTAP	57	192	3
NMTAP	57	192	4
NMTAP	58	0	2
NMTAP	58	96	2
NMTAP	58	192	2
NMTAP	58	288	2
NMTAP	59	0	1
NMTAP	59	96	1
NMTAP	59	192	0
NMTAP	59	192	1
NMHLD	60	0	0	336
NMHLD	60	0	7	336
EXTAP	61	192	0
EXTAP	61	192	7
BRTAP	62	0	0
NMTAP	62	96	0
NMTAP	62	192	0
NMTAP	62	288	0
NMTAP	63	0	0
NMTAP	63	0	1
NMTAP	63	96	0
NMTAP	63	96	1
NMTAP	63	192	0
NMTAP	63	192	1
NMTAP	64	0	2
NMTAP	64	96	2
NMTAP	64	192	2
NMTAP	64	288	2
NMTAP	65	0	3
NMTAP	65	0	4
NMTAP	65	96	3
NMTAP	65	96	4
NMTAP	65	192	3
NMTAP	65	192	4
NMTAP	66	0	5
NMTAP	66	96	5
NMTAP	66	192	5
NMTAP	66	288	5
NMTAP	67	0	6
NMTAP	67	0	7
NMTAP	67	96	6
NMTAP	67	96	7
NMTAP	67	192	6
NMTAP	67	192	7
NMSTR	68	0	0
NMSI_	68	0	0	96	288	3
NMSTR	68	0	7
NMSI_	68	0	7	96	288	4
NMTTP	70	0	4	E	0	L1
NMTTP	71	0	3	B	0	L1
NMTTP	71	0	4	B	0	L1
NMTTP	72	0	0	C	1	L1
NMTTP	72	0	2	B	0	L1
NMTTP	72	0	5	B	0	L1

T_REC_TAP	127
T_REC_BRK	2
T_REC_XTP	5
T_REC_BXX	0
T_REC_HLD	12
T_REC_XHO	0
T_REC_BHO	0
T_REC_BXH	0
T_REC_STR	6
T_REC_BST	0
T_REC_XST	0
T_REC_XBS	0
T_REC_TTP	13
T_REC_THO	0
T_REC_SLD	6
T_REC_BSL	0
T_REC_ALL	171
T_NUM_TAP	151
T_NUM_BRK	2
T_NUM_HLD	12
T_NUM_SLD	6
T_NUM_ALL	171
T_JUDGE_TAP	153
T_JUDGE_HLD	88
T_JUDGE_SLD	6
T_JUDGE_ALL	247
TTM_EACHPAIRS	29
TTM_SCR_TAP	75500
TTM_SCR_BRK	5200
TTM_SCR_HLD	12000
TTM_SCR_SLD	9000
TTM_SCR_ALL	101700
TTM_SCR_S	98500
TTM_SCR_SS	101500
TTM_RAT_ACV	10019

