VERSION	0.00.00	1.04.00
FES_MODE	0
BPM_DEF	160.000	160.000	160.000	160.000
MET_DEF	4	4
RESOLUTION	384
CLK_DEF	384
COMPATIBLE_CODE	MA2

BPM	0	0	160.000
MET	0	0	4	4

NMTTP	1	192	2	E	0	M1
NMTTP	1	240	3	E	0	M1
NMTTP	1	288	6	E	0	M1
NMTTP	1	336	5	E	0	M1
NMSTR	2	0	2
NMSI_	2	0	2	96	48	4
NMTAP	2	48	2
NMTAP	2	96	4
NMSTR	2	192	5
NMSI_	2	192	5	96	48	3
NMTAP	2	240	5
NMTAP	2	288	3
NMSTR	3	0	1
NMSI_	3	0	1	96	48	3
NMTAP	3	48	1
NMTAP	3	96	3
NMTAP	3	144	4
NMSTR	3	192	5
NMSI_	3	192	5	96	48	3
NMTAP	3	240	5
NMTAP	3	288	3
NMTAP	3	336	2
NMSTR	4	0	1
NMSCR	4	0	1	96	48	4
NMTAP	4	48	1
NMTAP	4	96	4
NMTAP	4	144	5
NMSTR	4	192	6
NMSI_	4	192	6	96	48	3
NMTAP	4	240	6
NMTAP	4	288	3
NMSTR	5	0	2
NMSCR	5	0	2	96	48	5
NMTAP	5	48	2
NMSTR	5	96	7
NMSXR	5	96	7	96	120	4
NMTAP	5	144	7
NMSTR	6	0	6
NMSCL	6	0	6	96	48	4
NMTAP	6	48	6
NMTAP	6	96	4
NMTAP	6	144	3
NMSTR	6	192	2
NMSCR	6	192	2	96	48	4
NMTAP	6	240	2
NMTAP	6	288	4
NMTAP	6	336	5
NMSTR	7	0	6
NMSI_	7	0	6	96	48	3
NMTAP	7	48	6
NMTAP	7	96	3
NMTAP	7	144	2
NMSTR	7	192	1
NMSCR	7	192	1	96	48	4
NMTAP	7	240	1
NMTAP	7	288	4
NMTAP	8	0	6
NMHLD	8	48	6	96
NMTAP	8	96	4
NMTAP	8	144	3
NMTAP	8	192	1
NMHLD	8	240	1	96
NMTAP	8	288	3
NMTAP	8	336	4
NMTAP	9	48	0
EXTAP	9	48	5
EXTAP	9	120	3
NMTAP	9	120	4
EXTAP	9	192	1
NMTAP	9	192	7
NMTAP	9	240	0
NMTAP	9	264	0
NMTAP	9	288	0
NMTAP	9	312	0
NMTAP	9	336	0
NMTAP	9	360	0
BRTAP	10	0	1
BRTAP	10	0	7
NMTAP	10	48	2
NMHLD	10	72	2	48
NMTAP	10	120	3
NMTAP	10	144	1
NMTAP	10	192	6
NMTAP	10	216	7
NMTAP	10	240	5
NMHLD	10	264	5	48
NMTAP	10	312	4
NMTAP	10	336	4
NMTAP	11	0	3
NMTAP	11	0	6
NMTAP	11	48	5
NMHLD	11	72	5	48
NMTAP	11	120	4
NMTAP	11	144	6
NMTAP	11	192	2
NMTAP	11	216	0
NMTAP	11	240	1
NMHLD	11	264	1	48
NMTAP	11	312	3
NMTAP	11	336	3
NMTAP	12	0	0
NMTAP	12	0	5
NMTAP	12	48	6
NMHLD	12	72	6	48
NMTAP	12	120	7
NMTAP	12	144	5
NMTAP	12	192	2
NMTAP	12	216	3
NMTAP	12	240	1
NMHLD	12	264	1	48
NMTAP	12	312	0
NMTAP	12	336	0
NMTAP	13	0	2
NMTAP	13	0	7
NMTAP	13	48	6
NMTAP	13	72	4
NMTAP	13	120	1
NMTAP	13	144	3
NMTAP	13	192	4
NMTAP	13	216	2
NMTAP	13	240	5
NMTAP	13	264	1
NMTAP	13	288	6
NMTAP	13	312	0
NMTAP	13	336	7
BRTAP	14	0	0
BRTAP	14	0	6
NMTAP	14	48	5
NMHLD	14	72	5	48
NMTAP	14	120	4
NMTAP	14	144	6
NMTAP	14	192	1
NMTAP	14	216	0
NMTAP	14	240	2
NMHLD	14	264	2	48
NMTAP	14	312	3
NMTAP	14	336	3
NMTAP	15	0	1
NMTAP	15	0	4
NMTAP	15	48	2
NMHLD	15	72	2	48
NMTAP	15	120	3
NMTAP	15	144	1
NMTAP	15	192	5
NMTAP	15	216	7
NMTAP	15	240	6
NMHLD	15	264	6	48
NMTAP	15	312	4
NMTAP	15	336	4
NMTAP	16	0	3
NMHLD	16	0	5	48
NMTAP	16	48	2
NMTAP	16	72	3
NMHLD	16	96	1	48
NMTAP	16	144	4
NMTAP	16	168	3
NMHLD	16	192	6	48
NMTAP	16	240	4
NMTAP	16	264	5
NMHLD	16	288	0	48
NMTAP	16	336	7
NMHLD	16	360	7	72
BRTAP	17	48	1
BRTAP	17	120	4
BRTAP	17	120	5
BRSTR	17	192	0
NMSV_	17	192	0	96	48	3
BRSTR	17	192	4
NMSI_	17	192	4	96	48	7
NMHLD	18	0	2	192
NMTAP	18	96	1
NMTAP	18	144	1
NMSTR	18	192	3
NMSI_	18	192	3	96	48	6
NMSI_	18	192	3	96	48	7
NMHLD	19	0	5	192
NMTAP	19	96	6
NMTAP	19	144	6
NMSTR	19	192	4
NMSI_	19	192	4	96	48	0
NMSI_	19	192	4	96	48	1
NMHLD	20	0	7	192
NMTAP	20	96	6
NMTAP	20	144	6
NMHLD	20	192	0	192
NMTAP	20	288	1
NMTAP	20	336	1
NMSTR	21	0	7
NMSI_	21	0	7	96	48	3
NMTAP	21	48	0
NMTAP	21	48	6
NMSTR	21	192	0
NMSI_	21	192	0	96	48	4
NMTAP	21	240	1
NMTAP	21	240	7
NMHLD	22	0	6	384
NMSTR	22	96	5
NMSXR	22	96	5	96	144	0
NMTAP	22	144	5
NMHLD	23	0	1	288
NMSTR	23	96	2
NMSXL	23	96	2	96	144	7
NMTAP	23	144	2
NMTAP	24	0	0
NMSTR	24	0	6
NMSI_	24	0	6	96	48	3
NMTAP	24	96	2
NMTAP	24	144	2
NMSTR	24	192	1
NMSCR	24	192	1	96	48	4
NMTAP	24	192	7
NMTAP	24	288	5
NMTAP	24	336	5
NMTAP	25	0	6
NMTAP	25	48	7
NMTAP	25	96	0
NMTAP	25	96	4
BRHLD	25	192	2	96
BRHLD	25	192	6	96
NMHLD	26	0	1	48
NMTAP	26	0	7
NMTAP	26	48	0
NMTAP	26	72	0
NMTAP	26	96	1
NMTAP	26	120	1
NMTAP	26	144	7
NMTAP	26	192	0
NMHLD	26	192	6	48
NMTAP	26	240	7
NMTAP	26	264	7
NMTAP	26	288	6
NMTAP	26	312	6
NMTAP	26	336	0
NMHLD	27	0	1	48
NMTAP	27	0	5
NMTAP	27	48	4
NMTAP	27	72	4
NMTAP	27	96	3
NMTAP	27	120	3
NMTAP	27	144	6
NMTAP	27	192	4
NMTAP	27	192	5
NMTAP	27	240	2
NMTAP	27	264	2
NMTAP	27	264	3
NMTAP	27	312	5
NMTAP	27	336	4
NMTAP	27	336	5
NMTAP	28	0	3
NMTAP	28	0	4
NMSTR	28	48	2
NMSI_	28	48	2	96	48	0
NMSI_	28	48	2	96	48	4
NMTAP	28	72	3
NMTAP	28	96	1
NMSTR	28	240	5
NMSI_	28	240	5	96	48	3
NMSI_	28	240	5	96	48	7
NMTAP	28	264	4
NMTAP	28	288	6
NMTAP	29	48	1
NMTAP	29	72	0
NMTAP	29	96	2
NMTAP	29	144	3
NMTAP	29	144	7
NMTAP	29	192	4
NMTAP	29	192	6
NMTTP	29	240	5	A	0	M1
NMTTP	29	240	6	E	0	M1
NMTTP	29	240	6	D	0	M1
NMTTP	29	288	3	B	0	M1
NMTTP	29	288	4	B	0	M1
NMTTP	29	288	4	E	0	M1
NMTTP	29	336	2	E	0	M1
NMTTP	29	336	2	A	0	M1
NMTTP	29	336	2	D	0	M1
EXTAP	30	0	0
EXHLD	30	0	6	48
NMTAP	30	48	7
NMTAP	30	72	6
NMTAP	30	96	7
NMTAP	30	120	6
NMTAP	30	144	7
NMTAP	30	168	6
NMSTR	30	192	5
NMSI_	30	192	5	96	48	0
NMTAP	30	216	6
NMSTR	30	240	4
NMSI_	30	240	4	96	48	1
NMTAP	30	288	5
NMTAP	30	336	4
NMTAP	31	48	0
NMTAP	31	72	1
NMTAP	31	96	0
NMTAP	31	120	1
NMTAP	31	144	0
NMTAP	31	168	1
NMSTR	31	192	2
NMSI_	31	192	2	96	48	7
NMTAP	31	216	1
NMSTR	31	240	3
NMSI_	31	240	3	96	48	6
NMTAP	31	288	2
NMTAP	31	336	3
NMTAP	32	48	0
NMTAP	32	72	0
NMTAP	32	96	3
NMTAP	32	120	2
NMTAP	32	144	5
NMTAP	32	168	4
NMTAP	32	192	6
NMTAP	32	216	6
NMTAP	32	240	4
NMTAP	32	264	5
NMTAP	32	288	2
NMTAP	32	312	3
NMTAP	32	336	1
NMTAP	32	360	1
NMTAP	33	0	4
NMTAP	33	24	5
NMTAP	33	48	6
NMTAP	33	72	7
NMTAP	33	96	4
NMTAP	33	120	3
NMTAP	33	144	2
NMTAP	33	168	1
EXSTR	33	192	0
NMSI_	33	192	0	96	48	4
EXSTR	33	192	7
NMSI_	33	192	7	96	48	3
EXSTR	33	288	0
NMSCR	33	288	0	96	48	3
EXSTR	33	288	7
NMSCL	33	288	7	96	48	4
NMTTP	34	0	0	A	0	M1
NMTTP	34	0	0	D	1	M1
NMTTP	34	0	7	A	0	M1
EXTAP	34	96	3
EXTAP	34	96	4
NMHLD	34	192	2	48
NMHLD	34	192	3	48
NMHLD	34	264	0	48
NMHLD	34	264	1	48
NMTAP	34	336	6
NMTAP	34	336	7
NMHLD	35	0	4	48
NMHLD	35	0	5	48
NMHLD	35	72	6	48
NMHLD	35	72	7	48
NMTAP	35	144	0
NMTAP	35	144	1
NMTAP	35	192	7
NMTAP	35	216	2
NMTAP	35	240	7
NMTAP	35	264	3
NMTAP	35	288	7
NMTAP	35	312	4
NMHLD	35	336	7	96
NMTAP	36	48	6
NMSTR	36	96	0
NMSCR	36	96	0	96	48	3
NMTAP	36	96	5
NMTAP	36	192	0
NMTAP	36	192	4
NMTAP	36	264	5
NMSTR	36	288	5
NMSCR	36	288	5	96	48	0
NMTAP	36	336	4
NMTAP	37	0	3
NMTAP	37	0	5
NMTAP	37	72	2
NMSTR	37	96	2
NMSCR	37	96	2	96	48	5
NMTAP	37	144	0
NMTAP	37	192	2
NMTAP	37	192	7
NMTAP	37	264	6
NMTAP	37	288	6
NMTAP	37	336	5
NMTAP	38	0	4
NMTAP	38	0	5
NMTAP	38	96	3
NMTAP	38	96	6
NMHLD	38	192	4	48
NMHLD	38	192	5	48
NMHLD	38	264	6	48
NMHLD	38	264	7	48
NMTAP	38	336	0
NMTAP	38	336	1
NMHLD	39	0	2	48
NMHLD	39	0	3	48
NMHLD	39	72	0	48
NMHLD	39	72	1	48
NMTAP	39	144	6
NMTAP	39	144	7
NMTAP	39	192	0
NMTAP	39	216	5
NMTAP	39	240	0
NMTAP	39	264	4
NMTAP	39	288	0
NMTAP	39	312	3
NMHLD	39	336	0	96
NMTAP	40	48	1
NMSTR	40	96	2
NMSCL	40	96	2	96	48	7
NMTAP	40	96	7
NMTAP	40	192	2
NMTAP	40	192	6
NMTAP	40	264	5
NMSTR	40	288	5
NMSCR	40	288	5	96	48	0
NMTAP	40	336	0
NMTAP	41	0	1
NMTAP	41	0	5
NMTAP	41	72	2
NMTAP	41	96	2
NMTAP	41	144	2
NMTAP	41	144	3
NMTAP	41	192	2
NMSTR	41	192	3
NMSF_	41	192	3	96	48	7
NMSTR	42	0	1
NMSV_	42	0	1	96	96	4
NMHLD	42	0	5	288
CNSLL	42	192	4	0	96	7
NMHLD	43	0	2	288
NMSTR	43	0	6
NMSV_	43	0	6	96	96	3
CNSLR	43	192	3	0	96	0
NMTAP	44	0	0
NMTAP	44	0	1
NMTAP	44	48	2
NMTAP	44	72	3
NMTAP	44	96	2
NMTAP	44	144	1
NMTAP	44	168	0
NMSTR	44	192	1
NMSUR	44	192	1	96	48	5
NMTAP	44	240	2
NMTAP	44	264	0
NMTAP	44	288	1
NMTAP	45	0	6
NMTAP	45	0	7
NMTAP	45	48	5
NMTAP	45	72	4
NMTAP	45	96	5
NMTAP	45	144	6
NMTAP	45	168	7
NMSTR	45	192	6
NMSCL	45	192	6	96	48	3
NMTAP	45	240	5
NMTAP	45	264	7
NMTAP	45	288	6
EXTAP	46	0	2
EXTAP	46	0	3
NMTAP	46	48	2
NMTAP	46	96	1
NMTAP	46	96	2
NMTAP	46	144	1
NMTAP	46	192	0
NMTAP	46	192	1
NMTAP	46	240	0
NMTAP	46	288	0
NMTAP	46	288	7
NMTAP	46	336	7
NMTAP	47	0	6
NMTAP	47	0	7
NMTAP	47	48	6
NMTAP	47	96	5
NMTAP	47	96	6
NMTAP	47	144	5
NMTAP	47	192	4
NMTAP	47	192	5
NMTAP	47	288	2
NMTAP	47	288	5
NMTAP	47	336	2
NMTAP	47	336	5
NMTAP	48	48	3
NMTAP	48	48	4
NMTAP	48	96	5
NMTAP	48	120	4
NMTAP	48	120	5
NMTAP	48	168	6
NMTAP	48	192	6
NMTAP	48	192	7
NMTAP	48	240	1
NMTAP	48	264	0
NMTAP	48	264	1
NMTAP	48	312	2
NMTAP	48	336	2
NMTAP	48	336	3
NMTAP	49	0	3
NMTAP	49	0	4
NMTAP	49	48	6
NMTAP	49	72	4
NMTAP	49	72	6
NMTAP	49	120	1
NMTAP	49	144	1
NMTAP	49	144	3
NMTTP	49	192	0	C	1	M1
NMTTP	49	192	2	E	0	M1
NMTTP	49	192	6	E	0	M1
BXTAP	50	0	0
BXTAP	50	0	7
NMTAP	50	48	1
NMTAP	50	72	0
NMSTR	50	96	2
NMSI_	50	96	2	96	48	7
NMTAP	50	120	3
NMTAP	50	144	1
NMSTR	50	192	2
NMSI_	50	192	2	96	48	5
NMSTR	50	192	4
NMSI_	50	192	4	96	48	7
NMTAP	50	288	2
NMSTR	50	288	4
NMSCL	50	288	4	96	72	7
BRTAP	51	0	4
BRTAP	51	0	6
CNSLL	51	72	7	0	48	3
CNSI_	51	120	3	0	24	1
NMTAP	51	144	0
NMSTR	51	192	0
NMSI_	51	192	0	96	48	4
NMTAP	51	288	0
NMSTR	51	288	7
NMSI_	51	288	7	96	48	3
NMSTR	52	0	2
NMSI_	52	0	2	96	48	7
NMTAP	52	0	7
NMTAP	52	48	1
NMTAP	52	96	2
NMSTR	52	96	5
NMSI_	52	96	5	96	48	0
NMTAP	52	144	6
NMSTR	52	192	3
NMSI_	52	192	3	96	48	7
NMTAP	52	192	5
NMTAP	52	240	2
NMTAP	52	288	3
NMSTR	52	288	6
NMSXL	52	288	6	96	120	2
NMSXR	52	288	6	96	120	2
NMTAP	52	336	5
BRTAP	53	0	6
NMTAP	53	192	1
NMTAP	53	192	4
NMTAP	53	240	2
NMTAP	53	264	3
NMTAP	53	288	2
NMTAP	53	312	3
NMTAP	53	336	2
BXTAP	54	0	0
BXTAP	54	0	5
NMTAP	54	48	6
NMTAP	54	72	7
NMSTR	54	96	5
NMSI_	54	96	5	96	48	0
NMTAP	54	120	4
NMTAP	54	144	6
NMSTR	54	192	3
NMSI_	54	192	3	96	48	0
NMSTR	54	192	5
NMSI_	54	192	5	96	48	2
NMSTR	54	288	3
NMSCR	54	288	3	96	72	0
NMTAP	54	288	5
BRTAP	55	0	1
BRTAP	55	0	3
CNSLR	55	72	0	0	48	4
CNSI_	55	120	4	0	24	6
NMTAP	55	144	7
NMTAP	55	192	7
NMHLD	55	288	1	96
NMTTP	55	336	4	E	0	M1
NMHLD	56	0	7	96
NMTTP	56	48	5	E	0	M1
NMHLD	56	96	0	96
NMTTP	56	144	3	E	0	M1
NMHLD	56	192	6	96
NMTTP	56	240	4	E	0	M1
NMSTR	56	288	7
NMSXR	56	288	7	96	144	2
NMHLD	57	0	4	96
NMTAP	57	144	4
NMTAP	57	192	4
NMSTR	57	288	0
NMSCL	57	288	0	96	48	6
NMTAP	57	288	5
NMSTR	58	0	0
BRSI_	58	0	0	96	48	2
NMTAP	58	0	4
NMTAP	58	72	4
NMSTR	58	96	0
NMSI_	58	96	0	96	48	6
NMTAP	58	144	4
NMSTR	58	192	0
BRSI_	58	192	0	96	48	3
NMTAP	58	192	5
NMTAP	58	264	5
NMSTR	58	288	0
NMSI_	58	288	0	96	48	5
NMTAP	58	336	5
NMSTR	59	0	0
BRSCR	59	0	0	96	48	3
NMTAP	59	0	4
NMTAP	59	72	4
NMSTR	59	96	0
NMSI_	59	96	0	96	48	4
NMTAP	59	144	4
NMTAP	59	192	0
NMTAP	59	192	4
EXTAP	59	288	2
EXSTR	59	288	7
NMSCR	59	288	7	96	48	1
NMTAP	60	0	3
NMSTR	60	0	7
BRSI_	60	0	7	96	48	5
NMTAP	60	72	3
NMSTR	60	96	7
NMSI_	60	96	7	96	48	1
NMTAP	60	144	3
NMTAP	60	192	2
NMSTR	60	192	7
BRSI_	60	192	7	96	48	4
NMTAP	60	264	2
NMSTR	60	288	7
NMSI_	60	288	7	96	48	2
NMTAP	60	336	2
NMTAP	61	0	3
NMSTR	61	0	7
BRSCL	61	0	7	96	48	4
NMTAP	61	72	3
NMSTR	61	96	7
NMSI_	61	96	7	96	48	3
NMTAP	61	144	3
NMTAP	61	192	3
NMTAP	61	192	7
EXSTR	61	288	0
NMSI_	61	288	0	96	48	5
EXTAP	61	288	4
NMSTR	62	0	0
BRSCR	62	0	0	96	48	2
NMTAP	62	0	3
NMTAP	62	72	3
NMSTR	62	96	0
NMSCL	62	96	0	96	48	5
NMTAP	62	144	3
NMSTR	62	192	0
BRSI_	62	192	0	96	48	2
NMTAP	62	192	4
NMTAP	62	264	4
NMSTR	62	288	0
NMSI_	62	288	0	96	48	5
NMTAP	62	336	4
NMSTR	63	0	0
BRSCR	63	0	0	96	48	2
NMTAP	63	0	3
NMTAP	63	72	3
NMSTR	63	96	0
NMSI_	63	96	0	96	48	4
NMTAP	63	144	3
NMTAP	63	192	0
NMTAP	63	192	3
NMTAP	63	288	2
NMSTR	63	288	3
NMSCL	63	288	3	96	144	4
NMHLD	64	0	1	96
NMTAP	64	144	1
NMTAP	64	192	1
NMTAP	64	240	0
NMTAP	64	264	4
NMTAP	64	288	0
NMTAP	64	312	4
NMTAP	64	336	0
NMTAP	64	360	4
NMTAP	65	0	1
NMTAP	65	12	2
NMHLD	65	24	3	48
NMTAP	65	72	1
NMTAP	65	84	2
NMHLD	65	96	3	48
NMTAP	65	144	0
NMTAP	65	192	6
NMTAP	65	204	5
NMHLD	65	216	4	48
NMTAP	65	264	6
NMTAP	65	276	5
NMHLD	65	288	4	48
NMTAP	65	336	7
BRHLD	66	0	0	144
BRTAP	66	0	5
NMTTP	66	72	0	E	0	M1
NMTTP	66	72	0	D	0	M1
NMHLD	66	144	6	144
NMTTP	66	216	7	E	0	M1
NMTTP	66	216	7	D	0	M1
NMTAP	66	288	7
NMTAP	66	336	0
NMTAP	66	336	7
NMTAP	67	0	0
NMHLD	67	0	1	144
NMTTP	67	72	1	E	0	M1
NMTTP	67	72	1	D	0	M1
NMHLD	67	144	7	144
NMTTP	67	216	0	E	0	M1
NMTTP	67	216	0	D	0	M1
NMTAP	67	288	1
NMTAP	67	336	0
NMTAP	67	336	6
NMHLD	68	0	5	72
NMTAP	68	0	7
NMTTP	68	72	4	A	0	M1
NMTTP	68	72	5	E	0	M1
NMTAP	68	144	0
NMHLD	68	144	2	72
NMTTP	68	216	3	E	0	M1
NMTTP	68	216	3	A	0	M1
NMTAP	68	288	1
NMTAP	68	288	4
NMTAP	68	336	1
NMTAP	68	336	4
NMTTP	69	48	2	A	0	M1
NMTTP	69	48	3	E	0	M1
NMTTP	69	48	3	D	0	M1
BXTAP	69	48	6
BXTAP	69	120	1
NMTTP	69	120	5	E	0	M1
NMTTP	69	120	5	A	0	M1
NMTTP	69	120	5	D	0	M1
NMTTP	69	192	0	B	0	M1
NMTTP	69	192	0	E	1	M1
NMTTP	69	192	0	A	0	M1
NMTTP	69	192	0	D	0	M1
BXTAP	69	192	3
NMTTP	69	192	7	B	0	M1
NMTTP	69	192	7	A	0	M1
NMTAP	70	0	2
NMSTR	70	0	3
NMSUR	70	0	3	96	192	1
NMTAP	70	96	2
NMTAP	70	192	2
NMTAP	70	288	2
NMSTR	71	0	1
NMSUR	71	0	1	96	192	0
NMTAP	71	0	2
NMTAP	71	96	2
NMTAP	71	192	2
NMTAP	71	288	2
NMSTR	72	0	0
NMSUL	72	0	0	96	192	7
NMTAP	72	0	2
NMTAP	72	96	2
NMTAP	72	192	2
NMTAP	72	288	2
NMTAP	73	0	2
NMSTR	73	0	7
NMSUL	73	0	7	96	96	3
NMTAP	73	96	2
NMTAP	73	192	2
NMTAP	73	288	2
NMTAP	73	288	3
NMSTR	74	0	4
NMSI_	74	0	4	96	96	1
NMTAP	74	0	5
NMTAP	74	96	5
CNSI_	74	192	1	0	96	6
NMTAP	74	192	5
NMTAP	74	288	5
NMTAP	75	0	5
NMSTR	75	0	6
NMSI_	75	0	6	96	96	3
NMTAP	75	96	5
CNSI_	75	192	3	0	96	7
NMTAP	75	192	5
NMTAP	75	288	5
NMTAP	76	0	5
NMSTR	76	0	7
NMSUR	76	0	7	96	96	4
NMTAP	76	96	5
NMTAP	76	192	5
NMTAP	76	288	4
NMTAP	76	288	6
NMTAP	76	336	4
NMTAP	76	336	6
EXTAP	77	48	1
NMTAP	77	48	3
NMTAP	77	120	4
EXTAP	77	120	5
NMTAP	77	192	1
EXTAP	77	192	7
NMTAP	77	240	0
NMTAP	77	264	0
NMTAP	77	288	0
NMTAP	77	312	0
NMTAP	77	336	0
NMTAP	77	360	0
BRTAP	78	0	1
BRTAP	78	0	7
NMTAP	78	48	6
NMTAP	78	72	7
NMSTR	78	96	5
NMSCR	78	96	5	96	48	0
NMTAP	78	120	4
NMTAP	78	144	6
NMSTR	78	192	3
NMSI_	78	192	3	96	48	0
NMSTR	78	192	5
NMSV_	78	192	5	96	48	2
NMSTR	78	288	3
NMSLR	78	288	3	96	48	7
NMTAP	78	288	5
BRTAP	79	0	1
BRTAP	79	0	3
CNSI_	79	48	7	0	32	1
CNSCR	79	80	1	0	16	2
CNSLR	79	96	2	0	48	6
NMTAP	79	144	7
NMSTR	79	192	7
NMSI_	79	192	7	96	48	3
NMSTR	79	288	0
NMSI_	79	288	0	96	48	4
NMTAP	79	288	7
NMTAP	80	0	0
NMSTR	80	0	5
NMSI_	80	0	5	96	48	0
NMTAP	80	48	6
NMSTR	80	96	2
NMSI_	80	96	2	96	48	7
NMTAP	80	96	5
NMTAP	80	144	1
NMTAP	80	192	2
NMSTR	80	192	4
NMSI_	80	192	4	96	48	0
NMTAP	80	240	5
NMSTR	80	288	1
NMSXL	80	288	1	96	120	5
NMSXR	80	288	1	96	120	5
NMTAP	80	288	4
NMTAP	80	336	2
BRTAP	81	0	1
NMTAP	81	192	3
NMTAP	81	192	6
NMTAP	81	240	5
NMTAP	81	264	4
NMTAP	81	288	5
NMTAP	81	312	4
NMTAP	81	336	5
BXTAP	82	0	2
BXTAP	82	0	7
NMTAP	82	48	1
NMTAP	82	72	0
NMSTR	82	96	2
NMSCL	82	96	2	96	48	7
NMTAP	82	120	3
NMTAP	82	144	1
NMSTR	82	192	2
NMSV_	82	192	2	96	48	5
NMSTR	82	192	4
NMSI_	82	192	4	96	48	7
NMTAP	82	288	2
NMSTR	82	288	4
NMSLL	82	288	4	96	48	0
BRTAP	83	0	4
BRTAP	83	0	6
CNSI_	83	48	0	0	32	6
CNSCL	83	80	6	0	16	5
CNSLL	83	96	5	0	48	1
NMTAP	83	144	0
NMTAP	83	192	0
NMHLD	83	288	2	96
NMTTP	83	336	0	E	0	M1
NMHLD	84	0	4	96
NMTTP	84	48	7	E	0	M1
NMHLD	84	96	3	96
NMTTP	84	144	1	E	0	M1
NMHLD	84	192	5	96
NMTTP	84	240	0	E	0	M1
NMSTR	84	288	3
NMSXL	84	288	3	96	144	1
NMHLD	85	0	7	96
NMTAP	85	144	0
NMTAP	85	192	0
NMTAP	85	288	2
NMSTR	85	288	7
NMSCR	85	288	7	96	48	1
NMTAP	86	0	3
NMTAP	86	0	7
NMTAP	86	72	3
NMSTR	86	96	7
BRSI_	86	96	7	96	48	1
EXTAP	86	108	6
EXTAP	86	120	5
NMTAP	86	144	3
NMTAP	86	192	2
NMTAP	86	192	7
NMTAP	86	264	2
NMSTR	86	288	7
NMSCR	86	288	7	96	48	2
EXTAP	86	300	6
EXTAP	86	312	5
NMTAP	86	336	2
NMTAP	87	0	3
NMTAP	87	0	7
NMTAP	87	72	3
NMSTR	87	96	7
BRSI_	87	96	7	96	48	3
EXTAP	87	108	6
EXTAP	87	120	5
NMTAP	87	144	3
NMTAP	87	192	3
NMTAP	87	192	7
EXSTR	87	288	0
NMSCL	87	288	0	96	48	6
EXTAP	87	288	5
NMTAP	88	0	0
NMTAP	88	0	4
NMTAP	88	72	4
NMSTR	88	96	0
BRSI_	88	96	0	96	48	6
EXTAP	88	108	1
EXTAP	88	120	2
NMTAP	88	144	4
NMTAP	88	192	0
NMTAP	88	192	5
NMTAP	88	264	5
NMSTR	88	288	0
NMSCL	88	288	0	96	48	5
EXTAP	88	300	1
EXTAP	88	312	2
NMTAP	88	336	5
NMTAP	89	0	0
NMTAP	89	0	4
NMTAP	89	72	4
NMSTR	89	96	0
BRSI_	89	96	0	96	48	4
EXTAP	89	108	1
EXTAP	89	120	2
NMTAP	89	144	4
NMTAP	89	192	0
NMTAP	89	192	4
EXTAP	89	288	3
EXSTR	89	288	7
NMSCR	89	288	7	96	48	2
NMTAP	90	0	4
NMSTR	90	0	7
BRSI_	90	0	7	96	48	5
NMTAP	90	72	4
NMTAP	90	96	7
NMTAP	90	144	4
NMTAP	90	192	3
NMTAP	90	192	7
EXTAP	90	204	0
EXTAP	90	216	1
NMTAP	90	264	3
NMSTR	90	288	7
NMSI_	90	288	7	96	48	2
EXTAP	90	300	6
EXTAP	90	312	5
NMTAP	90	336	3
NMTAP	91	0	4
NMSTR	91	0	7
BRSCL	91	0	7	96	48	5
NMTAP	91	72	4
NMSTR	91	96	7
NMSI_	91	96	7	96	48	3
NMTAP	91	144	4
NMTAP	91	192	4
NMTAP	91	192	7
NMSTR	91	288	4
NMSCR	91	288	4	96	144	3
NMTAP	91	288	5
NMHLD	92	0	6	96
NMTAP	92	144	6
NMTAP	92	192	6
NMTAP	92	240	7
NMTAP	92	264	3
NMTAP	92	288	7
NMTAP	92	312	3
NMTAP	92	336	7
NMTAP	92	360	3
NMTAP	93	0	6
NMTAP	93	12	5
NMHLD	93	24	4	48
NMTAP	93	72	6
NMTAP	93	84	5
NMHLD	93	96	4	48
NMTAP	93	144	7
NMTAP	93	192	1
NMTAP	93	204	2
NMHLD	93	216	3	48
NMTAP	93	264	1
NMTAP	93	276	2
NMHLD	93	288	3	48
NMTAP	93	336	0
BRTAP	94	0	1
BRTAP	94	0	5
NMTAP	94	72	3
NMTAP	94	72	7
NMSTR	94	120	2
NMSI_	94	120	2	96	24	7
NMSTR	94	120	6
NMSI_	94	120	6	96	24	3
NMTAP	94	144	1
NMTAP	94	144	5
NMTAP	94	192	2
NMTAP	94	192	6
NMTAP	94	264	0
NMTAP	94	264	4
NMSTR	94	312	1
NMSI_	94	312	1	96	24	4
NMSTR	94	312	5
NMSI_	94	312	5	96	24	0
NMTAP	94	336	2
NMTAP	94	336	6
NMTAP	95	0	1
NMTAP	95	0	5
NMTAP	95	72	3
NMTAP	95	72	7
NMSTR	95	120	2
BRSI_	95	120	2	96	24	5
NMSTR	95	120	6
BRSI_	95	120	6	96	24	1
NMTAP	95	144	1
NMTAP	95	144	5
BRTAP	95	192	2
BRTAP	95	192	6
NMTTP	95	204	0	B	0	M1
NMTTP	95	204	0	C	1	M1
NMTTP	95	204	0	E	0	M1
NMTTP	95	204	4	B	0	M1
NMTTP	95	204	4	E	0	M1

T_REC_TAP	575
T_REC_BRK	24
T_REC_XTP	31
T_REC_BXX	9
T_REC_HLD	71
T_REC_XHO	1
T_REC_BHO	3
T_REC_BXH	0
T_REC_STR	111
T_REC_BST	2
T_REC_XST	8
T_REC_XBS	0
T_REC_TTP	56
T_REC_THO	0
T_REC_SLD	110
T_REC_BSL	17
T_REC_ALL	1018
T_NUM_TAP	781
T_NUM_BRK	55
T_NUM_HLD	72
T_NUM_SLD	110
T_NUM_ALL	1018
T_JUDGE_TAP	816
T_JUDGE_HLD	138
T_JUDGE_SLD	127
T_JUDGE_ALL	1081
TTM_EACHPAIRS	169
TTM_SCR_TAP	390500
TTM_SCR_BRK	143000
TTM_SCR_HLD	72000
TTM_SCR_SLD	165000
TTM_SCR_ALL	770500
TTM_SCR_S	742050
TTM_SCR_SS	765000
TTM_RAT_ACV	10071

