VERSION	0.00.00	1.04.00
FES_MODE	0
BPM_DEF	160.000	160.000	160.000	160.000
MET_DEF	4	4
RESOLUTION	384
CLK_DEF	384
COMPATIBLE_CODE	MA2

BPM	0	0	160.000
MET	0	0	4	4

NMTAP	1	192	4
NMTAP	1	240	4
NMTAP	1	288	3
NMTAP	1	336	3
EXHLD	2	0	5	96
NMTAP	2	96	4
BXTAP	2	192	2
NMTAP	2	240	2
NMTAP	2	288	3
NMHLD	3	0	6	96
NMTAP	3	96	4
NMTAP	3	192	1
NMTAP	3	240	1
NMTAP	3	288	3
NMSTR	4	0	5
NMSCR	4	0	5	96	96	0
EXTAP	4	192	2
EXTAP	4	240	2
EXTAP	4	288	2
NMSTR	5	0	1
NMSCR	5	0	1	96	96	4
EXTAP	5	192	6
EXTAP	5	240	6
EXTAP	5	288	6
NMTAP	6	0	4
NMTAP	6	0	5
NMTAP	6	96	2
NMTAP	6	96	3
NMTAP	6	192	1
NMTAP	6	240	1
NMTAP	6	288	3
NMTAP	7	0	2
NMTAP	7	0	3
NMTAP	7	96	4
NMTAP	7	96	5
NMTAP	7	192	6
NMTAP	7	240	6
NMTAP	7	288	4
NMTAP	8	0	2
NMTAP	8	0	3
NMTAP	8	96	0
NMTAP	8	96	1
NMTAP	8	192	6
NMTAP	8	192	7
NMTAP	8	288	0
NMTAP	8	288	5
NMHLD	8	336	0	96
NMTAP	8	336	5
EXTAP	9	48	6
EXTAP	9	120	0
EXTAP	9	120	1
BXTAP	9	192	2
BXTAP	9	192	7
EXTAP	9	288	4
EXTAP	9	288	5
NMHLD	10	0	6	72
NMHLD	10	72	4	72
NMTAP	10	144	5
NMTAP	10	192	6
NMTAP	10	240	6
NMTAP	10	288	7
NMTAP	10	336	0
NMHLD	11	0	1	72
NMHLD	11	72	3	72
NMTAP	11	144	2
NMTAP	11	192	1
NMTAP	11	240	1
NMTAP	11	288	0
NMTAP	11	336	7
NMHLD	12	0	6	72
NMHLD	12	72	4	72
NMTAP	12	144	5
NMTAP	12	192	6
NMTAP	12	240	6
NMTAP	12	288	7
NMTAP	12	336	0
NMHLD	13	0	1	72
NMHLD	13	72	3	72
NMTAP	13	144	2
EXTAP	13	192	1
EXTAP	13	192	4
EXTAP	13	240	1
EXTAP	13	240	4
EXTAP	13	288	1
EXTAP	13	288	4
NMHLD	14	0	2	72
NMHLD	14	72	0	72
NMTAP	14	144	1
NMTAP	14	192	2
NMTAP	14	240	2
NMTAP	14	288	3
NMTAP	14	336	4
NMHLD	15	0	5	72
NMHLD	15	72	7	72
NMTAP	15	144	6
NMTAP	15	192	5
NMTAP	15	240	5
NMTAP	15	288	4
NMTAP	15	336	3
NMTAP	16	0	2
NMTAP	16	48	2
NMTAP	16	96	4
NMTAP	16	144	4
NMTAP	16	192	0
NMTAP	16	240	0
NMTAP	16	288	7
NMHLD	16	336	6	96
NMTAP	17	48	7
NMTAP	17	120	1
NMTAP	17	120	7
NMTAP	17	192	2
NMTAP	17	192	6
NMTAP	18	0	1
NMTAP	18	96	3
NMTAP	18	192	5
NMTAP	18	240	5
NMTAP	18	288	3
NMTAP	19	0	4
NMTAP	19	0	6
NMTAP	19	96	3
NMTAP	19	96	4
NMTAP	19	192	2
NMTAP	19	240	2
NMTAP	19	288	3
NMSTR	20	0	0
NMSCR	20	0	0	96	96	3
NMTAP	20	0	4
NMSTR	20	192	6
NMSCL	20	192	6	96	96	3
NMTAP	21	0	2
NMTAP	21	48	2
NMTAP	21	96	2
NMHLD	21	192	1	96
NMHLD	21	192	3	96
NMTAP	22	0	0
NMTAP	22	96	2
NMTAP	22	192	4
NMTAP	22	240	4
NMTAP	22	288	3
NMTAP	23	0	4
NMTAP	23	0	6
NMTAP	23	96	3
NMTAP	23	96	4
NMTAP	23	192	1
NMTAP	23	240	1
NMTAP	23	288	3
NMHLD	24	0	0	96
NMTAP	24	0	4
NMHLD	24	96	2	96
NMHLD	24	192	4	96
NMTAP	24	288	6
NMTAP	25	0	0
NMTAP	25	0	7
NMTAP	25	48	0
NMTAP	25	48	7
NMTAP	25	96	0
NMSTR	25	96	7
BRSI_	25	96	7	96	48	3
NMTAP	26	0	2
NMTAP	26	48	2
NMTAP	26	96	3
NMTAP	26	144	1
NMTAP	26	192	5
NMTAP	26	240	5
NMTAP	26	288	4
NMTAP	26	336	6
NMTAP	27	0	2
NMTAP	27	48	2
NMTAP	27	96	1
NMTAP	27	96	4
EXTAP	27	192	2
EXTAP	27	192	3
EXTAP	27	264	2
EXTAP	27	264	3
EXTAP	27	336	2
EXTAP	27	336	3
NMTAP	28	0	1
NMTAP	28	48	1
NMTAP	28	96	0
NMTAP	28	96	2
NMTAP	28	192	7
NMTAP	28	240	7
NMTAP	28	288	0
NMTAP	28	288	6
NMTAP	29	0	1
NMSTR	29	0	7
NMSI_	29	0	7	96	48	5
EXTAP	29	192	3
EXTAP	29	240	3
EXTAP	29	288	4
EXTAP	29	336	4
NMTAP	30	0	2
NMTAP	30	48	2
NMTAP	30	96	4
NMTAP	30	144	3
NMTAP	30	192	5
NMTAP	30	240	5
EXTAP	30	288	4
EXTAP	30	288	6
NMTAP	31	0	5
NMTAP	31	48	5
NMTAP	31	96	3
NMTAP	31	144	4
NMTAP	31	192	2
NMTAP	31	240	2
EXSTR	31	288	1
NMSCL	31	288	1	96	96	6
EXTAP	31	288	3
EXTAP	32	192	5
EXTAP	32	240	5
NMTAP	32	288	4
NMTAP	33	0	2
NMTAP	33	48	2
NMTAP	33	96	3
NMTAP	33	192	4
NMTAP	33	192	6
NMSTR	33	288	0
NMSI_	33	288	0	96	48	3
NMSTR	33	288	7
NMSI_	33	288	7	96	48	4
EXTAP	34	192	2
EXTAP	34	192	3
EXTAP	34	264	2
EXTAP	34	264	3
EXTAP	34	336	2
EXTAP	34	336	3
EXSTR	35	0	1
NMSI_	35	0	1	96	96	5
EXTAP	35	0	4
CNSI_	35	192	5	0	48	2
CNSI_	35	240	2	0	48	4
NMTAP	36	0	7
BXTAP	36	96	3
BXTAP	36	96	5
NMHLD	36	192	1	72
NMHLD	36	264	3	72
NMTAP	36	336	2
NMHLD	37	0	6	72
NMHLD	37	72	4	72
NMTAP	37	144	5
NMHLD	37	192	2	72
NMHLD	37	264	4	72
NMTAP	37	336	3
NMTAP	38	0	3
NMTAP	38	96	0
NMTAP	38	96	7
EXTAP	38	192	4
EXTAP	38	192	5
EXTAP	38	264	4
EXTAP	38	264	5
EXTAP	38	336	4
EXTAP	38	336	5
EXTAP	39	0	3
EXSTR	39	0	6
NMSI_	39	0	6	96	96	2
CNSI_	39	192	2	0	48	5
CNSI_	39	240	5	0	48	3
NMTAP	40	0	0
BXTAP	40	96	2
BXTAP	40	96	4
NMHLD	40	192	6	72
NMHLD	40	264	4	72
NMTAP	40	336	5
NMHLD	41	0	2	72
NMHLD	41	72	4	72
NMTAP	41	144	3
NMTAP	41	192	3
NMTAP	41	288	1
NMTAP	41	288	5
NMSTR	42	0	6
NMSCL	42	0	6	96	96	3
NMSTR	42	192	2
NMSCL	42	192	2	96	96	7
NMSTR	43	0	6
NMSCL	43	0	6	96	96	3
NMHLD	43	192	2	192
NMTAP	44	0	3
NMTTP	44	96	1	E	0	M1
NMTTP	44	144	0	C	0	M1
NMTTP	44	192	5	E	0	M1
NMTAP	44	288	3
NMTAP	44	288	6
NMTAP	45	0	3
NMTAP	45	0	6
NMTTP	45	96	7	E	0	M1
NMTTP	45	144	0	C	0	M1
NMTTP	45	192	3	E	0	M1
NMTAP	45	288	1
NMTAP	45	288	4
NMHLD	46	0	1	96
NMTAP	46	96	3
NMTAP	46	144	3
NMTAP	46	192	2
NMTAP	46	240	2
NMTAP	46	288	4
NMTAP	46	336	4
NMTAP	47	0	3
NMTAP	47	48	3
NMTAP	47	96	5
NMTAP	47	144	5
NMTAP	47	192	3
NMTAP	47	216	4
NMTAP	47	240	3
NMTAP	47	264	4
NMTAP	47	288	3
NMTAP	47	312	4
NMTAP	47	336	3
NMTAP	47	360	4
NMSTR	48	0	3
NMSF_	48	0	3	96	144	7
NMHLD	49	0	0	72
NMHLD	49	0	6	72
NMTAP	49	144	1
NMTAP	49	144	5
BRTAP	49	192	1
BRTAP	49	192	5
EXHLD	50	0	1	72
NMTAP	50	72	0
NMTAP	50	144	2
NMTAP	50	144	7
NMHLD	50	192	6	72
NMTAP	50	264	7
NMTAP	50	336	0
NMTAP	50	336	5
NMHLD	51	0	1	72
NMTAP	51	72	0
NMTAP	51	144	2
NMTAP	51	144	7
NMTAP	51	192	2
NMTAP	51	192	7
NMSTR	51	288	6
NMSI_	51	288	6	96	48	4
NMSTR	52	0	7
NMSI_	52	0	7	96	48	1
NMSTR	52	96	6
NMSI_	52	96	6	96	48	3
NMSTR	52	192	7
NMSI_	52	192	7	96	48	2
NMSTR	52	288	6
NMSCR	52	288	6	96	144	4
BRTAP	53	192	0
NMHLD	54	0	6	72
NMTAP	54	72	7
NMTAP	54	144	0
NMTAP	54	144	5
NMHLD	54	192	1	72
NMTAP	54	264	0
NMTAP	54	336	2
NMTAP	54	336	7
NMHLD	55	0	6	72
NMTAP	55	72	7
NMTAP	55	144	0
NMTAP	55	144	5
NMTAP	55	192	0
NMTAP	55	192	5
NMSTR	55	288	1
NMSI_	55	288	1	96	48	3
NMSTR	56	0	0
NMSI_	56	0	0	96	48	6
NMSTR	56	96	1
NMSI_	56	96	1	96	48	4
NMSTR	56	192	0
NMSI_	56	192	0	96	48	5
EXSTR	56	288	2
NMSCR	56	288	2	96	192	1
BRTAP	57	192	4
NMSTR	57	288	2
NMSI_	57	288	2	96	48	0
NMSTR	57	288	3
NMSI_	57	288	3	96	48	7
NMSTR	58	96	4
NMSI_	58	96	4	96	48	0
NMSTR	58	96	5
NMSI_	58	96	5	96	48	7
NMSTR	58	288	2
NMSI_	58	288	2	96	48	0
NMSTR	58	288	3
NMSI_	58	288	3	96	48	7
NMSTR	59	96	4
NMSI_	59	96	4	96	48	0
NMSTR	59	96	5
NMSI_	59	96	5	96	48	7
NMSTR	59	288	2
NMSI_	59	288	2	96	48	7
NMSTR	59	288	3
NMSI_	59	288	3	96	48	7
NMSTR	60	96	4
NMSI_	60	96	4	96	48	0
NMSTR	60	96	5
NMSI_	60	96	5	96	48	0
NMSTR	60	288	2
NMSI_	60	288	2	96	48	7
NMSTR	60	288	3
NMSI_	60	288	3	96	48	7
NMSTR	61	96	0
BRSCR	61	96	0	96	48	3
NMSTR	61	96	6
BRSCL	61	96	6	96	48	3
NMTAP	62	0	2
NMTAP	62	48	2
NMTAP	62	96	3
NMTAP	62	144	1
NMTAP	62	192	5
NMTAP	62	240	5
NMTAP	62	288	4
NMTAP	62	336	6
NMTAP	63	0	2
NMTAP	63	48	2
NMTAP	63	96	3
NMTAP	63	144	4
NMHLD	63	192	1	96
NMSTR	63	192	5
NMSI_	63	192	5	96	48	2
BRTAP	64	0	0
NMTAP	64	96	0
NMTAP	64	96	7
NMTAP	64	144	1
NMTAP	64	144	6
NMTAP	64	192	2
NMTAP	64	192	5
NMTAP	64	288	0
NMTAP	64	288	7
NMHLD	65	0	6	72
NMTAP	65	72	7
NMTAP	65	144	0
NMTAP	65	144	5
NMHLD	65	192	1	72
NMTAP	65	264	0
NMTAP	65	336	2
NMTAP	65	336	7
BXTAP	66	0	3
BXTAP	66	0	6
BXTAP	66	144	1
BXTAP	66	144	4
NMTAP	66	288	5
NMTAP	66	336	5
BXTAP	67	0	4
BXTAP	67	0	6
BXTAP	67	144	1
BXTAP	67	144	3
NMTAP	67	288	6
NMTAP	67	336	6
BXTAP	68	0	5
BXTAP	68	0	7
BXTAP	68	144	0
BXTAP	68	144	2
NMTAP	68	288	3
NMTAP	68	288	4
NMSTR	68	336	3
NMSI_	68	336	3	96	72	5
NMTAP	68	336	4
CNSI_	69	120	5	0	72	1
CNSI_	69	192	1	0	96	7
EXTAP	69	288	6
NMTAP	70	0	5
NMHLD	70	96	5	96
EXTAP	70	192	6
EXHLD	70	288	6	96
NMTAP	71	0	7
NMTAP	71	96	7
NMTAP	71	192	5
NMTAP	71	192	6
NMSTR	71	288	4
NMSCL	71	288	4	96	96	1
NMTAP	71	288	5
NMTAP	72	192	1
NMTAP	72	288	0
NMSTR	72	288	1
NMSCR	72	288	1	96	96	4
NMTAP	73	192	5
NMTAP	73	288	3
NMTAP	73	288	5
NMSTR	74	0	1
NMSCR	74	0	1	96	96	4
NMSTR	74	96	0
NMSV_	74	96	0	96	96	5
NMSTR	75	0	6
BRSCL	75	0	6	96	96	3
NMSTR	75	96	7
BRSV_	75	96	7	96	96	2
NMTAP	76	0	1
NMTAP	76	48	1
NMTAP	76	96	6
NMTAP	76	144	6
NMTAP	76	192	0
NMTAP	76	216	7
NMTAP	76	240	0
NMTAP	76	264	7
NMTAP	76	288	0
NMTAP	76	312	7
NMSTR	76	336	0
NMSF_	76	336	0	96	144	4
NMTAP	76	360	7
EXTAP	77	288	3
EXTAP	77	288	5
BXHLD	78	0	6	72
NMTAP	78	72	7
NMTAP	78	144	0
NMTAP	78	144	5
NMHLD	78	192	1	72
NMTAP	78	264	0
NMTAP	78	336	2
NMTAP	78	336	7
NMHLD	79	0	6	72
NMTAP	79	72	7
NMTAP	79	144	0
NMTAP	79	144	5
NMTAP	79	192	1
NMTAP	79	192	4
NMSTR	79	288	6
NMSCL	79	288	6	96	48	3
NMSTR	80	0	2
NMSI_	80	0	2	96	48	7
NMSTR	80	96	6
NMSI_	80	96	6	96	48	3
NMSTR	80	192	2
NMSCL	80	192	2	96	48	7
NMSTR	80	288	6
NMSUL	80	288	6	96	144	3
BXTAP	81	192	0
BXTAP	81	192	4
NMHLD	82	0	1	72
NMTAP	82	72	0
NMTAP	82	144	2
NMTAP	82	144	7
NMHLD	82	192	6	72
NMTAP	82	264	7
NMTAP	82	336	0
NMTAP	82	336	5
NMHLD	83	0	1	72
NMTAP	83	72	0
NMTAP	83	144	2
NMTAP	83	144	7
NMTAP	83	192	3
NMTAP	83	192	6
NMSTR	83	288	1
NMSCR	83	288	1	96	48	4
NMSTR	84	0	5
NMSI_	84	0	5	96	48	0
NMSTR	84	96	1
NMSI_	84	96	1	96	48	4
NMSTR	84	192	5
NMSCR	84	192	5	96	48	0
NMSTR	84	288	1
NMSF_	84	288	1	96	96	5
BXTAP	85	192	3
BXTAP	85	192	6
NMSTR	85	288	4
NMSI_	85	288	4	96	48	1
NMSTR	85	288	5
NMSI_	85	288	5	96	48	0
NMSTR	86	96	2
NMSI_	86	96	2	96	48	7
NMSTR	86	96	3
NMSI_	86	96	3	96	48	6
NMSTR	86	288	4
NMSI_	86	288	4	96	48	1
NMSTR	86	288	5
NMSI_	86	288	5	96	48	0
NMSTR	87	96	2
NMSI_	87	96	2	96	48	7
NMSTR	87	96	3
NMSI_	87	96	3	96	48	6
NMSTR	87	288	4
NMSI_	87	288	4	96	48	0
NMSTR	87	288	5
NMSI_	87	288	5	96	48	1
NMSTR	88	96	2
NMSI_	88	96	2	96	48	6
NMSTR	88	96	3
NMSI_	88	96	3	96	48	7
NMSTR	88	288	4
NMSI_	88	288	4	96	48	0
NMSTR	88	288	5
NMSI_	88	288	5	96	48	1
NMSTR	89	96	2
BRSI_	89	96	2	96	48	5
NMSTR	89	96	7
BRSI_	89	96	7	96	48	4
NMTAP	90	0	4
NMTAP	90	0	5
NMTAP	90	48	6
NMTAP	90	96	1
NMTAP	90	96	7
NMTAP	90	192	2
NMTAP	90	192	3
NMTAP	90	240	1
NMTAP	90	288	0
NMTAP	90	288	4
NMTAP	91	0	3
NMTAP	91	0	5
NMTAP	91	48	6
NMTAP	91	96	0
NMSTR	91	96	7
NMSI_	91	96	7	96	48	3
NMSTR	91	192	1
NMSI_	91	192	1	96	48	5
NMSTR	91	288	6
NMSLR	91	288	6	96	144	2
EXTAP	92	192	3
EXTAP	92	288	2
EXTAP	92	288	4
NMHLD	93	0	5	72
NMTAP	93	72	4
NMTAP	93	144	3
NMTAP	93	144	6
NMHLD	93	192	2	72
NMTAP	93	264	3
NMTAP	93	336	1
NMTAP	93	336	4
BRTAP	94	0	0
BRTAP	94	0	5
NMHLD	94	72	6	48
NMHLD	94	72	7	48
NMTAP	94	144	6
NMTAP	94	144	7
EXTAP	94	192	0
EXTAP	94	192	5
NMHLD	94	264	0	48
NMHLD	94	264	1	48
NMTAP	94	336	0
NMTAP	94	336	1
EXTAP	95	0	2
EXTAP	95	0	7
NMHLD	95	72	0	48
NMHLD	95	72	6	48
NMTAP	95	144	0
NMTAP	95	144	6
BXTAP	95	192	1
BXTAP	95	192	5

T_REC_TAP	311
T_REC_BRK	7
T_REC_XTP	57
T_REC_BXX	25
T_REC_HLD	56
T_REC_XHO	3
T_REC_BHO	0
T_REC_BXH	1
T_REC_STR	75
T_REC_BST	0
T_REC_XST	4
T_REC_XBS	0
T_REC_TTP	6
T_REC_THO	0
T_REC_SLD	72
T_REC_BSL	7
T_REC_ALL	624
T_NUM_TAP	453
T_NUM_BRK	40
T_NUM_HLD	59
T_NUM_SLD	72
T_NUM_ALL	624
T_JUDGE_TAP	485
T_JUDGE_HLD	116
T_JUDGE_SLD	79
T_JUDGE_ALL	680
TTM_EACHPAIRS	129
TTM_SCR_TAP	226500
TTM_SCR_BRK	104000
TTM_SCR_HLD	59000
TTM_SCR_SLD	108000
TTM_SCR_ALL	497500
TTM_SCR_S	478700
TTM_SCR_SS	493500
TTM_RAT_ACV	10081

