VERSION	0.00.00	1.04.00
FES_MODE	0
BPM_DEF	160.000	160.000	160.000	160.000
MET_DEF	4	4
RESOLUTION	384
CLK_DEF	384
COMPATIBLE_CODE	MA2

BPM	0	0	160.000
MET	0	0	4	4

NMTAP	2	0	1
NMTAP	2	96	1
NMTAP	2	192	1
NMTAP	3	0	2
NMTAP	3	96	2
NMTAP	3	192	2
NMTAP	4	0	3
NMTAP	4	96	3
NMTAP	4	192	3
NMTAP	5	0	4
NMTAP	5	0	5
NMTAP	5	192	4
NMTAP	5	192	5
NMTAP	6	0	6
NMTAP	6	96	6
NMTAP	6	192	6
NMTAP	7	0	5
NMTAP	7	96	5
NMTAP	7	192	5
NMTAP	8	0	4
NMTAP	8	96	4
NMTAP	8	192	4
NMTAP	9	0	2
NMTAP	9	0	3
NMTAP	9	192	2
NMTAP	9	192	3
NMTAP	10	0	1
NMTAP	10	96	1
NMTAP	10	192	0
NMTAP	10	192	1
NMTAP	11	0	2
NMTAP	11	96	2
NMTAP	11	192	2
NMTAP	11	192	3
NMTAP	12	0	4
NMTAP	12	96	4
NMTAP	12	192	4
NMTAP	12	192	5
NMTAP	13	0	6
NMTAP	13	0	7
NMTAP	13	96	6
NMTAP	13	96	7
NMTAP	13	192	6
NMTAP	13	192	7
NMTAP	14	0	6
NMTAP	14	96	6
NMTAP	14	192	6
NMTAP	14	192	7
NMTAP	15	0	5
NMTAP	15	96	5
NMTAP	15	192	4
NMTAP	15	192	5
NMTAP	16	0	3
NMTAP	16	96	3
NMTAP	16	192	2
NMTAP	16	192	3
NMTAP	17	0	0
NMTAP	17	0	1
NMTAP	17	96	0
NMTAP	17	96	1
NMTAP	17	192	0
NMTAP	17	192	1
NMSTR	18	0	1
NMSI_	18	0	1	96	192	4
NMSTR	19	0	6
NMSI_	19	0	6	96	192	3
NMSTR	20	0	2
NMSI_	20	0	2	96	192	7
NMTAP	21	0	6
NMTAP	21	192	6
NMTAP	21	192	7
NMSTR	22	0	5
NMSI_	22	0	5	96	192	2
NMSTR	23	0	1
NMSI_	23	0	1	96	192	5
NMSTR	24	0	7
NMSI_	24	0	7	96	192	3
NMTAP	25	0	2
NMTAP	25	192	3
NMTAP	25	192	4
NMTAP	26	0	5
NMTAP	26	96	5
NMTAP	26	192	6
NMTAP	26	288	6
NMTAP	27	0	7
NMTAP	27	96	7
NMTAP	27	192	0
NMTAP	27	192	1
NMTAP	28	0	2
NMTAP	28	96	2
NMTAP	28	192	1
NMTAP	28	288	1
NMTAP	29	0	0
NMTAP	29	96	0
NMTAP	29	192	6
NMTAP	29	192	7
NMTAP	30	0	6
NMTAP	30	96	6
NMTAP	30	192	5
NMTAP	30	288	5
NMTAP	31	0	4
NMTAP	31	96	4
NMTAP	31	192	2
NMTAP	31	192	3
NMTAP	32	0	1
NMTAP	32	96	1
NMTAP	32	192	2
NMTAP	32	288	2
NMTAP	33	0	3
NMTAP	33	96	3
NMTAP	33	192	4
NMTAP	33	192	5
NMHLD	34	0	5	192
NMHLD	34	192	4	192
NMHLD	35	0	3	192
NMTAP	35	192	2
NMHLD	36	0	2	192
NMHLD	36	192	3	192
NMHLD	37	0	4	192
NMTAP	37	192	5
NMHLD	38	0	6	192
NMHLD	38	192	5	192
NMHLD	39	0	4	192
NMTAP	39	192	3
NMHLD	40	0	1	192
NMHLD	40	192	2	192
NMHLD	41	0	3	192
NMTAP	41	192	4
NMTTP	42	0	6	B	0	L1
NMTTP	42	96	5	B	0	L1
NMTTP	42	192	4	B	0	L1
NMTTP	43	0	1	B	0	L1
NMTTP	43	96	2	B	0	L1
NMTTP	43	192	3	B	0	L1
NMTTP	44	0	6	B	0	L1
NMTTP	44	96	5	B	0	L1
NMTTP	44	192	4	B	0	L1
NMTTP	44	288	3	B	0	L1
NMTTP	45	0	2	B	0	L1
NMTTP	45	96	1	B	0	L1
NMTTP	45	192	0	C	0	L1
NMTTP	46	0	0	B	0	L1
NMTTP	46	96	1	B	0	L1
NMTTP	46	192	2	B	0	L1
NMTTP	46	192	3	B	0	L1
NMTTP	47	0	7	B	0	L1
NMTTP	47	96	6	B	0	L1
NMTTP	47	192	4	B	0	L1
NMTTP	47	192	5	B	0	L1
NMTTP	48	0	1	B	0	L1
NMTTP	48	96	2	B	0	L1
NMTTP	48	192	3	B	0	L1
NMTTP	48	288	4	B	0	L1
NMTTP	49	0	0	C	1	L1
EXTAP	50	0	0
EXTAP	50	96	0
NMTAP	50	192	0
NMTAP	50	192	7
NMTAP	50	288	0
NMTAP	50	288	7
NMTAP	51	0	6
NMTAP	51	96	6
NMTAP	51	192	6
NMTAP	51	192	7
NMTAP	52	0	5
NMTAP	52	96	5
NMTAP	52	192	6
NMTAP	52	192	7
NMTAP	52	288	6
NMTAP	52	288	7
NMTAP	53	0	0
NMTAP	53	96	0
NMTAP	53	192	0
NMTAP	53	192	1
NMTAP	54	0	1
NMTAP	54	96	1
NMTAP	54	192	2
NMTAP	54	192	3
NMTAP	54	288	2
NMTAP	54	288	3
NMTAP	55	0	4
NMTAP	55	96	4
NMTAP	55	192	4
NMTAP	55	192	5
NMTAP	56	0	6
NMTAP	56	96	6
NMTAP	56	192	4
NMTAP	56	192	5
NMTAP	56	288	4
NMTAP	56	288	5
NMTAP	57	0	3
NMTAP	57	96	3
BRTAP	57	192	2
BRTAP	57	192	3
NMTAP	58	0	1
NMTAP	58	96	1
NMTAP	58	192	1
NMTAP	58	288	0
NMTAP	58	288	1
NMTAP	59	0	2
NMTAP	59	96	2
NMTAP	59	192	2
NMTAP	59	288	2
NMTAP	59	288	3
NMTAP	60	0	4
NMTAP	60	96	4
NMTAP	60	192	4
NMTAP	60	288	4
NMTAP	60	288	5
NMTAP	61	0	6
NMTAP	61	0	7
NMTAP	61	96	6
NMTAP	61	96	7
BRTAP	61	192	0
BRTAP	61	192	5
NMTAP	62	0	6
NMTAP	62	96	6
NMTAP	62	192	6
NMTAP	62	288	6
NMTAP	62	288	7
NMTAP	63	0	5
NMTAP	63	96	5
NMTAP	63	192	5
NMTAP	63	288	4
NMTAP	63	288	5
NMTAP	64	0	3
NMTAP	64	96	3
NMTAP	64	192	3
NMTAP	64	288	2
NMTAP	64	288	3
NMTAP	65	0	0
NMTAP	65	0	1
NMTAP	65	96	0
NMTAP	65	96	1
BRTAP	65	192	2
BRTAP	65	192	7
EXSTR	66	0	0
NMSI_	66	0	0	96	192	5
EXSTR	66	0	1
NMSI_	66	0	1	96	192	4
EXSTR	67	0	6
NMSI_	67	0	6	96	192	3
EXSTR	67	0	7
NMSI_	67	0	7	96	192	2
EXSTR	68	0	0
NMSI_	68	0	0	96	192	5
EXSTR	68	0	1
NMSI_	68	0	1	96	192	4
EXTAP	69	0	6
EXTAP	69	0	7
BXTAP	69	192	0
BXTAP	69	192	7
NMTAP	70	0	6
NMTAP	70	96	5
NMTAP	70	192	4
NMTAP	70	288	3
NMTAP	71	0	2
NMTAP	71	96	1
NMTAP	71	192	0
NMTAP	71	192	7
NMTAP	72	0	1
NMTAP	72	96	2
NMTAP	72	192	3
NMTAP	72	288	4
NMTAP	73	0	5
NMTAP	73	96	6
NMTAP	73	192	0
NMTAP	73	192	7
NMTAP	74	0	7
NMTAP	74	96	6
NMTAP	74	192	5
NMTAP	74	288	4
NMTAP	75	0	3
NMTAP	75	96	2
NMTAP	75	192	1
NMTAP	75	288	0
NMTAP	76	0	7
NMTAP	76	96	6
NMTAP	76	192	5
NMTAP	76	288	4
NMHLD	77	0	3	192
NMHLD	77	0	4	192
NMTAP	78	0	5
NMTAP	78	48	5
NMTAP	78	96	5
NMTAP	78	192	6
NMTAP	78	192	7
NMTAP	78	288	6
NMTAP	78	288	7
NMTAP	79	0	0
NMTAP	79	48	0
NMTAP	79	96	0
NMTAP	79	192	0
NMTAP	79	192	1
NMTAP	80	0	2
NMTAP	80	48	2
NMTAP	80	96	2
NMTAP	80	192	0
NMTAP	80	192	1
NMTAP	80	288	0
NMTAP	80	288	1
NMTAP	81	0	7
NMTAP	81	48	7
NMTAP	81	96	7
NMTAP	81	192	6
NMTAP	81	192	7
NMTAP	82	0	6
NMTAP	82	48	6
NMTAP	82	96	6
NMTAP	82	192	4
NMTAP	82	192	5
NMTAP	82	288	4
NMTAP	82	288	5
NMTAP	83	0	3
NMTAP	83	48	3
NMTAP	83	96	3
NMTAP	83	192	2
NMTAP	83	192	3
NMTAP	84	0	1
NMTAP	84	48	1
NMTAP	84	96	1
NMTAP	84	192	2
NMTAP	84	192	3
NMTAP	84	288	2
NMTAP	84	288	3
NMTAP	85	0	4
NMTAP	85	48	4
NMTAP	85	96	4
BRTAP	85	192	4
BRTAP	85	192	5
NMTAP	86	0	5
NMTAP	86	96	5
NMTAP	86	192	6
NMTAP	86	192	7
NMTAP	86	288	6
NMTAP	86	288	7
NMTAP	87	0	0
NMTAP	87	0	5
NMTAP	87	96	1
NMTAP	87	96	4
NMTAP	87	192	2
NMTAP	87	192	3
NMTAP	88	0	2
NMTAP	88	96	2
NMTAP	88	192	0
NMTAP	88	192	1
NMTAP	88	288	0
NMTAP	88	288	1
NMTAP	89	0	2
NMTAP	89	0	7
NMTAP	89	96	3
NMTAP	89	96	6
NMTAP	89	192	4
NMTAP	89	192	5
NMTAP	90	0	6
NMTAP	90	96	6
NMTAP	90	192	4
NMTAP	90	192	5
NMTAP	90	288	4
NMTAP	90	288	5
NMTAP	91	0	3
NMTAP	91	0	6
NMTAP	91	96	2
NMTAP	91	96	7
NMTAP	91	192	0
NMTAP	91	192	1
NMTAP	92	0	1
NMTAP	92	96	1
NMTAP	92	192	2
NMTAP	92	192	3
NMTAP	92	288	2
NMTAP	92	288	3
NMTAP	93	0	1
NMTAP	93	0	4
NMTAP	93	96	0
NMTAP	93	96	5
NMTAP	93	192	6
NMTAP	93	192	7
NMTAP	94	0	0
NMTAP	94	0	1
NMTAP	94	96	0
NMTAP	94	96	1
NMTAP	94	192	2
NMTAP	94	192	7
NMTAP	95	0	6
NMTAP	95	0	7
NMTAP	95	96	6
NMTAP	95	96	7
BXTAP	95	192	0
BXTAP	95	192	5

T_REC_TAP	310
T_REC_BRK	8
T_REC_XTP	4
T_REC_BXX	4
T_REC_HLD	14
T_REC_XHO	0
T_REC_BHO	0
T_REC_BXH	0
T_REC_STR	6
T_REC_BST	0
T_REC_XST	6
T_REC_XBS	0
T_REC_TTP	26
T_REC_THO	0
T_REC_SLD	12
T_REC_BSL	0
T_REC_ALL	390
T_NUM_TAP	352
T_NUM_BRK	12
T_NUM_HLD	14
T_NUM_SLD	12
T_NUM_ALL	390
T_JUDGE_TAP	364
T_JUDGE_HLD	56
T_JUDGE_SLD	12
T_JUDGE_ALL	432
TTM_EACHPAIRS	92
TTM_SCR_TAP	176000
TTM_SCR_BRK	31200
TTM_SCR_HLD	14000
TTM_SCR_SLD	18000
TTM_SCR_ALL	239200
TTM_SCR_S	230900
TTM_SCR_SS	238000
TTM_RAT_ACV	10050

