VERSION	0.00.00	1.04.00
FES_MODE	0
BPM_DEF	160.000	160.000	160.000	160.000
MET_DEF	4	4
RESOLUTION	384
CLK_DEF	384
COMPATIBLE_CODE	MA2

BPM	0	0	160.000
MET	0	0	4	4

NMTAP	2	0	7
NMTAP	3	0	7
NMTAP	4	0	7
NMTAP	5	0	7
NMTAP	6	0	0
NMTAP	7	0	0
NMTAP	8	0	0
EXTAP	9	0	0
EXTAP	9	0	7
NMTAP	10	0	0
NMTAP	10	192	0
NMTAP	11	0	1
NMTAP	11	192	1
NMTAP	12	0	2
NMTAP	12	192	2
NMTAP	13	0	3
NMTAP	13	0	4
NMTAP	14	0	4
NMTAP	14	192	4
NMTAP	15	0	5
NMTAP	15	192	5
NMTAP	16	0	6
NMTAP	16	192	6
EXTAP	17	0	0
EXTAP	17	0	7
NMTAP	18	0	7
NMTAP	18	192	7
NMTAP	19	0	6
NMTAP	19	0	7
NMTAP	19	192	6
NMTAP	19	192	7
NMTAP	20	0	5
NMTAP	20	192	5
NMTAP	21	0	4
NMTAP	21	0	5
NMTAP	21	192	4
NMTAP	21	192	5
NMTAP	22	0	3
NMTAP	22	192	3
NMTAP	23	0	2
NMTAP	23	0	3
NMTAP	23	192	2
NMTAP	23	192	3
NMTAP	24	0	1
NMTAP	24	192	1
NMTAP	25	0	0
NMTAP	25	0	1
NMTAP	26	0	0
NMTAP	26	96	0
NMTAP	26	192	0
NMTAP	27	0	1
NMTAP	27	96	1
NMTAP	27	192	1
NMTAP	28	0	2
NMTAP	28	96	2
NMTAP	28	192	2
NMTAP	29	0	3
NMTAP	29	0	4
NMTAP	29	192	3
NMTAP	29	192	4
NMTAP	30	0	4
NMTAP	30	96	4
NMTAP	30	192	4
NMTAP	31	0	5
NMTAP	31	96	5
NMTAP	31	192	5
NMTAP	32	0	6
NMTAP	32	96	6
NMTAP	32	192	6
NMTAP	33	0	0
NMTAP	33	0	7
NMTAP	33	192	0
NMTAP	33	192	7
NMSTR	34	0	7
NMSI_	34	0	7	96	288	3
NMSTR	36	0	2
NMSI_	36	0	2	96	288	5
NMSTR	38	0	6
NMSI_	38	0	6	96	288	2
NMSTR	40	0	1
NMSI_	40	0	1	96	288	5
NMHLD	42	0	6	384
NMHLD	42	0	7	384
NMHLD	44	0	4	384
NMHLD	44	0	5	384
NMHLD	46	0	2	384
NMHLD	46	0	3	384
NMHLD	48	0	0	384
NMHLD	48	0	1	384
BRTAP	50	0	0
NMTAP	50	96	0
NMTAP	50	192	0
NMTAP	50	288	0
NMTAP	51	0	1
NMTAP	51	96	1
NMTAP	51	192	0
NMTAP	51	192	1
NMTAP	52	0	2
NMTAP	52	96	2
NMTAP	52	192	2
NMTAP	52	288	2
NMTAP	53	0	3
NMTAP	53	96	3
NMTAP	53	192	3
NMTAP	53	192	4
NMTAP	54	0	4
NMTAP	54	96	4
NMTAP	54	192	4
NMTAP	54	288	4
NMTAP	55	0	5
NMTAP	55	96	5
NMTAP	55	192	4
NMTAP	55	192	5
NMTAP	56	0	6
NMTAP	56	96	6
NMTAP	56	192	6
NMTAP	56	288	6
NMTAP	57	0	7
NMTAP	57	96	7
NMTAP	57	192	0
NMTAP	57	192	7
NMTAP	58	0	7
NMTAP	58	96	7
NMTAP	58	192	7
NMTAP	58	288	7
NMTAP	59	0	6
NMTAP	59	96	6
NMTAP	59	192	6
NMTAP	59	192	7
NMTAP	60	0	5
NMTAP	60	96	5
NMTAP	60	192	5
NMTAP	60	288	5
NMTAP	61	0	4
NMTAP	61	96	4
NMTAP	61	192	3
NMTAP	61	192	4
NMTAP	62	0	3
NMTAP	62	96	3
NMTAP	62	192	3
NMTAP	62	288	3
NMTAP	63	0	2
NMTAP	63	96	2
NMTAP	63	192	2
NMTAP	63	192	3
NMTAP	64	0	1
NMTAP	64	96	1
NMTAP	64	192	1
NMTAP	64	288	1
NMTAP	65	0	0
NMTAP	65	96	0
NMTAP	65	192	0
NMTAP	65	192	7
NMTAP	66	0	7
NMTAP	66	96	7
NMTAP	66	192	6
NMTAP	66	192	7
NMTAP	67	0	0
NMTAP	67	96	0
NMTAP	67	192	0
NMTAP	67	192	1
NMTAP	68	0	7
NMTAP	68	96	7
NMTAP	68	192	0
NMTAP	68	192	7
EXTAP	69	0	0
EXTAP	69	0	7
NMTTP	70	0	0	B	0	L1
NMTTP	71	0	7	B	0	L1
NMTTP	72	0	1	B	0	L1
NMTTP	73	0	6	B	0	L1
NMTTP	74	0	2	B	0	L1
NMTTP	75	0	5	B	0	L1
NMTHO	76	0	0	360	C	0	L1
BRTAP	78	0	7
NMTAP	78	96	7
NMTAP	78	192	6
NMTAP	78	288	6
NMTAP	79	0	5
NMTAP	79	96	5
NMTAP	79	192	4
NMTAP	79	192	5
NMTAP	80	0	3
NMTAP	80	96	3
NMTAP	80	192	2
NMTAP	80	288	2
NMTAP	81	0	1
NMTAP	81	96	1
NMTAP	81	192	0
NMTAP	81	192	1
NMTAP	82	0	0
NMTAP	82	96	0
NMTAP	82	192	1
NMTAP	82	288	1
NMTAP	83	0	2
NMTAP	83	96	2
NMTAP	83	192	2
NMTAP	83	192	3
NMTAP	84	0	4
NMTAP	84	96	4
NMTAP	84	192	5
NMTAP	84	288	5
NMTAP	85	0	6
NMTAP	85	96	6
NMTAP	85	192	6
NMTAP	85	192	7
NMTAP	86	0	7
NMTAP	86	96	7
NMTAP	86	192	6
NMTAP	86	288	6
NMTAP	87	0	5
NMTAP	87	96	5
NMTAP	87	192	4
NMTAP	87	288	4
NMTAP	88	0	3
NMTAP	88	96	3
NMTAP	88	192	2
NMTAP	88	288	2
NMTAP	89	0	1
NMTAP	89	96	1
NMTAP	89	192	0
NMTAP	89	192	1
NMTAP	90	0	0
NMTAP	90	96	0
NMTAP	90	192	1
NMTAP	90	288	1
NMTAP	91	0	2
NMTAP	91	96	2
NMTAP	91	192	3
NMTAP	91	288	3
NMTAP	92	0	4
NMTAP	92	96	4
NMTAP	92	192	5
NMTAP	92	288	5
NMTAP	93	0	6
NMTAP	93	96	6
NMTAP	93	192	6
NMTAP	93	192	7
NMTAP	94	0	0
NMTAP	94	0	7
NMTAP	94	96	0
NMTAP	94	96	7
NMTAP	94	192	0
NMTAP	94	192	7
NMTAP	95	0	1
NMTAP	95	0	6
NMTAP	95	96	1
NMTAP	95	96	6
BRTAP	95	192	1
BRTAP	95	192	6

T_REC_TAP	217
T_REC_BRK	4
T_REC_XTP	6
T_REC_BXX	0
T_REC_HLD	8
T_REC_XHO	0
T_REC_BHO	0
T_REC_BXH	0
T_REC_STR	4
T_REC_BST	0
T_REC_XST	0
T_REC_XBS	0
T_REC_TTP	6
T_REC_THO	1
T_REC_SLD	4
T_REC_BSL	0
T_REC_ALL	250
T_NUM_TAP	233
T_NUM_BRK	4
T_NUM_HLD	9
T_NUM_SLD	4
T_NUM_ALL	250
T_JUDGE_TAP	237
T_JUDGE_HLD	72
T_JUDGE_SLD	4
T_JUDGE_ALL	313
TTM_EACHPAIRS	42
TTM_SCR_TAP	116500
TTM_SCR_BRK	10400
TTM_SCR_HLD	9000
TTM_SCR_SLD	6000
TTM_SCR_ALL	141900
TTM_SCR_S	137300
TTM_SCR_SS	141500
TTM_RAT_ACV	10028

