VERSION	0.00.00	1.04.00
FES_MODE	0
BPM_DEF	160.000	160.000	160.000	160.000
MET_DEF	4	4
RESOLUTION	384
CLK_DEF	384
COMPATIBLE_CODE	MA2

BPM	0	0	160.000
MET	0	0	4	4

BRTAP	2	0	1
BRTAP	2	0	3
BRTAP	2	96	4
BRTAP	2	96	6
NMTAP	2	192	6
NMTAP	2	192	7
NMTAP	2	264	4
NMTAP	2	264	5
NMTAP	2	336	2
NMTAP	2	336	3
NMHLD	3	0	1	96
NMTAP	3	0	4
NMTAP	3	96	3
NMTAP	3	144	4
NMHLD	3	192	5	96
NMTAP	3	288	3
NMTAP	3	336	2
NMTAP	4	0	1
NMTAP	4	24	4
NMTAP	4	48	3
NMTAP	4	72	4
NMSTR	4	96	1
NMSI_	4	96	1	96	48	5
NMTAP	4	120	4
NMTAP	4	144	3
NMTAP	4	168	4
NMTAP	4	192	1
BRSTR	4	288	7
NMSI_	4	288	7	96	48	3
NMSTR	5	0	2
NMSI_	5	0	2	96	48	6
NMTAP	5	0	7
NMTAP	5	96	2
NMTAP	5	96	4
NMHLD	5	192	3	72
NMHLD	5	264	1	72
NMTAP	5	336	7
NMTAP	6	48	3
NMTAP	6	48	5
NMTAP	6	96	3
NMTAP	6	96	5
NMTAP	6	192	2
NMTAP	6	240	1
NMSTR	6	288	0
NMSI_	6	288	0	96	48	4
NMTAP	6	336	4
NMSTR	7	0	5
NMSI_	7	0	5	96	48	1
NMTAP	7	96	3
NMHLD	7	192	4	72
NMHLD	7	264	6	72
NMTAP	7	336	0
NMTAP	8	48	1
NMTAP	8	48	4
NMTAP	8	96	1
NMTAP	8	96	4
NMTAP	8	192	5
NMTAP	8	240	6
NMSTR	8	288	7
NMSI_	8	288	7	96	48	3
NMTAP	8	336	3
NMSTR	9	0	2
NMSI_	9	0	2	96	48	6
NMTAP	9	96	4
NMHLD	9	192	3	72
NMHLD	9	264	1	72
NMTAP	9	336	7
NMSTR	10	0	7
NMSCL	10	0	7	96	96	3
NMSTR	10	96	3
NMSCL	10	96	3	96	96	7
NMTAP	10	192	7
NMTAP	10	288	3
NMSTR	11	0	1
NMSI_	11	0	1	96	48	7
NMTAP	11	96	1
NMTAP	11	96	5
NMHLD	11	192	6	72
NMHLD	11	264	4	72
NMTAP	11	336	0
NMTAP	12	48	2
NMTAP	12	48	6
NMSTR	12	96	2
NMSI_	12	96	2	96	48	7
NMSTR	12	96	6
NMSI_	12	96	6	96	48	3
NMSTR	12	288	0
NMSCR	12	288	0	96	288	5
NMTAP	12	288	4
NMHLD	13	0	6	96
NMTAP	13	192	7
NMSTR	13	288	7
NMSCL	13	288	7	96	288	2
NMHLD	14	0	1	96
NMTAP	14	192	0
NMSTR	14	288	0
NMSCR	14	288	0	96	288	5
NMHLD	15	0	6	96
NMTAP	15	192	7
NMSTR	15	288	7
NMSCL	15	288	7	96	288	2
NMTAP	16	0	2
NMTAP	16	96	1
NMTAP	16	192	0
NMTTP	16	240	0	E	0	M1
NMTTP	16	288	1	E	0	M1
BRSTR	17	0	0
NMSI_	17	0	0	96	48	4
NMTAP	17	96	0
NMTAP	17	96	4
NMTAP	17	144	5
NMSTR	17	192	6
NMSI_	17	192	6	96	48	3
NMTAP	17	288	3
NMTAP	17	288	6
NMTAP	17	336	2
NMSTR	18	0	1
NMSI_	18	0	1	96	48	5
NMTAP	18	96	1
NMSTR	18	96	4
NMSI_	18	96	4	96	48	7
NMSTR	18	192	0
NMSI_	18	192	0	96	48	3
NMTAP	18	192	4
NMTAP	18	288	0
NMTAP	18	288	6
NMSTR	19	0	4
NMSCL	19	0	4	96	48	1
NMSTR	19	0	7
NMSCL	19	0	7	96	48	4
EXTAP	19	192	1
EXTAP	19	192	4
NMTAP	19	288	2
NMTAP	19	288	3
NMTAP	20	0	2
NMTAP	20	0	3
NMTAP	20	48	4
NMTAP	20	48	5
NMSTR	20	96	6
NMSI_	20	96	6	96	48	3
NMSTR	20	96	7
NMSI_	20	96	7	96	48	2
NMTAP	20	192	6
NMTAP	20	192	7
BRTAP	20	288	1
BRSTR	20	288	4
NMSI_	20	288	4	96	48	6
NMSTR	21	0	4
NMSI_	21	0	4	96	48	0
NMTAP	21	96	4
NMTAP	21	96	7
NMHLD	21	192	0	72
NMHLD	21	264	2	72
NMTAP	21	336	3
NMTAP	22	48	4
NMTAP	22	48	6
NMTAP	22	96	4
NMTAP	22	96	6
NMTAP	22	192	1
NMTAP	22	240	2
NMSTR	22	288	3
NMSI_	22	288	3	96	48	1
NMTAP	22	336	4
NMSTR	23	0	3
NMSI_	23	0	3	96	48	7
NMTAP	23	96	0
NMTAP	23	96	3
NMHLD	23	192	7	72
NMHLD	23	264	5	72
NMTAP	23	336	4
NMTAP	24	48	2
NMTAP	24	48	6
NMSTR	24	96	2
NMSI_	24	96	2	96	48	0
NMSTR	24	96	6
NMSI_	24	96	6	96	48	4
NMTAP	24	192	2
NMTAP	24	192	6
NMSTR	24	288	3
NMSCR	24	288	3	96	96	7
NMTAP	25	0	2
NMTAP	25	0	3
NMSTR	25	96	4
NMSCL	25	96	4	96	96	0
NMTAP	25	192	4
NMTAP	25	192	5
NMSTR	25	288	3
NMSXL	25	288	3	96	144	7
NMSTR	26	0	0
NMSCR	26	0	0	96	48	3
EXHLD	26	192	2	96
EXTAP	26	192	6
NMSTR	26	288	0
NMSCL	26	288	0	96	96	4
NMTAP	27	0	0
NMTAP	27	0	1
NMSTR	27	96	7
NMSCR	27	96	7	96	96	3
NMTAP	27	192	6
NMTAP	27	192	7
NMTAP	27	288	0
EXTAP	28	0	1
EXTAP	28	0	7
EXTAP	28	96	3
EXTAP	28	96	5
EXTAP	28	144	3
EXTAP	28	144	5
BXHLD	28	192	2	96
BXHLD	28	192	6	96
NMSTR	29	0	1
NMSV_	29	0	1	96	72	3
NMTAP	29	96	5
CNSI_	29	168	3	0	24	5
NMSTR	29	192	6
NMSV_	29	192	6	96	72	4
NMTAP	29	288	2
CNSI_	29	360	4	0	24	2
NMSTR	30	0	1
NMSCL	30	0	1	96	96	5
NMSTR	30	96	5
NMSCL	30	96	5	96	96	1
NMTAP	30	192	1
NMTAP	30	288	7
NMSTR	31	0	0
NMSI_	31	0	0	96	48	4
NMSTR	31	0	1
NMSI_	31	0	1	96	48	5
NMTAP	31	96	0
NMTAP	31	96	1
NMTAP	31	192	6
NMTAP	31	192	7
NMSTR	31	288	0
NMSI_	31	288	0	96	48	4
NMSTR	31	336	7
NMSI_	31	336	7	96	48	3
NMSTR	32	0	0
NMSLR	32	0	0	96	48	4
NMTAP	32	48	7
NMSTR	32	96	0
NMSF_	32	96	0	96	48	4
BRTAP	32	288	2
BRTAP	32	288	6
NMTAP	33	0	1
NMTAP	33	48	3
NMTAP	33	96	1
NMSTR	33	96	3
NMSV_	33	96	3	96	96	0
NMTAP	33	144	2
NMTAP	33	192	1
NMTAP	33	288	1
NMTAP	34	0	1
NMTAP	34	48	0
NMSTR	34	96	0
NMSUL	34	96	0	96	96	3
NMTAP	34	96	1
NMTAP	34	144	7
NMTAP	34	192	1
NMTAP	34	288	1
NMTAP	35	0	1
NMTAP	35	48	3
NMTAP	35	96	1
NMSTR	35	96	3
NMSI_	35	96	3	96	96	0
NMTAP	35	144	2
NMTAP	35	192	1
CNSCL	35	288	0	0	48	7
NMTAP	35	288	1
CNSUL	35	336	7	0	144	2
NMTAP	36	0	1
NMTAP	36	96	1
NMTAP	36	144	0
NMTAP	36	192	0
NMTAP	36	192	2
NMTAP	36	288	5
NMTAP	36	288	7
NMTAP	37	0	6
NMTAP	37	48	4
NMSTR	37	96	4
NMSI_	37	96	4	96	48	0
NMTAP	37	96	6
NMTAP	37	144	5
NMTAP	37	192	6
NMTAP	37	288	0
NMTAP	37	288	6
NMTAP	38	0	6
NMTAP	38	48	7
NMTAP	38	96	6
NMSTR	38	96	7
NMSI_	38	96	7	96	48	3
NMTAP	38	144	0
NMTAP	38	192	6
NMTAP	38	288	2
NMTAP	38	288	4
NMTAP	39	0	6
NMTAP	39	48	6
NMTAP	39	96	4
NMTAP	39	144	7
NMTAP	39	192	0
NMTAP	39	240	3
NMTAP	39	288	2
NMTAP	39	336	2
NMTAP	40	0	1
NMTAP	40	24	3
NMTAP	40	48	1
NMTAP	40	72	3
NMTAP	40	96	2
NMTAP	40	120	4
NMTAP	40	144	2
NMTAP	40	168	4
EXSTR	40	192	1
BRSV_	40	192	1	96	48	7
EXSTR	40	192	5
BRSV_	40	192	5	96	48	3
EXSTR	41	0	4
NMSCR	41	0	4	96	96	3
NMTTP	41	96	0	C	1	M1
NMTAP	41	288	7
NMTAP	41	336	7
NMSTR	42	48	2
NMSI_	42	48	2	96	48	5
NMSTR	42	96	6
NMSI_	42	96	6	96	48	1
NMTAP	42	144	2
NMTAP	42	192	6
EXTAP	42	240	4
NMSTR	42	288	7
NMSI_	42	288	7	96	48	3
NMSTR	43	0	7
NMSCL	43	0	7	96	96	0
NMTAP	43	96	4
NMTAP	43	288	7
NMSTR	43	336	7
NMSSR	43	336	7	96	96	3
NMTAP	44	48	3
NMTAP	44	96	2
EXTAP	44	192	2
NMTAP	44	240	0
NMTAP	44	240	1
NMSTR	44	288	0
NMSI_	44	288	0	96	48	4
NMSTR	44	288	1
NMSI_	44	288	1	96	48	3
NMSTR	45	0	0
NMSI_	45	0	0	96	48	6
NMSTR	45	0	1
NMSI_	45	0	1	96	48	5
NMTAP	45	96	0
NMTAP	45	96	1
NMTAP	45	192	4
NMSTR	45	240	4
NMSCL	45	240	4	96	96	0
NMSTR	45	336	0
NMSCL	45	336	0	96	96	4
NMTAP	46	48	4
NMTAP	46	144	0
NMTAP	46	240	2
NMTAP	46	240	6
NMTAP	46	288	2
NMSTR	46	288	6
NMSI_	46	288	6	96	96	3
NMSTR	47	0	3
NMSXL	47	0	3	96	144	7
NMTAP	47	96	7
NMTAP	47	192	2
NMTAP	47	288	1
NMHLD	47	336	1	96
NMTAP	48	48	0
NMTAP	48	144	1
NMTAP	48	144	3
NMTAP	48	240	4
NMTAP	48	240	6
NMSTR	48	288	3
NMSI_	48	288	3	96	48	5
NMSTR	48	288	7
NMSI_	48	288	7	96	48	5
NMSTR	49	0	3
NMSI_	49	0	3	96	48	1
NMSTR	49	0	7
NMSI_	49	0	7	96	48	1
NMTAP	49	96	3
NMTAP	49	96	7
NMTAP	49	192	3
NMTAP	49	192	7
NMTAP	49	288	4
NMTAP	49	288	6
NMTAP	49	336	4
NMTAP	49	336	6
NMTAP	50	48	1
NMTAP	50	48	3
NMTAP	50	144	3
NMTAP	50	144	4
NMTAP	50	240	1
NMTAP	50	240	6
NMSTR	50	288	0
NMSI_	50	288	0	96	48	2
NMSTR	50	288	7
NMSI_	50	288	7	96	48	5
NMTAP	51	0	0
NMTAP	51	0	7
BRTAP	51	96	0
NMTAP	51	192	1
NMTAP	51	192	3
NMTAP	51	240	1
NMSTR	51	240	3
NMSI_	51	240	3	96	48	0
NMTAP	51	336	3
NMSTR	51	336	4
NMSI_	51	336	4	96	48	7
NMTAP	52	48	4
NMSTR	52	48	6
NMSCL	52	48	6	96	96	1
NMTAP	52	144	6
NMTAP	52	144	7
NMTAP	52	240	0
NMTAP	52	288	0
NMSTR	53	0	7
NMSLL	53	0	7	96	48	3
NMSLR	53	0	7	96	48	3
EXTAP	53	192	2
EXTAP	53	192	4
NMSTR	53	288	0
NMSCL	53	288	0	96	24	7
NMSCR	53	288	0	96	24	1
NMTAP	54	0	0
CNSI_	54	24	1	0	24	3
CNSI_	54	24	7	0	24	5
BRTAP	54	144	2
BRTAP	54	144	6
NMTAP	54	240	6
NMTAP	54	240	7
NMTAP	54	288	6
NMSTR	54	288	7
NMSI_	54	288	7	96	48	3
NMSTR	55	0	0
NMSI_	55	0	0	96	48	4
BRTAP	55	0	7
BRTAP	55	96	0
NMSTR	55	96	1
NMSLR	55	96	1	96	96	5
BRTAP	55	192	7
BRSTR	55	240	7
NMSI_	55	240	7	96	48	3
NMSTR	55	336	2
NMSI_	55	336	2	96	48	6
NMTAP	55	336	7
NMSTR	56	48	4
NMSI_	56	48	4	96	48	7
NMSTR	56	144	0
NMSI_	56	144	0	96	48	4
NMTAP	56	144	4
EXTAP	56	240	7
EXSTR	56	288	7
NMSI_	56	288	7	96	96	2
NMTTP	57	0	0	C	1	M1
CNSCR	57	96	2	0	48	5
CNSI_	57	144	5	0	144	0
EXTAP	58	48	1
EXTAP	58	48	5
EXTAP	58	96	1
NMSTR	58	96	5
NMSLL	58	96	5	96	288	1
NMTAP	58	192	0
NMTAP	58	240	7
NMTAP	58	288	7
NMTAP	59	0	6
CNSLR	59	96	1	0	240	5
NMTAP	59	96	7
NMTAP	59	192	6
NMTAP	59	264	7
NMTAP	59	336	0
EXTAP	60	48	2
EXTAP	60	48	6
NMSTR	60	96	2
NMSLR	60	96	2	96	192	6
EXTAP	60	96	6
NMTAP	60	192	7
NMTAP	60	240	0
NMTAP	60	288	0
NMTAP	61	0	1
CNSLL	61	0	6	0	336	2
NMTAP	61	96	0
NMTAP	61	192	1
NMTAP	61	264	0
NMTAP	61	336	7
NMTAP	62	48	1
NMTAP	62	48	5
NMTAP	62	96	1
NMHLD	62	96	5	96
NMHLD	62	192	7	96
NMHLD	62	288	0	96
NMHLD	63	0	2	96
NMTAP	63	96	3
NMTAP	63	192	1
NMTAP	63	192	3
NMTAP	63	264	0
NMTAP	63	264	7
NMTAP	63	336	4
NMTAP	63	336	6
NMTAP	64	48	0
NMTAP	64	48	7
NMTAP	64	96	0
NMTAP	64	96	7
NMTAP	64	192	1
NMTAP	64	216	4
NMTAP	64	240	3
NMTAP	64	264	4
NMSTR	64	288	1
NMSI_	64	288	1	96	48	7
NMTAP	64	312	4
NMTAP	64	336	3
NMTAP	64	360	4
NMTAP	65	0	1
NMTAP	65	216	3
NMTAP	65	240	5
NMSTR	65	288	6
NMSI_	65	288	6	96	48	0
NMTAP	66	0	4
NMTAP	66	0	6
NMTAP	66	216	4
NMTAP	66	240	2
NMSTR	66	288	1
NMSI_	66	288	1	96	48	7
NMTAP	66	336	3
NMTAP	67	0	1
NMTAP	67	0	4
NMTAP	67	216	3
NMTAP	67	240	5
NMSTR	67	288	6
NMSI_	67	288	6	96	48	0
NMTAP	68	0	4
NMTAP	68	0	6
NMSTR	68	96	3
NMSV_	68	96	3	96	48	0
NMSTR	68	96	7
NMSV_	68	96	7	96	48	4
NMSTR	68	192	3
NMSI_	68	192	3	96	48	1
NMSTR	68	192	7
NMSI_	68	192	7	96	48	5
NMTAP	68	288	3
NMTAP	68	288	7
NMTAP	69	0	2
NMTAP	69	0	6
NMTAP	69	48	2
NMTAP	69	48	6
NMTAP	69	96	4
NMTAP	69	96	6
NMTAP	69	144	6
NMTAP	69	192	2
NMTAP	69	192	6
NMTAP	69	240	2
NMTAP	69	240	6
NMTAP	69	288	4
NMTAP	69	288	6
NMTAP	69	336	6
NMTAP	70	0	1
NMTAP	70	0	5
NMTAP	70	48	1
NMTAP	70	48	5
NMTAP	70	96	1
NMTAP	70	96	3
NMTAP	70	144	1
NMTAP	70	192	1
NMTAP	70	192	5
NMTAP	70	240	1
NMTAP	70	240	5
NMTAP	70	288	1
NMTAP	70	288	3
NMTAP	70	336	1
NMSTR	71	0	5
NMSCR	71	0	5	96	48	7
NMTAP	71	48	5
NMSTR	71	96	3
NMSI_	71	96	3	96	48	0
NMTAP	71	144	3
NMSTR	71	192	7
NMSCL	71	192	7	96	144	1
NMTAP	71	240	7
NMTAP	71	288	0
BRTAP	72	0	7
EXSTR	72	96	0
NMSF_	72	96	0	96	48	4
NMTAP	72	144	4
NMHLD	73	0	2	96
NMTAP	73	0	4
NMTAP	73	96	4
NMTAP	73	144	3
NMTAP	73	168	3
NMTAP	73	192	3
NMTAP	73	240	5
NMTAP	73	264	4
NMTAP	73	312	4
NMTAP	73	336	5
NMTAP	74	0	5
NMTAP	74	48	3
NMTAP	74	96	3
NMHLD	74	144	2	48
NMTAP	74	144	4
NMTAP	74	192	4
NMTAP	74	240	3
NMTAP	74	264	4
NMHLD	74	288	2	48
NMTAP	74	336	4
NMTAP	75	0	2
NMTAP	75	0	4
NMTAP	75	48	3
NMHLD	75	96	2	24
NMTAP	75	96	4
NMTAP	75	144	5
NMHLD	75	168	2	24
NMTAP	75	192	4
NMTAP	75	240	3
NMTAP	75	264	4
NMHLD	75	312	4	72
NMHLD	75	336	3	48
NMTAP	76	48	2
NMTAP	76	48	4
NMTAP	76	96	2
NMTAP	76	96	4
NMSTR	76	144	3
NMSCL	76	144	3	96	48	1
NMTAP	76	144	5
NMTAP	76	192	3
NMTAP	76	192	5
NMTAP	76	240	4
NMHLD	76	264	4	72
NMTAP	76	336	2
EXTAP	77	0	3
EXTAP	77	0	5
NMTAP	77	48	6
NMTAP	77	72	4
EXTAP	77	96	5
NMTAP	77	144	1
NMTAP	77	168	3
EXTAP	77	192	2
NMTAP	77	240	6
NMTAP	77	264	4
EXTAP	77	288	6
NMTAP	77	336	1
NMTAP	77	360	3
EXTAP	78	0	1
NMTAP	78	48	5
NMTAP	78	72	4
EXTAP	78	96	6
NMTAP	78	144	2
NMTAP	78	168	3
EXTAP	78	192	1
NMTAP	78	240	5
NMTAP	78	264	4
EXTAP	78	288	5
NMTAP	78	336	2
NMTAP	78	360	3
EXTAP	79	0	2
NMTAP	79	48	6
NMTAP	79	72	4
EXTAP	79	96	5
NMTAP	79	144	1
NMTAP	79	168	3
EXTAP	79	192	2
NMTAP	79	240	2
NMTAP	79	240	4
EXTAP	79	288	2
EXTAP	79	288	4
NMTAP	79	336	1
NMTAP	79	360	3
NMTAP	80	0	1
NMTAP	80	24	3
NMTAP	80	48	1
NMTAP	80	72	3
NMTAP	80	96	2
NMTAP	80	120	3
NMTAP	80	144	2
NMTAP	80	168	3
NMTAP	80	192	1
NMTAP	80	240	0
NMTAP	80	240	7
NMSTR	80	288	4
NMSI_	80	288	4	96	48	0
NMTAP	80	288	6
NMTAP	80	336	3
BRTAP	81	0	4
NMHLD	81	0	5	96
NMTAP	81	144	2
NMTAP	81	168	2
NMTAP	81	192	3
NMTAP	81	240	1
NMTAP	81	264	0
NMTAP	81	312	5
NMTAP	81	336	4
NMTAP	82	0	6
NMTAP	82	0	7
NMSTR	82	48	0
NMSI_	82	48	0	96	48	4
NMSTR	82	48	1
NMSI_	82	48	1	96	48	4
NMTAP	82	96	0
NMTAP	82	96	1
NMTAP	82	240	5
NMTAP	82	288	5
NMTAP	82	312	4
NMTAP	82	336	6
NMTAP	83	0	4
NMTAP	83	0	6
NMTAP	83	48	0
NMTAP	83	72	0
NMTAP	83	96	7
NMTAP	83	120	7
NMTAP	83	144	1
NMHLD	83	192	5	48
NMTAP	83	240	3
NMTAP	83	264	3
NMTAP	83	312	4
NMTAP	83	312	6
NMTAP	83	336	4
NMTAP	83	336	6
NMSTR	84	0	7
NMSI_	84	0	7	96	48	4
NMSTR	84	48	7
NMSI_	84	48	7	96	48	2
NMSTR	84	96	7
NMSI_	84	96	7	96	48	3
NMTAP	84	288	1
NMTAP	84	288	5
NMSTR	85	0	0
NMSCR	85	0	0	96	48	3
NMTAP	85	96	0
NMTAP	85	96	4
NMTAP	85	144	6
NMTAP	85	168	6
NMTAP	85	192	4
NMTAP	85	240	2
NMTAP	85	264	5
NMTAP	85	288	3
NMTAP	85	312	6
NMTAP	85	336	4
NMHLD	86	0	3	96
NMHLD	86	0	7	96
NMHLD	86	144	2	96
NMTAP	86	240	4
NMSTR	86	288	1
NMSI_	86	288	1	96	48	3
NMSTR	86	288	5
NMSI_	86	288	5	96	48	7
NMSTR	87	0	1
NMSV_	87	0	1	96	48	4
NMSTR	87	0	5
NMSV_	87	0	5	96	48	0
NMTAP	87	96	1
NMTAP	87	96	5
BRHLD	87	192	3	96
BRHLD	87	192	7	96
NMSTR	87	336	2
NMSXL	87	336	2	96	96	3
NMSLL	87	336	2	96	96	3
NMTAP	88	240	2
NMTAP	88	240	4
NMTAP	88	288	1
NMSTR	88	288	5
NMSCL	88	288	5	96	96	2
BRHLD	89	0	0	576
CNSI_	89	96	2	0	48	0
CNSCL	89	144	0	0	240	6
CNSLL	90	0	6	0	144	2
EXTAP	90	240	1
EXTAP	90	240	7
EXTAP	90	288	1
EXTAP	90	288	7
NMSTR	91	0	6
NMSCL	91	0	6	96	48	4
NMSTR	91	192	7
NMSCL	91	192	7	96	48	4
NMSTR	92	0	1
BRSCL	92	0	1	96	96	4
NMTAP	92	192	2
NMSTR	92	288	3
BRSCL	92	288	3	96	576	4
NMTTP	93	0	6	E	0	M1
NMTTP	93	96	5	E	0	M1
NMTTP	93	192	4	E	0	M1
NMTTP	93	288	3	E	0	M1
NMTTP	94	0	2	E	0	M1
NMTTP	94	96	1	E	0	M1
NMTTP	94	192	0	E	1	M1
NMTAP	95	0	0
NMTAP	95	0	7
EXTAP	95	96	1
EXTAP	95	108	2
EXTAP	95	120	3
EXTAP	95	132	4
EXTAP	95	144	5
EXTAP	95	156	6
EXTAP	95	168	7
EXTAP	95	180	0
EXTAP	95	192	1
EXTAP	95	204	2
EXTAP	95	216	3
EXTAP	95	228	4
EXTAP	95	240	5
EXTAP	95	252	6
EXTAP	95	264	7
EXTAP	95	276	0
EXTAP	95	288	1
NMTAP	96	0	0
NMTAP	96	0	7
BXTAP	96	96	6
BXTAP	96	108	5
BXTAP	96	120	4
BXTAP	96	132	3
BXTAP	96	144	2
BXTAP	96	156	1
BXTAP	96	168	0
BXTAP	96	180	7
BXTAP	96	192	6
BXTAP	96	204	5
BXTAP	96	216	4
BXTAP	96	228	3
BXTAP	96	240	2
BXTAP	96	252	1
BXTAP	96	264	0
BXTAP	96	276	7
BXSTR	96	288	6
BRSF_	96	288	6	96	48	2
NMTAP	97	0	6
NMTAP	97	192	2
NMTAP	97	192	4
NMTAP	97	240	6
NMTAP	97	264	4
NMTAP	97	312	1
NMTAP	97	336	3
BRTAP	98	0	0
BRTAP	98	0	7
NMSTR	98	96	4
NMSI_	98	96	4	96	48	0
NMTAP	98	96	6
NMTAP	98	192	4
NMSTR	98	192	5
NMSI_	98	192	5	96	48	2
NMTAP	98	288	1
NMTAP	98	288	5
NMSTR	99	0	0
NMSI_	99	0	0	96	48	3
NMSI_	99	0	0	96	48	5
NMTAP	99	96	0
NMTAP	99	192	3
NMTAP	99	192	5
NMTAP	99	240	6
NMTAP	99	264	7
NMTAP	99	312	1
NMTAP	99	336	0
NMTAP	100	0	2
NMTAP	100	0	3
NMSTR	100	96	0
NMSI_	100	96	0	96	48	4
NMSTR	100	96	1
NMSLR	100	96	1	96	96	7
CNSI_	100	240	4	0	48	6
NMSTR	101	0	6
NMSI_	101	0	6	96	48	3
NMSTR	101	0	7
NMSI_	101	0	7	96	48	2
NMTAP	101	96	6
NMTAP	101	96	7
NMTAP	101	192	1
NMTAP	101	192	3
NMTAP	101	264	3
NMTAP	101	264	4
NMTAP	101	336	4
NMTAP	101	336	6
NMTAP	102	0	4
NMSTR	102	0	6
NMSCL	102	0	6	96	48	3
NMSTR	102	96	6
NMSI_	102	96	6	96	48	2
NMSTR	102	96	7
NMSI_	102	96	7	96	48	2
NMSTR	102	192	6
NMSI_	102	192	6	96	48	3
NMSTR	102	192	7
NMSI_	102	192	7	96	48	3
NMTAP	102	288	6
NMTAP	102	288	7
NMSTR	103	0	1
NMSI_	103	0	1	96	48	4
NMSTR	103	0	5
NMSI_	103	0	5	96	48	0
NMTAP	103	96	1
NMTAP	103	96	5
NMTAP	103	192	3
NMTAP	103	192	7
NMTAP	103	264	1
NMTAP	103	264	5
NMHLD	103	336	0	96
NMTAP	103	336	4
NMTAP	104	48	2
NMTAP	104	96	2
NMTAP	104	144	2
NMTAP	104	192	1
NMTAP	104	216	3
NMTAP	104	240	2
NMTAP	104	264	3
NMSTR	104	288	0
NMSI_	104	288	0	96	48	4
NMTAP	104	312	3
NMTAP	104	336	2
NMTAP	104	360	3
BRSTR	105	0	0
NMSCR	105	0	0	96	672	7

T_REC_TAP	476
T_REC_BRK	17
T_REC_XTP	55
T_REC_BXX	16
T_REC_HLD	36
T_REC_XHO	1
T_REC_BHO	3
T_REC_BXH	2
T_REC_STR	125
T_REC_BST	5
T_REC_XST	5
T_REC_XBS	1
T_REC_TTP	11
T_REC_THO	0
T_REC_SLD	135
T_REC_BSL	5
T_REC_ALL	893
T_NUM_TAP	672
T_NUM_BRK	49
T_NUM_HLD	37
T_NUM_SLD	135
T_NUM_ALL	893
T_JUDGE_TAP	711
T_JUDGE_HLD	88
T_JUDGE_SLD	140
T_JUDGE_ALL	939
TTM_EACHPAIRS	175
TTM_SCR_TAP	336000
TTM_SCR_BRK	127400
TTM_SCR_HLD	37000
TTM_SCR_SLD	202500
TTM_SCR_ALL	702900
TTM_SCR_S	677100
TTM_SCR_SS	698000
TTM_RAT_ACV	10070

