VERSION	0.00.00	1.04.00
FES_MODE	0
BPM_DEF	160.000	160.000	160.000	160.000
MET_DEF	4	4
RESOLUTION	384
CLK_DEF	384
COMPATIBLE_CODE	MA2

BPM	0	0	160.000
MET	0	0	4	4

EXTAP	2	0	4
NMTAP	2	96	4
NMSTR	2	192	3
NMSCR	2	192	3	96	384	2
NMTAP	4	0	4
NMTAP	4	48	4
NMTAP	4	96	3
EXTAP	4	192	3
EXTAP	4	192	4
EXTAP	5	0	2
NMTAP	5	96	1
NMTAP	5	96	3
NMTAP	5	192	0
NMTAP	5	288	1
NMTAP	5	288	3
NMTAP	6	0	2
NMTAP	6	96	1
NMTAP	6	96	3
NMTAP	6	192	4
NMTAP	6	240	4
NMTAP	6	288	3
NMTAP	7	0	5
NMTAP	7	96	4
NMTAP	7	96	6
NMTAP	7	192	7
NMTAP	7	288	4
NMTAP	7	288	6
NMTAP	8	0	5
NMTAP	8	96	4
NMTAP	8	96	6
NMTAP	8	192	3
NMTAP	8	240	3
NMTAP	8	288	4
EXTAP	9	0	2
NMTAP	9	96	1
NMTAP	9	96	3
NMTAP	9	192	0
NMTAP	9	288	1
NMTAP	9	288	3
NMTAP	10	0	2
NMTAP	10	96	1
NMTAP	10	96	3
NMTAP	10	192	4
NMTAP	10	240	4
NMTAP	10	288	3
NMTAP	11	0	5
NMTAP	11	96	4
NMTAP	11	96	6
EXTAP	11	192	4
EXTAP	11	192	6
EXTAP	11	264	3
EXTAP	11	264	5
EXTAP	11	336	2
EXTAP	11	336	4
NMTAP	12	48	1
NMSTR	12	96	1
NMSI_	12	96	1	96	96	4
EXHLD	13	0	5	288
NMTAP	13	96	4
NMTAP	13	192	4
NMTAP	13	288	4
NMHLD	14	0	2	288
NMTAP	14	96	3
NMTAP	14	192	3
NMTAP	14	288	3
NMHLD	15	0	5	288
NMTAP	15	96	4
NMTAP	15	192	4
NMTAP	15	288	4
NMTAP	16	0	3
NMTAP	16	0	4
NMTAP	16	96	3
NMTAP	16	96	4
NMHLD	16	192	2	96
NMHLD	16	192	3	96
EXHLD	17	0	1	288
NMTAP	17	96	0
NMTAP	17	192	0
NMTAP	17	288	0
NMHLD	18	0	6	288
NMTAP	18	96	7
NMTAP	18	192	7
NMTAP	18	288	7
NMHLD	19	0	1	288
NMTAP	19	96	0
NMTAP	19	192	0
NMTAP	19	288	0
NMSTR	20	0	0
NMSI_	20	0	0	96	96	3
NMSTR	20	0	7
NMSI_	20	0	7	96	96	4
EXTAP	21	0	0
EXTAP	21	0	7
NMTAP	21	96	0
NMTAP	21	96	2
NMTAP	21	192	3
NMTAP	21	288	0
NMTAP	21	288	2
NMTAP	22	0	1
NMTAP	22	96	0
NMTAP	22	96	2
NMTAP	22	192	7
NMTAP	22	240	7
NMTAP	22	288	0
NMTAP	23	0	6
NMTAP	23	96	5
NMTAP	23	96	7
NMTAP	23	192	4
NMTAP	23	288	5
NMTAP	23	288	7
NMTAP	24	0	6
NMTAP	24	96	0
NMSTR	24	96	7
NMSI_	24	96	7	96	96	4
EXHLD	25	0	2	384
NMTAP	25	96	3
NMTAP	25	192	4
NMTAP	25	288	3
NMHLD	26	0	5	384
NMTAP	26	96	4
NMTAP	26	192	3
NMTAP	26	288	4
NMHLD	27	0	2	384
NMTAP	27	96	3
NMTAP	27	192	4
NMTAP	27	288	3
NMTAP	28	0	5
NMTAP	28	96	3
NMTAP	28	96	4
NMHLD	28	192	4	96
NMHLD	28	192	5	96
EXHLD	29	0	6	384
NMTAP	29	96	7
NMTAP	29	192	0
NMTAP	29	288	7
NMHLD	30	0	1	384
NMTAP	30	96	0
NMTAP	30	192	7
NMTAP	30	288	0
NMHLD	31	0	6	288
NMTAP	31	96	7
NMTAP	31	192	0
NMTAP	31	288	7
NMSTR	32	0	6
NMSI_	32	0	6	96	96	2
NMSTR	32	0	7
NMSI_	32	0	7	96	96	3
NMSTR	33	0	1
NMSI_	33	0	1	96	96	4
NMTAP	33	192	5
NMTAP	33	288	5
NMSTR	34	0	6
NMSI_	34	0	6	96	96	3
NMTAP	34	192	2
NMTAP	34	288	2
NMSTR	35	0	1
NMSI_	35	0	1	96	96	4
NMTAP	35	192	5
NMTAP	35	288	5
NMSTR	36	0	0
NMSI_	36	0	0	96	96	3
NMSTR	36	0	6
NMSI_	36	0	6	96	96	3
NMTAP	37	0	4
NMTAP	37	48	4
NMTAP	37	96	3
NMTAP	37	96	5
NMTAP	37	192	6
NMTAP	37	240	6
NMTAP	37	288	5
NMTAP	37	288	7
NMTAP	38	0	1
NMTAP	38	48	1
NMTAP	38	96	0
NMTAP	38	96	2
NMTAP	38	192	3
NMTAP	38	240	3
NMTAP	38	288	2
NMTAP	38	288	4
NMTAP	39	0	1
NMTAP	39	0	7
NMTAP	39	96	1
NMTAP	39	96	7
NMTAP	39	192	0
NMTAP	39	192	6
NMTAP	39	288	0
NMTAP	39	288	6
NMTAP	40	0	7
NMTAP	40	48	7
NMTAP	40	96	0
NMTAP	40	144	0
BRTAP	40	192	1
BRTAP	40	192	6
EXSTR	41	0	0
NMSCL	41	0	0	96	144	5
EXSTR	41	0	1
NMSUL	41	0	1	96	144	4
NMTAP	41	336	6
NMTAP	41	336	7
NMTAP	42	48	0
NMTAP	42	48	1
NMTAP	42	144	2
NMTAP	42	144	3
NMTAP	42	240	5
NMTAP	42	288	5
NMSTR	43	0	6
NMSCL	43	0	6	96	144	3
NMSTR	43	0	7
NMSUL	43	0	7	96	144	2
NMTAP	43	336	0
NMTAP	43	336	1
NMTAP	44	48	2
NMTAP	44	96	2
NMTAP	44	192	5
NMTAP	44	240	5
NMTAP	44	288	4
EXTAP	45	0	3
EXTAP	45	0	6
EXTAP	45	96	3
EXTAP	45	96	6
NMTAP	45	192	2
NMTAP	45	240	2
NMTAP	45	288	3
EXTAP	45	336	1
EXTAP	45	336	4
EXTAP	46	48	2
EXTAP	46	48	5
EXTAP	46	144	3
EXTAP	46	144	6
NMTAP	46	240	2
NMTAP	46	240	7
NMTAP	46	336	0
NMTAP	46	336	1
NMSTR	47	0	0
NMSV_	47	0	0	96	144	6
NMSTR	47	0	1
NMSV_	47	0	1	96	144	3
NMTAP	47	336	4
NMTAP	47	336	5
NMTAP	48	48	2
NMTAP	48	96	2
NMTAP	48	144	3
NMTAP	48	240	1
NMTAP	48	240	4
NMTAP	48	288	1
NMTAP	48	288	4
EXSTR	49	0	2
NMSUR	49	0	2	96	144	7
EXSTR	49	0	3
NMSCR	49	0	3	96	144	6
NMTAP	49	336	4
NMTAP	49	336	5
NMTAP	50	48	2
NMTAP	50	48	3
NMTAP	50	144	0
NMTAP	50	144	1
NMTAP	50	240	6
NMTAP	50	288	6
NMSTR	51	0	4
NMSUR	51	0	4	96	144	1
NMSTR	51	0	5
NMSCR	51	0	5	96	144	0
NMTAP	51	336	2
NMTAP	51	336	3
NMTAP	52	48	0
NMTAP	52	48	1
NMTAP	52	144	6
NMTAP	52	144	7
NMTAP	52	240	4
NMTAP	52	240	5
NMTAP	52	288	4
NMTAP	52	288	5
EXSTR	53	0	6
NMSI_	53	0	6	96	96	3
EXSTR	53	0	7
NMSI_	53	0	7	96	96	2
NMSTR	53	288	0
NMSI_	53	288	0	96	48	6
NMSTR	53	288	1
NMSI_	53	288	1	96	48	3
EXTAP	54	144	4
EXTAP	54	144	5
NMTAP	54	240	2
NMTAP	54	240	6
NMTAP	54	288	2
NMTAP	54	288	6
BRTAP	55	0	0
BRTAP	55	0	1
BRTAP	55	96	3
BRTAP	55	96	4
BRTAP	55	192	6
BRTAP	55	192	7
BRTAP	55	336	4
BRTAP	55	336	5
BRTAP	56	48	0
BRTAP	56	48	7
BRTAP	56	144	2
BRTAP	56	144	3
NMTAP	56	240	1
NMTAP	56	240	5
NMTAP	56	288	1
NMTAP	56	288	5
EXSTR	57	0	0
NMSF_	57	0	0	96	384	4
EXTAP	57	0	7
NMTAP	58	240	6
NMTAP	58	288	6
NMTAP	59	0	0
NMTAP	59	0	7
NMTAP	59	96	0
NMTAP	59	96	2
NMTAP	59	192	3
NMTAP	59	288	0
NMTAP	59	288	2
NMTAP	60	0	1
NMTAP	60	96	0
NMTAP	60	96	2
NMTAP	60	192	7
NMTAP	60	240	7
NMTAP	60	288	0
EXTAP	61	0	6
NMTAP	61	96	5
NMTAP	61	96	7
NMTAP	61	192	4
NMTAP	61	288	5
NMTAP	61	288	7
NMTAP	62	0	6
NMTAP	62	96	5
NMTAP	62	96	7
NMTAP	62	192	0
NMTAP	62	240	0
NMTAP	62	288	7
NMTAP	63	0	1
NMTAP	63	96	0
NMTAP	63	96	2
EXTAP	63	192	0
EXTAP	63	192	2
EXTAP	63	264	1
EXTAP	63	264	7
EXTAP	63	336	0
EXTAP	63	336	6
NMTAP	64	48	5
NMSTR	64	96	5
NMSI_	64	96	5	96	96	1
EXHLD	65	0	2	384
NMTTP	65	96	3	B	0	M1
NMTTP	65	288	4	B	0	M1
NMHLD	66	0	5	384
NMTTP	66	96	4	E	0	M1
NMTTP	66	288	3	E	0	M1
NMHLD	67	0	1	384
NMTTP	67	96	3	B	0	M1
NMTTP	67	288	4	B	0	M1
NMHLD	68	0	6	288
NMHLD	68	96	3	192
NMTAP	69	0	2
NMTAP	69	48	2
NMTAP	69	96	1
NMTAP	69	96	3
NMTAP	69	192	4
NMTAP	69	240	4
NMTAP	69	288	3
NMTAP	69	288	5
NMTAP	70	0	6
NMTAP	70	48	6
NMTAP	70	96	5
NMTAP	70	96	7
NMTAP	70	192	0
NMTAP	70	240	0
NMTAP	70	288	1
NMTAP	70	288	7
EXTAP	71	0	2
EXTAP	71	0	4
NMTAP	71	96	2
NMTAP	71	96	4
NMTAP	71	192	3
NMTAP	71	192	5
NMTAP	71	288	3
NMTAP	71	288	5
NMTAP	72	0	4
NMTAP	72	48	4
NMTAP	72	96	3
NMTAP	72	144	3
BRTAP	72	192	2
BRTAP	72	192	5
NMSTR	73	0	4
NMSUL	73	0	4	96	384	2
NMHLD	73	0	6	576
NMTAP	74	192	0
NMTAP	74	288	0
NMHLD	75	0	1	576
NMSTR	75	0	3
NMSUR	75	0	3	96	384	5
NMTAP	76	192	7
NMTAP	76	288	7
EXHLD	77	0	3	96
EXHLD	77	0	5	96
NMHLD	77	192	2	96
NMHLD	77	192	4	96
NMHLD	78	0	4	96
NMHLD	78	0	6	96
NMHLD	78	192	1	96
NMHLD	78	192	3	96
NMSTR	79	0	4
NMSXL	79	0	4	96	192	6
NMSXR	79	0	4	96	192	2
NMTHO	80	0	0	144	C	1	M1
EXSTR	81	0	0
NMSCL	81	0	0	96	144	5
EXSTR	81	0	1
NMSUL	81	0	1	96	144	4
NMTAP	81	336	6
NMTAP	81	336	7
NMTAP	82	48	0
NMTAP	82	48	1
NMTAP	82	144	2
NMTAP	82	144	3
NMTAP	82	240	4
NMTAP	82	240	5
NMTAP	82	288	4
NMTAP	82	288	5
NMSTR	83	0	6
NMSCL	83	0	6	96	144	3
NMSTR	83	0	7
NMSUL	83	0	7	96	144	2
NMTAP	83	336	0
NMTAP	83	336	1
NMTAP	84	48	6
NMTAP	84	48	7
NMTAP	84	144	0
NMTAP	84	144	1
NMTAP	84	240	2
NMTAP	84	240	7
NMTAP	84	288	2
NMTAP	84	288	7
EXSTR	85	0	0
NMSI_	85	0	0	96	96	5
EXSTR	85	0	1
NMSI_	85	0	1	96	96	4
NMSTR	85	288	6
NMSI_	85	288	6	96	48	4
NMSTR	85	288	7
NMSI_	85	288	7	96	48	1
EXTAP	86	144	2
EXTAP	86	144	3
NMTAP	86	240	1
NMTAP	86	240	5
NMTAP	86	288	1
NMTAP	86	288	5
BRTAP	87	0	2
BRTAP	87	0	3
BRTAP	87	96	0
BRTAP	87	96	7
BRTAP	87	192	4
BRTAP	87	192	5
BRTAP	87	336	6
BRTAP	87	336	7
BRTAP	88	48	3
BRTAP	88	48	4
BRTAP	88	144	0
BRTAP	88	144	1
NMTAP	88	240	2
NMTAP	88	240	5
NMTAP	88	288	2
NMTAP	88	288	5
EXTAP	89	0	6
EXSTR	89	0	7
NMSF_	89	0	7	96	384	3
NMTAP	90	192	1
NMTAP	90	192	5
NMTAP	90	288	1
NMTAP	90	288	5
NMSTR	91	0	0
NMSLR	91	0	0	96	144	4
NMSTR	91	336	7
NMSCL	91	336	7	96	96	3
NMTAP	92	192	1
NMHLD	92	240	1	144
EXSTR	93	0	0
BRSF_	93	0	0	96	384	4
NMTAP	94	192	2
NMTAP	94	192	6
NMTAP	94	288	2
NMTAP	94	288	6
NMSTR	95	0	4
NMSCL	95	0	4	96	192	7
NMSTR	95	0	5
NMSUL	95	0	5	96	192	6
NMSTR	96	0	4
BRSI_	96	0	4	96	144	0
NMSTR	96	0	5
BRSLR	96	0	5	96	192	3
CNSI_	96	240	0	0	48	2
BXTAP	97	0	0
BXTAP	97	0	1
NMHLD	97	192	2	72
NMHLD	97	264	3	72
NMTAP	97	336	4
NMTAP	98	48	4
NMTAP	98	48	5
NMTAP	98	96	4
NMTAP	98	96	5
NMTAP	98	192	6
NMTAP	98	240	6
NMTAP	98	288	7
BXTAP	99	0	6
BXTAP	99	0	7
NMHLD	99	192	5	72
NMHLD	99	264	4	72
NMTAP	99	336	3
NMTAP	100	48	2
NMTAP	100	48	3
NMTAP	100	96	2
NMTAP	100	96	3
NMTAP	100	192	1
NMTAP	100	240	1
NMTAP	100	288	0
EXTAP	101	0	0
EXTAP	101	0	7
NMTAP	101	96	5
NMTAP	101	96	7
NMTAP	101	192	4
NMTAP	101	288	5
NMTAP	101	288	7
NMTAP	102	0	6
NMTAP	102	96	4
NMTAP	102	96	5
NMTAP	102	192	2
NMTAP	102	192	3
NMTAP	102	288	0
NMTAP	102	288	1
NMTAP	103	0	0
NMTAP	103	0	7
NMTAP	103	96	1
NMTAP	103	96	6
NMHLD	103	192	2	72
NMHLD	103	264	3	72
NMTAP	103	336	4
NMTAP	104	48	4
NMTAP	104	48	5
NMTAP	104	96	4
NMSTR	104	96	5
NMSI_	104	96	5	96	96	0
BRSTR	105	0	3
NMSSR	105	0	3	96	768	7

T_REC_TAP	328
T_REC_BRK	28
T_REC_XTP	40
T_REC_BXX	4
T_REC_HLD	31
T_REC_XHO	7
T_REC_BHO	0
T_REC_BXH	0
T_REC_STR	35
T_REC_BST	1
T_REC_XST	13
T_REC_XBS	0
T_REC_TTP	6
T_REC_THO	1
T_REC_SLD	47
T_REC_BSL	3
T_REC_ALL	544
T_NUM_TAP	422
T_NUM_BRK	36
T_NUM_HLD	39
T_NUM_SLD	47
T_NUM_ALL	544
T_JUDGE_TAP	455
T_JUDGE_HLD	182
T_JUDGE_SLD	50
T_JUDGE_ALL	687
TTM_EACHPAIRS	153
TTM_SCR_TAP	211000
TTM_SCR_BRK	93600
TTM_SCR_HLD	39000
TTM_SCR_SLD	70500
TTM_SCR_ALL	414100
TTM_SCR_S	398200
TTM_SCR_SS	410500
TTM_RAT_ACV	10087

