VERSION	0.00.00	1.04.00
FES_MODE	0
BPM_DEF	160.000	160.000	160.000	160.000
MET_DEF	4	4
RESOLUTION	384
CLK_DEF	384
COMPATIBLE_CODE	MA2

BPM	0	0	160.000
MET	0	0	4	4

NMTAP	5	0	2
NMTAP	5	96	2
NMTAP	5	192	2
NMTAP	6	0	1
NMTAP	6	96	1
NMTAP	6	192	1
NMTAP	7	0	0
NMTAP	7	96	0
NMTAP	7	192	0
NMTAP	8	0	6
NMTAP	8	0	7
NMTAP	8	192	6
NMTAP	8	192	7
NMTAP	9	0	5
NMTAP	9	96	5
NMTAP	9	192	5
NMTAP	10	0	6
NMTAP	10	96	6
NMTAP	10	192	6
NMTAP	11	0	7
NMTAP	11	96	7
NMTAP	11	192	7
NMTAP	12	0	0
NMTAP	12	0	1
NMTAP	12	192	0
NMTAP	12	192	1
NMHLD	13	0	2	192
NMHLD	13	192	3	192
NMHLD	14	0	4	192
NMTAP	14	192	5
NMHLD	15	0	5	192
NMHLD	15	192	4	192
NMHLD	16	0	3	192
NMTAP	16	192	2
NMHLD	17	0	1	192
NMHLD	17	192	2	192
NMHLD	18	0	3	192
NMTAP	18	192	4
NMHLD	19	0	6	192
NMHLD	19	192	5	192
NMHLD	20	0	4	192
NMTAP	20	192	3
NMTAP	21	0	4
NMTAP	21	96	4
NMTAP	21	192	5
NMTAP	22	0	6
NMTAP	22	96	6
NMTAP	22	192	7
NMTAP	23	0	0
NMTAP	23	96	0
NMTAP	23	192	1
NMTAP	24	0	2
NMTAP	24	96	2
NMTAP	24	192	2
NMTAP	24	192	3
NMTAP	25	0	2
NMTAP	25	96	2
NMTAP	25	192	2
NMTAP	25	192	3
NMTAP	26	0	1
NMTAP	26	96	1
NMTAP	26	192	0
NMTAP	26	192	1
NMTAP	27	0	7
NMTAP	27	96	7
NMTAP	27	192	6
NMTAP	27	192	7
NMTAP	28	0	4
NMTAP	28	0	5
NMTAP	28	96	4
NMTAP	28	96	5
NMTAP	28	192	4
NMTAP	28	192	5
NMTAP	29	0	5
NMTAP	29	96	5
NMTAP	29	192	4
NMTAP	29	192	5
NMTAP	30	0	6
NMTAP	30	96	6
NMTAP	30	192	6
NMTAP	30	192	7
NMTAP	31	0	0
NMTAP	31	96	0
NMTAP	31	192	0
NMTAP	31	192	1
NMTAP	32	0	2
NMTAP	32	0	3
NMTAP	32	96	2
NMTAP	32	96	3
NMTAP	32	192	2
NMTAP	32	192	3
NMTTP	33	0	1	B	0	L1
NMTTP	33	96	2	B	0	L1
NMTTP	33	192	3	B	0	L1
NMTTP	34	0	6	B	0	L1
NMTTP	34	96	5	B	0	L1
NMTTP	34	192	4	B	0	L1
NMTTP	35	0	1	B	0	L1
NMTTP	35	96	2	B	0	L1
NMTTP	35	192	3	B	0	L1
NMTTP	35	288	4	B	0	L1
NMTTP	36	0	5	B	0	L1
NMTTP	36	96	6	B	0	L1
NMTTP	36	192	0	C	0	L1
NMTTP	37	0	7	B	0	L1
NMTTP	37	96	6	B	0	L1
NMTTP	37	192	4	B	0	L1
NMTTP	37	192	5	B	0	L1
NMTTP	38	0	0	B	0	L1
NMTTP	38	96	1	B	0	L1
NMTTP	38	192	2	B	0	L1
NMTTP	38	192	3	B	0	L1
NMTTP	39	0	6	B	0	L1
NMTTP	39	96	5	B	0	L1
NMTTP	39	192	4	B	0	L1
NMTTP	39	288	3	B	0	L1
NMTTP	40	0	0	C	1	L1
NMTAP	41	0	1
NMTAP	41	96	1
NMTAP	41	192	0
NMTAP	41	288	0
NMTAP	42	0	7
NMTAP	42	96	7
NMTAP	42	192	6
NMTAP	42	192	7
NMTAP	43	0	5
NMTAP	43	96	5
NMTAP	43	192	6
NMTAP	43	288	6
NMTAP	44	0	7
NMTAP	44	96	7
NMTAP	44	192	0
NMTAP	44	192	1
NMTAP	45	0	1
NMTAP	45	96	1
NMTAP	45	192	2
NMTAP	45	288	2
NMTAP	46	0	3
NMTAP	46	96	3
NMTAP	46	192	4
NMTAP	46	192	5
NMTAP	47	0	6
NMTAP	47	96	6
NMTAP	47	192	5
NMTAP	47	288	5
NMTAP	48	0	4
NMTAP	48	96	4
NMTAP	48	192	2
NMTAP	48	192	3
BXTAP	49	0	2
NMTAP	49	96	2
NMTAP	49	192	1
NMTAP	49	288	1
NMTAP	50	0	0
NMTAP	50	96	0
NMTAP	50	192	6
NMTAP	50	192	7
NMTAP	51	0	5
NMTAP	51	96	5
NMTAP	51	192	6
NMTAP	51	288	6
NMTAP	52	0	7
NMTAP	52	96	7
NMTAP	52	192	0
NMTAP	52	192	1
NMTAP	53	0	1
NMTAP	53	96	1
NMTAP	53	192	2
NMTAP	53	288	2
NMTAP	54	0	3
NMTAP	54	96	3
NMTAP	54	192	4
NMTAP	54	192	5
NMTAP	55	0	6
NMTAP	55	96	6
NMTAP	55	192	5
NMTAP	55	288	5
NMTAP	56	0	4
NMTAP	56	96	4
NMTAP	56	192	2
NMTAP	56	192	3
NMSTR	57	0	3
NMSI_	57	0	3	96	288	0
NMSTR	57	0	4
NMSI_	57	0	4	96	288	7
NMTAP	59	0	6
NMTAP	59	96	6
NMTAP	59	192	6
NMTAP	59	192	7
NMTAP	60	0	5
NMTAP	60	96	5
NMTAP	60	192	4
NMTAP	60	192	5
NMTAP	61	0	3
NMTAP	61	96	3
NMTAP	61	192	2
NMTAP	61	192	3
NMTAP	62	0	0
NMTAP	62	0	1
NMTAP	62	96	0
NMTAP	62	96	1
NMTAP	62	192	0
NMTAP	62	192	1
NMTAP	63	0	2
NMTAP	63	96	2
NMTAP	63	192	2
NMTAP	63	192	3
NMTAP	64	0	4
NMTAP	64	96	4
NMTAP	64	192	3
NMTAP	64	192	4
NMHLD	65	0	5	192
NMTAP	65	192	4
NMTAP	66	0	4
NMTAP	66	0	5
NMTAP	66	192	4
NMTAP	66	192	5
NMHLD	67	0	6	192
NMTAP	67	192	7
NMTAP	68	0	6
NMTAP	68	0	7
NMTAP	68	192	6
NMTAP	68	192	7
NMHLD	69	0	1	192
NMTAP	69	192	0
NMTAP	70	0	0
NMTAP	70	0	1
NMTAP	70	192	0
NMTAP	70	192	1
NMHLD	71	0	2	192
NMTAP	71	192	3
NMTAP	72	0	2
NMTAP	72	0	3
NMTAP	72	192	2
NMTAP	72	192	3
NMSTR	73	0	1
NMSI_	73	0	1	96	192	4
NMSTR	74	0	6
NMSI_	74	0	6	96	192	3
NMSTR	75	0	1
NMSI_	75	0	1	96	192	5
NMSTR	76	0	7
NMSI_	76	0	7	96	192	3
NMSTR	77	0	1
NMSI_	77	0	1	96	192	4
NMSTR	78	0	5
NMSI_	78	0	5	96	192	0
NMSTR	79	0	1
NMSI_	79	0	1	96	192	5
NMSTR	80	0	7
NMSI_	80	0	7	96	192	3
NMTAP	81	0	2
NMTAP	81	96	2
NMTAP	81	192	0
NMTAP	81	192	1
NMTAP	81	288	0
NMTAP	81	288	1
NMTAP	82	0	7
NMTAP	82	96	7
NMTAP	82	192	6
NMTAP	82	192	7
NMTAP	83	0	5
NMTAP	83	96	5
NMTAP	83	192	6
NMTAP	83	192	7
NMTAP	83	288	6
NMTAP	83	288	7
NMTAP	84	0	0
NMTAP	84	96	0
NMTAP	84	192	0
NMTAP	84	192	1
NMTAP	85	0	1
NMTAP	85	96	1
NMTAP	85	192	2
NMTAP	85	192	3
NMTAP	85	288	2
NMTAP	85	288	3
NMTAP	86	0	4
NMTAP	86	96	4
NMTAP	86	192	4
NMTAP	86	192	5
NMTAP	87	0	6
NMTAP	87	96	6
NMTAP	87	192	4
NMTAP	87	192	5
NMTAP	87	288	4
NMTAP	87	288	5
NMTAP	88	0	3
NMTAP	88	96	3
NMTAP	88	192	2
NMTAP	88	192	3
NMTAP	89	0	1
NMTAP	89	96	1
NMTAP	89	192	1
NMTAP	89	288	0
NMTAP	89	288	1
NMTAP	90	0	2
NMTAP	90	96	2
NMTAP	90	192	2
NMTAP	90	288	2
NMTAP	90	288	3
NMTAP	91	0	4
NMTAP	91	96	4
NMTAP	91	192	4
NMTAP	91	288	4
NMTAP	91	288	5
NMTAP	92	0	6
NMTAP	92	96	6
NMTAP	92	192	6
NMTAP	92	192	7
NMTAP	93	0	6
NMTAP	93	96	6
NMTAP	93	192	6
NMTAP	93	288	6
NMTAP	93	288	7
NMTAP	94	0	5
NMTAP	94	96	5
NMTAP	94	192	5
NMTAP	94	288	4
NMTAP	94	288	5
NMTAP	95	0	3
NMTAP	95	96	3
NMTAP	95	192	3
NMTAP	95	288	2
NMTAP	95	288	3
NMTAP	96	0	1
NMTAP	96	96	1
NMTAP	96	192	0
NMTAP	96	192	1
NMTAP	97	0	0
NMTAP	97	96	1
NMTAP	97	192	2
NMTAP	97	288	3
NMTAP	98	0	4
NMTAP	98	96	5
NMTAP	98	192	6
NMTAP	98	192	7
NMTAP	99	0	7
NMTAP	99	96	6
NMTAP	99	192	5
NMTAP	99	288	4
NMTAP	100	0	3
NMTAP	100	96	2
NMTAP	100	192	0
NMTAP	100	192	1
NMTAP	101	0	0
NMTAP	101	96	1
NMTAP	101	192	2
NMTAP	101	288	3
NMTAP	102	0	4
NMTAP	102	96	5
NMTAP	102	192	6
NMTAP	102	288	7
NMTAP	103	0	0
NMTAP	103	0	7
NMTAP	103	96	0
NMTAP	103	96	7
NMTAP	103	192	1
NMTAP	103	192	6
NMTAP	103	288	1
NMTAP	103	288	6
NMTAP	104	0	2
NMTAP	104	0	5
NMTAP	104	96	2
NMTAP	104	96	5
NMTAP	104	192	3
NMTAP	104	192	4
NMTAP	104	288	3
NMTAP	104	288	4
BRTAP	105	0	2
BRTAP	105	0	5

T_REC_TAP	306
T_REC_BRK	2
T_REC_XTP	0
T_REC_BXX	1
T_REC_HLD	16
T_REC_XHO	0
T_REC_BHO	0
T_REC_BXH	0
T_REC_STR	10
T_REC_BST	0
T_REC_XST	0
T_REC_XBS	0
T_REC_TTP	26
T_REC_THO	0
T_REC_SLD	10
T_REC_BSL	0
T_REC_ALL	371
T_NUM_TAP	342
T_NUM_BRK	3
T_NUM_HLD	16
T_NUM_SLD	10
T_NUM_ALL	371
T_JUDGE_TAP	345
T_JUDGE_HLD	64
T_JUDGE_SLD	10
T_JUDGE_ALL	419
TTM_EACHPAIRS	73
TTM_SCR_TAP	171000
TTM_SCR_BRK	7800
TTM_SCR_HLD	16000
TTM_SCR_SLD	15000
TTM_SCR_ALL	209800
TTM_SCR_S	203250
TTM_SCR_SS	209500
TTM_RAT_ACV	10014

