VERSION	0.00.00	1.04.00
FES_MODE	0
BPM_DEF	160.000	160.000	160.000	160.000
MET_DEF	4	4
RESOLUTION	384
CLK_DEF	384
COMPATIBLE_CODE	MA2

BPM	0	0	160.000
MET	0	0	4	4

NMTAP	5	0	7
NMTAP	5	192	7
NMTAP	6	0	6
NMTAP	7	0	5
NMTAP	7	192	5
NMTAP	8	0	4
NMTAP	9	0	3
NMTAP	9	192	3
NMTAP	10	0	2
NMTAP	11	0	1
NMTAP	11	192	1
NMTAP	12	0	0
NMTAP	12	0	7
NMTAP	13	0	0
NMTAP	13	192	0
NMTAP	14	0	1
NMTAP	14	192	1
NMTAP	15	0	2
NMTAP	15	192	2
NMTAP	16	0	2
NMTAP	16	0	3
NMTAP	17	0	4
NMTAP	17	192	4
NMTAP	18	0	5
NMTAP	18	192	5
NMTAP	19	0	6
NMTAP	19	192	6
NMTAP	20	0	6
NMTAP	20	0	7
NMTAP	21	0	6
NMTAP	21	192	6
NMTAP	22	0	0
NMTAP	22	0	7
NMTAP	23	0	1
NMTAP	23	192	1
NMTAP	24	0	0
NMTAP	24	0	7
NMTAP	25	0	7
NMTAP	25	192	7
NMTAP	26	0	6
NMTAP	26	192	6
NMTAP	27	0	5
NMTAP	27	192	5
NMTAP	28	0	3
NMTAP	28	0	4
NMTAP	29	0	3
NMTAP	29	192	3
NMTAP	30	0	2
NMTAP	30	192	2
NMTAP	31	0	1
NMTAP	31	192	1
NMTAP	32	0	0
NMTAP	32	0	7
NMTTP	33	0	0	B	0	L1
NMTTP	34	0	7	B	0	L1
NMTTP	35	0	1	B	0	L1
NMTTP	36	0	6	B	0	L1
NMTTP	37	0	2	B	0	L1
NMTTP	38	0	5	B	0	L1
NMTHO	39	0	0	384	C	0	L1
BRTAP	41	0	0
NMTAP	41	96	0
NMTAP	41	192	0
NMTAP	42	0	1
NMTAP	42	192	1
NMTAP	43	0	2
NMTAP	43	96	2
NMTAP	43	192	2
NMTAP	44	0	2
NMTAP	44	0	3
NMTAP	45	0	4
NMTAP	45	96	4
NMTAP	45	192	4
NMTAP	46	0	5
NMTAP	46	192	5
NMTAP	47	0	6
NMTAP	47	96	6
NMTAP	47	192	6
NMTAP	48	0	6
NMTAP	48	0	7
BRTAP	49	0	7
NMTAP	49	96	7
NMTAP	49	192	7
NMTAP	50	0	6
NMTAP	50	192	6
NMTAP	51	0	5
NMTAP	51	96	5
NMTAP	51	192	5
NMTAP	52	0	4
NMTAP	52	0	5
NMTAP	53	0	3
NMTAP	53	96	3
NMTAP	53	192	3
NMTAP	54	0	2
NMTAP	54	192	2
NMTAP	55	0	1
NMTAP	55	96	1
NMTAP	55	192	1
EXTAP	56	0	0
EXTAP	56	0	1
BRTAP	57	0	0
NMTAP	57	192	0
NMTAP	58	0	0
NMTAP	58	0	1
NMTAP	58	192	0
NMTAP	58	192	1
NMTAP	59	0	2
NMTAP	59	192	2
NMTAP	60	0	3
NMTAP	60	0	4
NMTAP	60	192	3
NMTAP	60	192	4
NMTAP	61	0	5
NMTAP	61	192	5
NMTAP	62	0	4
NMTAP	62	0	5
NMTAP	62	192	4
NMTAP	62	192	5
NMTAP	63	0	6
NMTAP	63	192	6
NMTAP	64	0	0
NMTAP	64	0	7
NMSTR	65	0	7
NMSI_	65	0	7	96	288	3
NMSTR	67	0	0
NMSI_	67	0	0	96	288	4
NMSTR	69	0	6
NMSI_	69	0	6	96	288	2
NMSTR	71	0	1
NMSI_	71	0	1	96	288	5
NMHLD	73	0	6	384
NMHLD	73	0	7	384
NMHLD	75	0	4	384
NMHLD	75	0	5	384
NMHLD	77	0	2	384
NMHLD	77	0	3	384
NMHLD	79	0	0	384
NMHLD	79	0	1	384
BRTAP	81	0	0
NMTAP	81	96	0
NMTAP	81	192	0
NMTAP	82	0	1
NMTAP	82	96	1
NMTAP	82	192	1
NMTAP	83	0	2
NMTAP	83	96	2
NMTAP	83	192	2
NMTAP	84	0	3
NMTAP	84	0	4
NMTAP	84	192	3
NMTAP	84	192	4
NMTAP	85	0	4
NMTAP	85	96	4
NMTAP	85	192	4
NMTAP	86	0	5
NMTAP	86	96	5
NMTAP	86	192	5
NMTAP	87	0	6
NMTAP	87	96	6
NMTAP	87	192	6
EXTAP	88	0	0
EXTAP	88	0	7
BRTAP	89	0	7
NMTAP	89	96	7
NMTAP	89	192	7
NMTAP	90	0	6
NMTAP	90	0	7
NMTAP	90	96	6
NMTAP	90	96	7
NMTAP	90	192	6
NMTAP	90	192	7
NMTAP	91	0	5
NMTAP	91	96	5
NMTAP	91	192	5
NMTAP	92	0	4
NMTAP	92	0	5
NMTAP	92	96	4
NMTAP	92	96	5
NMTAP	92	192	4
NMTAP	92	192	5
NMTAP	93	0	3
NMTAP	93	96	3
NMTAP	93	192	3
NMTAP	94	0	2
NMTAP	94	0	3
NMTAP	94	96	2
NMTAP	94	96	3
NMTAP	94	192	2
NMTAP	94	192	3
NMTAP	95	0	1
NMTAP	95	96	1
NMTAP	95	192	1
NMTAP	96	0	0
NMTAP	96	0	1
NMTAP	96	96	0
NMTAP	96	96	1
NMTAP	96	192	0
NMTAP	96	192	1
NMTAP	97	0	0
NMTAP	97	96	0
NMTAP	97	192	0
NMTAP	98	0	0
NMTAP	98	0	1
NMTAP	98	96	0
NMTAP	98	96	1
NMTAP	98	192	0
NMTAP	98	192	1
NMTAP	99	0	2
NMTAP	99	96	2
NMTAP	99	192	2
NMTAP	100	0	3
NMTAP	100	0	4
NMTAP	100	96	3
NMTAP	100	96	4
NMTAP	100	192	3
NMTAP	100	192	4
NMTAP	101	0	5
NMTAP	101	96	5
NMTAP	101	192	5
NMTAP	102	0	4
NMTAP	102	0	5
NMTAP	102	96	4
NMTAP	102	96	5
NMTAP	102	192	4
NMTAP	102	192	5
NMTAP	103	0	6
NMTAP	103	96	6
NMTAP	103	192	6
NMTAP	104	0	0
NMTAP	104	0	7
NMTAP	104	96	0
NMTAP	104	96	7
NMTAP	104	192	0
NMTAP	104	192	7
BRTAP	105	0	0
BRTAP	105	0	7

T_REC_TAP	202
T_REC_BRK	7
T_REC_XTP	4
T_REC_BXX	0
T_REC_HLD	8
T_REC_XHO	0
T_REC_BHO	0
T_REC_BXH	0
T_REC_STR	4
T_REC_BST	0
T_REC_XST	0
T_REC_XBS	0
T_REC_TTP	6
T_REC_THO	1
T_REC_SLD	4
T_REC_BSL	0
T_REC_ALL	236
T_NUM_TAP	216
T_NUM_BRK	7
T_NUM_HLD	9
T_NUM_SLD	4
T_NUM_ALL	236
T_JUDGE_TAP	223
T_JUDGE_HLD	72
T_JUDGE_SLD	4
T_JUDGE_ALL	299
TTM_EACHPAIRS	50
TTM_SCR_TAP	108000
TTM_SCR_BRK	18200
TTM_SCR_HLD	9000
TTM_SCR_SLD	6000
TTM_SCR_ALL	141200
TTM_SCR_S	136300
TTM_SCR_SS	140500
TTM_RAT_ACV	10049

