VERSION	0.00.00	1.04.00
FES_MODE	0
BPM_DEF	222.000	222.000	222.000	222.000
MET_DEF	4	4
RESOLUTION	384
CLK_DEF	576
COMPATIBLE_CODE	MA2

BPM	0	0	222.000
MET	0	0	4	3

NMHLD	2	96	3	144
NMSTR	2	96	4
NMSCR	2	96	4	96	768	2
NMHLD	3	0	3	144
NMHLD	3	288	4	144
EXTAP	4	192	4
NMTAP	5	0	3
NMSTR	5	96	2
NMSCL	5	96	2	96	768	4
NMHLD	5	96	4	144
NMHLD	6	0	4	144
NMHLD	6	288	3	144
NMTAP	7	192	3
NMTAP	8	0	4
NMTAP	8	48	4
NMHLD	8	96	3	96
BXHLD	8	96	5	96
BXHLD	8	240	2	96
NMHLD	8	240	4	96
NMTAP	9	0	4
BXSTR	9	0	6
NMSI_	9	0	6	96	96	3
NMTAP	9	96	3
NMTAP	9	192	2
NMTAP	9	240	2
BXHLD	9	288	1	96
NMHLD	9	288	3	96
NMHLD	10	48	4	96
BXHLD	10	48	6	96
BXSTR	10	192	0
NMSI_	10	192	0	96	96	5
NMTAP	10	192	1
NMTAP	10	288	2
NMTAP	11	0	3
NMTAP	11	48	3
NMHLD	11	96	2	96
NMHLD	11	96	4	96
NMHLD	11	240	1	96
NMHLD	11	240	3	96
EXTAP	12	0	0
NMTAP	12	0	1
NMTAP	12	96	6
EXTAP	12	96	7
NMTAP	12	192	0
NMTAP	12	192	4
EXTAP	12	288	1
EXTAP	12	320	3
EXTAP	12	352	2
EXTAP	13	0	6
EXTAP	13	32	4
EXTAP	13	64	5
EXTAP	13	96	3
EXTAP	13	128	4
EXTAP	13	160	3
EXHLD	13	192	2	96
EXHLD	13	192	5	192
BRTAP	14	96	0
BRTAP	14	96	7
NMTAP	14	192	1
NMTAP	14	240	0
NMTAP	14	288	1
NMTAP	14	336	2
NMSTR	15	0	1
NMSI_	15	0	1	96	48	4
NMTAP	15	96	7
NMHLD	15	192	6	96
NMTAP	15	288	4
NMTAP	16	0	5
NMTAP	16	48	4
NMTAP	16	96	5
NMTAP	16	144	6
NMSTR	16	192	5
NMSI_	16	192	5	96	48	0
NMTAP	16	288	3
NMHLD	17	0	2	96
NMSTR	17	96	0
NMSCL	17	96	0	96	192	2
NMTAP	17	192	2
NMTAP	17	288	1
NMSTR	18	0	0
NMSCR	18	0	0	96	192	6
NMTAP	18	96	6
NMTAP	18	192	7
NMTAP	18	288	0
NMTAP	18	336	0
NMTAP	19	0	7
NMTAP	19	48	7
EXTAP	19	96	6
EXTAP	19	112	0
EXTAP	19	128	6
EXTAP	19	144	0
BXSTR	19	192	1
NMSI_	19	192	1	96	48	4
BXTAP	19	192	5
BXSTR	19	288	7
NMSI_	19	288	7	96	48	2
BXSTR	20	0	5
NMSI_	20	0	5	96	48	0
NMHLD	20	96	3	576
NMTTP	21	288	3	E	0	M1
NMTTP	22	0	4	E	0	M1
NMTTP	22	96	5	E	0	M1
NMHLD	22	192	0	192
NMTTP	22	192	6	E	0	M1
NMTAP	23	0	6
NMHLD	23	96	1	192
NMTAP	23	96	5
NMTAP	24	0	2
NMHLD	24	0	3	192
NMTHO	24	288	0	288	C	0	M1
NMTTP	24	288	4	B	0	M1
NMTTP	24	288	5	B	0	M1
NMTTP	24	288	5	E	0	M1
EXTAP	25	192	7
EXTAP	25	288	0
NMTTP	25	288	5	B	0	M1
NMTTP	25	288	6	E	0	M1
NMTTP	26	0	1	B	0	M1
NMTTP	26	0	2	E	0	M1
EXTAP	26	0	6
NMHLD	26	96	2	96
NMSTR	26	96	7
NMSI_	26	96	7	96	192	3
NMHLD	26	240	2	96
NMTTP	27	0	1	E	0	M1
CNSCR	27	0	3	0	192	6
NMTTP	27	96	0	C	0	M1
NMTTP	27	192	5	E	0	M1
NMSTR	27	288	3
NMSI_	27	288	3	96	192	7
NMHLD	27	288	6	96
NMHLD	28	48	6	96
NMTTP	28	192	5	E	0	M1
CNSCR	28	192	7	0	192	2
NMTTP	28	288	0	C	0	M1
NMTTP	29	0	1	E	0	M1
NMTAP	29	96	0
NMHLD	29	96	7	192
NMTAP	29	240	5
NMTAP	29	288	4
NMHLD	30	0	0	192
NMTAP	30	0	7
NMTAP	30	144	2
NMTAP	30	192	3
NMTAP	30	288	0
BRSTR	30	288	7
NMSCL	30	288	7	96	48	4
NMTAP	31	0	3
BRSTR	31	48	2
NMSCL	31	48	2	96	48	7
NMTAP	31	144	4
BRSTR	31	192	3
BRSI_	31	192	3	96	48	6
BRSTR	31	288	1
BRSI_	31	288	1	96	48	4
BRSTR	32	0	7
BRSI_	32	0	7	96	48	3
BRHLD	32	96	0	144
NMTAP	32	240	3
NMSTR	32	288	3
NMSCR	32	288	3	96	96	7
NMSTR	33	0	7
NMSCR	33	0	7	96	96	3
NMTAP	33	96	3
NMTAP	33	192	7
NMTAP	33	240	7
NMTAP	33	288	0
NMHLD	33	288	6	192
NMTAP	34	48	4
NMSTR	34	96	4
NMSCL	34	96	4	96	96	0
NMSTR	34	192	0
NMSCL	34	192	0	96	96	4
NMTAP	34	288	4
NMTAP	35	0	0
NMTAP	35	48	0
NMTAP	35	96	1
NMHLD	35	96	7	144
NMTAP	35	240	4
NMSTR	35	288	4
NMSUR	35	288	4	96	144	2
NMTAP	36	0	6
NMTAP	36	96	7
NMTAP	36	192	0
BRTAP	36	288	1
BRTAP	36	288	3
NMTAP	36	336	2
NMTAP	37	0	4
NMTAP	37	48	0
NMTAP	37	96	7
NMTAP	37	144	4
EXTAP	37	192	3
EXTAP	37	192	5
NMTAP	37	288	2
NMTAP	37	288	6
NMSTR	38	0	4
NMSI_	38	0	4	96	48	1
NMTAP	38	0	5
BXHLD	38	96	7	144
NMTAP	38	240	1
NMSTR	38	288	1
NMSCL	38	288	1	96	96	5
NMSTR	39	0	5
NMSLL	39	0	5	96	96	1
NMTAP	39	96	1
CNSI_	39	96	5	0	48	3
NMTAP	39	192	6
NMTAP	39	240	5
NMTAP	39	288	0
NMHLD	39	288	4	192
NMTAP	40	48	7
NMSTR	40	96	7
NMSCR	40	96	7	96	96	3
NMSTR	40	192	3
NMSCR	40	192	3	96	96	7
NMTAP	40	288	7
NMTAP	41	0	3
NMTAP	41	48	4
NMTAP	41	96	3
NMHLD	41	96	5	144
NMTAP	41	240	7
NMSTR	41	288	7
NMSI_	41	288	7	96	96	2
NMTAP	42	0	5
CNSI_	42	96	2	0	96	5
NMTAP	42	96	6
NMTAP	42	192	7
NMTAP	42	288	6
NMTAP	42	320	4
NMTAP	42	352	5
NMTAP	43	0	1
NMTAP	43	32	3
NMTAP	43	64	2
NMTAP	43	96	5
NMTAP	43	128	3
NMTAP	43	160	4
NMTTP	43	192	0	C	1	M1
NMSTR	44	0	0
NMSCR	44	0	0	96	48	3
NMTAP	44	48	6
BRSTR	44	96	0
NMSCL	44	96	0	96	48	5
NMSTR	44	192	0
NMSI_	44	192	0	96	48	4
NMTAP	44	288	0
EXTAP	44	352	5
EXTAP	44	368	6
EXSTR	45	0	7
NMSI_	45	0	7	96	48	3
NMSTR	45	96	7
NMSCR	45	96	7	96	48	2
NMSTR	45	192	7
NMSCL	45	192	7	96	48	4
BRTAP	45	288	7
NMTAP	46	0	2
NMTAP	46	48	3
NMSTR	46	96	0
NMSUR	46	96	0	96	96	5
NMTAP	46	144	6
NMTAP	46	192	5
NMSTR	47	0	6
NMSCL	47	0	6	96	48	3
NMTAP	47	48	7
NMTAP	47	96	0
NMTAP	47	96	6
NMHLD	47	192	2	96
NMTAP	47	288	4
EXTAP	47	352	4
EXTAP	47	368	5
EXSTR	48	0	6
NMSI_	48	0	6	96	48	2
NMSTR	48	96	0
NMSI_	48	96	0	96	48	4
NMTAP	48	96	6
NMTAP	48	192	0
NMSTR	48	192	7
NMSCR	48	192	7	96	48	2
EXTAP	48	288	3
NMTAP	48	288	7
NMTAP	49	0	4
NMTAP	49	48	4
NMTAP	49	144	1
NMTAP	49	144	7
NMSTR	49	192	2
NMSI_	49	192	2	96	48	7
NMSTR	49	192	6
NMSI_	49	192	6	96	48	3
NMTAP	49	288	2
NMTAP	49	288	6
BRTAP	50	0	0
BRTAP	50	0	4
NMSTR	50	96	1
NMSCR	50	96	1	96	96	4
NMSTR	50	192	4
NMSUR	50	192	4	96	96	2
NMTAP	50	288	7
EXTAP	50	352	7
EXTAP	50	368	6
EXSTR	51	0	5
NMSCL	51	0	5	96	96	2
NMSTR	51	96	2
NMSUL	51	96	2	96	96	4
NMTAP	51	192	0
NMHLD	51	288	1	96
NMTAP	52	0	3
NMTAP	52	48	2
NMTAP	52	96	7
NMTAP	52	144	4
NMTAP	52	192	5
NMTAP	52	240	5
NMTAP	52	288	1
NMTAP	52	336	1
NMTAP	53	0	0
NMTAP	53	0	5
EXTAP	53	48	0
NMTAP	53	48	5
EXTAP	53	64	1
EXTAP	53	80	2
BXTAP	53	96	3
BXTAP	53	96	6
BXTAP	53	144	3
BXHLD	53	144	6	144
NMTTP	53	288	2	B	0	M1
NMTTP	53	288	3	B	0	M1
NMTTP	53	288	3	E	1	M1
EXTAP	53	336	7
EXTAP	53	352	6
EXTAP	53	368	5
BXTAP	54	0	1
BXTAP	54	0	4
BXHLD	54	48	1	144
BXTAP	54	48	4
NMTTP	54	192	4	B	0	M1
NMTTP	54	192	5	B	0	M1
NMTTP	54	192	5	E	1	M1
BRTAP	54	288	7
NMTAP	55	0	0
NMTAP	55	0	6
NMSTR	55	48	0
NMSI_	55	48	0	96	48	4
NMTAP	55	48	6
NMTAP	55	144	4
BRSTR	55	192	5
BRSCL	55	192	5	96	48	2
BRSTR	55	288	1
BRSCL	55	288	1	96	48	6
BRSTR	56	0	5
BRSI_	56	0	5	96	48	0
NMTHO	56	96	0	1152	C	0	M1
NMTTP	59	96	0	E	0	M1
NMTTP	60	0	1	E	0	M1
NMTTP	60	288	2	E	0	M1
NMTTP	61	192	3	E	0	M1
NMTTP	61	192	5	E	0	M1
NMTAP	62	96	3
NMTAP	62	144	3
NMTAP	62	192	4
NMTAP	62	240	5
NMHLD	62	288	6	96
NMTAP	63	0	2
NMTAP	63	48	2
NMTAP	63	96	3
NMTAP	63	144	4
NMHLD	63	192	5	96
NMTAP	63	288	1
NMTAP	63	336	1
NMTAP	64	0	2
NMTAP	64	48	3
NMHLD	64	96	4	96
NMTAP	64	192	2
NMTAP	64	240	2
NMTAP	64	288	3
NMTAP	64	336	4
NMHLD	65	0	5	96
NMTAP	65	96	3
NMTAP	65	144	3
NMTAP	65	192	4
NMTAP	65	240	5
NMHLD	65	288	6	96
NMTAP	66	0	2
NMTAP	66	48	2
NMTAP	66	96	3
NMTAP	66	144	4
NMHLD	66	192	5	96
NMTAP	66	288	2
NMTAP	66	336	2
NMTAP	67	0	3
NMTAP	67	48	4
NMTAP	67	96	3
NMTAP	67	96	5
NMTAP	67	192	2
NMTAP	67	192	4
NMTAP	67	288	3
NMTAP	67	288	5
EXTAP	68	0	3
EXTAP	68	0	4
NMTAP	68	96	2
BRSTR	68	96	6
NMSI_	68	96	6	96	48	3
NMTAP	68	192	0
NMSTR	68	240	1
NMSI_	68	240	1	96	48	4
NMTAP	68	336	5
NMSTR	69	0	6
NMSCR	69	0	6	96	96	2
NMTAP	69	96	4
CNSCL	69	192	2	0	96	6
NMTAP	69	192	3
NMSTR	69	288	2
NMSI_	69	288	2	96	48	5
NMTAP	70	0	5
NMSTR	70	48	6
NMSI_	70	48	6	96	48	1
NMTAP	70	144	3
NMSTR	70	192	2
NMSCR	70	192	2	96	96	6
NMTAP	70	288	0
CNSCL	71	0	6	0	96	2
NMTAP	71	0	7
NMHLD	71	96	6	96
NMTAP	71	192	4
NMHLD	71	240	4	96
NMTAP	71	336	2
NMSTR	72	0	2
NMSI_	72	0	2	96	48	5
NMSTR	72	96	0
NMSCR	72	96	0	96	48	3
NMTAP	72	192	7
NMHLD	72	288	5	96
NMTAP	73	0	7
NMHLD	73	48	7	96
NMTAP	73	144	0
NMSTR	73	192	0
NMSI_	73	192	0	96	48	4
NMSTR	73	288	2
NMSI_	73	288	2	96	48	7
NMTAP	74	0	3
NMSTR	74	96	5
NMSI_	74	96	5	96	96	1
NMTAP	74	192	0
CNSLL	74	288	1	0	96	4
NMTAP	74	288	3
NMSTR	75	0	2
NMSI_	75	0	2	96	96	6
NMTAP	75	96	7
NMTAP	75	192	3
CNSLR	75	192	6	0	96	3
NMSTR	75	288	5
NMSI_	75	288	5	96	96	2
NMSTR	76	0	2
NMSI_	76	0	2	96	96	7
NMSTR	76	96	7
NMSI_	76	96	7	96	96	4
NMSTR	76	192	4
NMSI_	76	192	4	96	96	1
NMSTR	76	288	1
NMSI_	76	288	1	96	96	6
NMTAP	77	0	6
NMHLD	77	96	4	96
NMTAP	77	240	3
NMTAP	77	240	5
NMTAP	77	336	2
NMTAP	77	336	4
NMTAP	78	0	1
NMTAP	78	0	5
NMTAP	78	96	3
NMTAP	78	96	6
NMTAP	78	192	2
NMTAP	78	192	5
NMTAP	78	288	3
NMTAP	78	304	4
NMTAP	78	320	3
NMTAP	78	336	4
NMTAP	78	352	3
NMTAP	78	368	4
NMTAP	79	0	3
NMTAP	79	16	4
NMTAP	79	32	3
NMTAP	79	48	4
NMTAP	79	64	3
NMTAP	79	80	4
NMSTR	79	96	3
NMSI_	79	96	3	96	48	7
BXHLD	79	192	5	288
NMTHO	80	96	0	576	C	1	M1
BRTAP	81	288	7
NMTAP	82	48	1
NMTAP	82	48	5
NMTAP	82	96	1
NMTAP	82	96	5
NMTAP	82	144	1
NMTAP	82	144	5
NMSTR	82	192	0
NMSF_	82	192	0	96	48	4
NMTAP	82	192	6
NMTAP	82	288	0
BRSTR	83	96	2
NMSCL	83	96	2	96	48	7
BRSTR	83	96	6
NMSCL	83	96	6	96	48	3
NMSTR	83	192	2
NMSI_	83	192	2	96	48	6
NMTAP	83	192	6
EXTAP	83	288	0
NMTAP	83	288	2
EXSTR	84	0	0
NMSI_	84	0	0	96	48	5
EXTAP	84	16	1
EXTAP	84	32	2
NMSTR	84	96	0
NMSI_	84	96	0	96	48	3
NMTAP	84	192	0
NMHLD	84	288	7	96
NMTAP	85	0	3
NMTAP	85	48	5
NMTAP	85	96	0
NMTAP	85	144	3
BRSTR	85	192	1
NMSI_	85	192	1	96	48	4
BRSTR	85	192	5
NMSV_	85	192	5	96	48	0
BRTAP	85	288	1
BRTAP	85	288	5
BRTAP	86	0	3
BRTAP	86	0	7
NMSTR	86	96	1
NMSI_	86	96	1	96	48	3
NMSTR	86	144	3
NMSI_	86	144	3	96	48	7
NMTAP	86	192	1
NMTAP	86	240	6
NMSTR	86	288	5
NMSI_	86	288	5	96	48	3
NMTAP	86	336	0
BRSTR	87	0	5
NMSLR	87	0	5	96	96	3
NMTAP	87	48	2
NMTAP	87	96	5
NMTAP	87	144	0
NMSTR	87	192	1
BRSI_	87	192	1	96	48	4
NMTAP	87	240	4
BRTAP	87	288	1
NMTAP	88	0	7
NMTAP	88	48	6
NMTAP	88	96	0
NMTAP	88	96	5
NMTAP	88	144	1
NMTAP	88	144	4
NMSTR	88	192	3
NMSI_	88	192	3	96	48	7
NMTAP	88	240	2
NMTAP	88	288	3
NMTAP	88	336	0
EXTAP	89	0	6
NMTAP	89	16	5
NMTAP	89	32	4
EXTAP	89	48	0
NMTAP	89	64	1
NMTAP	89	80	2
BXTAP	89	96	3
BXTAP	89	96	7
BXSTR	89	144	4
NMSI_	89	144	4	96	48	0
BXHLD	89	144	6	96
CNSI_	89	288	0	0	48	2
BXTAP	90	0	3
BXTAP	90	0	7
BXHLD	90	48	4	96
BXSTR	90	48	6
NMSI_	90	48	6	96	48	2
CNSCL	90	192	2	0	48	0
EXTAP	90	288	3
EXTAP	90	288	7
EXTAP	90	304	2
EXTAP	90	304	6
EXTAP	90	320	1
EXHLD	90	320	5	64
EXTAP	91	48	0
EXTAP	91	48	4
EXTAP	91	64	1
EXTAP	91	64	5
EXTAP	91	80	2
EXHLD	91	80	6	64
NMTAP	91	144	4
BRSTR	91	192	0
NMSI_	91	192	0	96	48	5
BRTAP	91	192	3
NMTAP	91	288	0
BRSTR	91	288	2
NMSI_	91	288	2	96	48	7
NMTAP	92	0	2
BXTAP	92	0	4
BXTAP	92	96	3
BXSTR	92	96	6
NMSI_	92	96	6	96	48	0
NMSTR	92	192	2
NMSI_	92	192	2	96	48	6
NMTAP	92	192	6
NMTAP	92	288	2
NMSTR	92	288	4
NMSCR	92	288	4	96	96	0
NMSTR	93	0	0
NMSLR	93	0	0	96	96	4
CNSI_	93	96	0	0	48	2
NMSTR	93	96	4
NMSLR	93	96	4	96	96	0
NMSTR	93	192	0
NMSI_	93	192	0	96	96	4
EXTAP	93	288	3
NMTAP	94	0	1
NMTAP	94	48	1
NMSTR	94	96	0
NMSCR	94	96	0	96	96	5
NMTAP	94	144	7
EXTAP	94	192	6
NMTAP	95	0	3
NMTAP	95	0	6
NMTAP	95	96	1
NMTAP	95	128	3
NMTAP	95	160	2
NMTAP	95	192	5
NMTAP	95	224	3
NMTAP	95	256	4
NMTAP	95	288	2
NMTAP	95	320	3
NMTAP	95	352	2
NMTAP	96	0	6
NMTAP	96	32	4
NMTAP	96	64	5
NMTAP	96	96	2
NMTAP	96	128	4
NMTAP	96	160	3
NMTAP	96	192	5
NMTAP	96	224	4
NMTAP	96	256	5
NMTAP	96	288	3
NMTAP	96	320	2
NMTAP	96	352	1
NMTAP	97	0	0
NMTAP	97	0	7
NMTAP	97	32	6
NMTAP	97	64	5
NMTAP	97	96	2
NMTAP	97	128	3
NMTAP	97	160	2
NMSTR	97	192	1
NMSCL	97	192	1	96	48	7
NMTAP	97	192	4
BRSTR	97	288	1
NMSI_	97	288	1	96	48	4
NMSTR	97	288	6
NMSI_	97	288	6	96	48	3
BRSTR	98	0	1
NMSI_	98	0	1	96	48	7
NMTAP	98	0	6
NMTAP	98	96	1
BRSTR	98	96	5
NMSI_	98	96	5	96	48	1
NMSTR	98	192	3
NMSCL	98	192	3	96	96	7
NMTAP	98	192	5
NMSTR	98	288	7
NMSLL	98	288	7	96	96	3
NMSTR	99	0	3
NMSLL	99	0	3	96	96	7
CNSI_	99	0	7	0	48	5
NMSTR	99	96	7
BRSCR	99	96	7	96	96	3
NMTAP	99	192	4
EXTAP	99	288	5
NMTAP	100	0	6
NMTAP	100	48	6
NMSTR	100	96	7
NMSCL	100	96	7	96	96	2
NMTAP	100	144	0
EXTAP	100	192	1
NMTAP	101	0	1
NMTAP	101	0	3
NMTAP	101	96	5
NMTAP	101	128	3
NMTAP	101	160	4
NMTAP	101	192	1
NMTAP	101	224	3
NMTAP	101	256	2
NMTAP	101	288	5
NMTAP	101	320	4
NMTAP	101	352	5
NMTAP	102	0	3
NMTAP	102	32	2
NMTAP	102	64	1
NMTAP	102	96	0
NMTAP	102	96	7
NMTAP	102	128	6
NMTAP	102	160	5
NMTAP	102	192	2
NMTAP	102	224	3
NMTAP	102	256	2
NMSTR	102	288	6
NMSI_	102	288	6	96	48	3
NMSTR	102	336	0
NMSI_	102	336	0	96	48	3
NMTAP	103	0	6
NMTAP	103	48	0
NMTAP	103	96	7
NMTAP	103	112	6
NMTAP	103	128	5
NMTAP	103	144	0
NMTAP	103	160	1
NMTAP	103	176	2
BXSTR	103	192	3
NMSCL	103	192	3	96	48	0
BXSTR	103	192	7
NMSI_	103	192	7	96	48	4
BRTAP	103	288	3
NMSTR	103	288	7
BRSI_	103	288	7	96	48	3
NMSTR	104	0	5
BRSI_	104	0	5	96	48	0
BRSI_	104	0	5	96	48	2
BRTAP	104	0	7
BRTAP	104	96	5
BRTAP	104	192	3
BRTAP	104	192	7
NMTAP	104	288	5
NMTAP	104	320	4
NMTAP	104	352	5
NMSTR	105	0	2
NMSI_	105	0	2	96	48	4
NMSTR	105	48	7
NMSI_	105	48	7	96	48	2
NMTAP	105	96	2
NMTAP	105	144	7
EXTAP	105	192	0
NMTAP	105	240	1
NMTAP	105	264	3
NMSTR	105	288	1
NMSV_	105	288	1	96	48	4
NMTAP	105	336	4
NMTAP	106	0	1
NMTAP	106	48	5
NMTAP	106	64	6
NMTAP	106	80	7
NMSTR	106	96	0
NMSI_	106	96	0	96	48	4
NMTAP	106	144	2
NMSTR	106	192	0
NMSCL	106	192	0	96	48	5
NMSCR	106	192	0	96	48	3
NMSTR	106	288	0
NMSF_	106	288	0	96	48	4
NMTAP	107	0	0
BRTAP	107	96	2
BRTAP	107	96	6

T_REC_TAP	328
T_REC_BRK	22
T_REC_XTP	56
T_REC_BXX	13
T_REC_HLD	44
T_REC_XHO	4
T_REC_BHO	1
T_REC_BXH	10
T_REC_STR	81
T_REC_BST	20
T_REC_XST	4
T_REC_XBS	10
T_REC_TTP	29
T_REC_THO	3
T_REC_SLD	106
T_REC_BSL	11
T_REC_ALL	742
T_NUM_TAP	498
T_NUM_BRK	87
T_NUM_HLD	51
T_NUM_SLD	106
T_NUM_ALL	742
T_JUDGE_TAP	563
T_JUDGE_HLD	202
T_JUDGE_SLD	117
T_JUDGE_ALL	882
TTM_EACHPAIRS	99
TTM_SCR_TAP	249000
TTM_SCR_BRK	226200
TTM_SCR_HLD	51000
TTM_SCR_SLD	159000
TTM_SCR_ALL	685200
TTM_SCR_S	656250
TTM_SCR_SS	676500
TTM_RAT_ACV	10128

