VERSION	0.00.00	1.04.00
FES_MODE	0
BPM_DEF	222.000	222.000	222.000	222.000
MET_DEF	4	4
RESOLUTION	384
CLK_DEF	576
COMPATIBLE_CODE	MA2

BPM	0	0	222.000
MET	0	0	4	3

NMTAP	2	96	4
NMTAP	2	240	3
NMTAP	3	0	2
NMSTR	3	144	1
NMSCR	3	144	1	96	336	5
NMTAP	5	96	3
NMTAP	5	240	4
NMTAP	6	0	5
NMSTR	6	144	6
NMSCL	6	144	6	96	336	2
NMHLD	8	96	1	96
NMHLD	8	96	3	96
NMHLD	8	240	1	288
NMSTR	8	240	3
NMSCR	8	240	3	96	192	5
NMHLD	9	288	4	96
NMHLD	9	288	6	96
NMSTR	10	48	4
NMSCL	10	48	4	96	192	2
NMHLD	10	48	6	288
NMHLD	11	96	1	96
NMHLD	11	96	3	96
NMTAP	11	240	1
NMTAP	11	240	3
NMTAP	12	0	2
NMTAP	12	96	3
NMTAP	12	192	4
NMTAP	12	288	5
NMTAP	12	288	6
NMTAP	13	48	1
NMTAP	13	48	2
NMTAP	13	144	0
NMTAP	13	144	7
NMSTR	13	192	0
NMSI_	13	192	0	96	96	3
NMSTR	13	192	7
NMSI_	13	192	7	96	96	4
BRTAP	14	96	1
BRTAP	14	96	6
NMTAP	14	192	1
NMTAP	14	240	1
NMTAP	14	288	0
NMTAP	15	0	2
NMTAP	15	0	7
NMTAP	15	96	6
NMTAP	15	144	6
NMTAP	15	192	7
NMTAP	15	288	0
NMTAP	15	288	5
NMTAP	16	0	1
NMTAP	16	48	1
NMTAP	16	96	0
NMTAP	16	192	2
NMTAP	16	192	7
NMTAP	16	288	0
NMTAP	16	288	5
NMTAP	17	0	6
NMTAP	17	0	7
NMTAP	17	96	2
NMTAP	17	96	7
NMTAP	17	192	6
NMTAP	17	240	6
NMTAP	17	288	7
NMTAP	18	0	0
NMTAP	18	0	5
NMTAP	18	96	1
NMTAP	18	144	1
NMTAP	18	192	0
NMTAP	18	288	2
NMTAP	18	288	7
NMTAP	19	0	6
NMTAP	19	48	6
NMTAP	19	96	7
NMTAP	19	192	0
NMTAP	19	192	5
NMTAP	19	288	2
NMTAP	19	288	7
NMTAP	20	0	0
NMTAP	20	0	7
BRSTR	20	96	1
NMSCR	20	96	1	96	192	4
BRTAP	20	96	7
NMTTP	21	0	0	B	0	M1
NMTTP	21	0	1	B	0	M1
NMTAP	21	288	0
NMSTR	21	288	6
NMSCL	21	288	6	96	192	3
NMTTP	22	192	6	B	0	M1
NMTTP	22	192	7	B	0	M1
NMSTR	23	96	1
NMSCR	23	96	1	96	192	4
NMTAP	23	96	7
NMTTP	24	0	0	B	0	M1
NMTTP	24	0	1	B	0	M1
NMTAP	24	288	0
NMSTR	24	288	6
NMSCL	24	288	6	96	192	3
EXTAP	25	192	7
EXTAP	25	288	1
EXTAP	25	288	5
EXTAP	26	0	2
EXTAP	26	0	3
EXTAP	26	96	0
EXTAP	26	96	7
NMTAP	26	192	1
NMTAP	26	240	1
NMTAP	26	288	3
NMTAP	27	0	4
NMTAP	27	96	5
NMTAP	27	192	6
NMTAP	27	288	0
NMTAP	27	288	7
NMTAP	28	0	6
NMTAP	28	48	6
NMTAP	28	96	4
NMTAP	28	192	3
NMTAP	28	288	2
NMTAP	29	0	1
NMHLD	29	96	0	96
NMHLD	29	96	1	96
NMHLD	29	240	2	96
NMHLD	29	240	7	96
NMHLD	30	0	3	96
NMHLD	30	0	6	96
NMHLD	30	144	4	96
NMHLD	30	144	5	96
NMSTR	30	288	6
NMSI_	30	288	6	96	48	2
NMTAP	30	288	7
NMSTR	31	48	0
NMSI_	31	48	0	96	48	4
NMTAP	31	192	7
NMTAP	31	288	3
NMTAP	31	288	6
NMHLD	32	96	4	144
NMTAP	32	96	5
NMHLD	32	240	3	144
NMHLD	33	0	1	192
NMTAP	33	96	0
NMTAP	33	192	7
NMHLD	33	288	2	96
NMHLD	33	288	6	96
NMHLD	34	48	3	96
NMHLD	34	48	5	96
NMSTR	34	192	4
NMSI_	34	192	4	96	48	6
NMTAP	34	288	3
NMTAP	35	0	3
NMHLD	35	96	4	144
NMTAP	35	96	5
NMHLD	35	240	3	144
NMHLD	36	0	1	192
NMTAP	36	96	0
NMTAP	36	192	7
NMTAP	36	288	2
NMTAP	36	336	2
NMTAP	37	0	6
NMTAP	37	48	6
NMTAP	37	96	4
NMTAP	37	144	4
NMSTR	37	192	7
NMSCL	37	192	7	96	96	4
NMTAP	37	288	3
NMTAP	38	0	2
NMTAP	38	96	1
NMHLD	38	96	3	144
NMHLD	38	240	4	144
NMHLD	39	0	6	192
NMTAP	39	96	7
NMTAP	39	192	0
NMHLD	39	288	1	96
NMHLD	39	288	5	96
NMHLD	40	48	2	96
NMHLD	40	48	4	96
NMSTR	40	192	3
NMSI_	40	192	3	96	48	1
NMTAP	40	288	4
NMTAP	41	0	4
NMHLD	41	96	1	96
NMHLD	41	96	3	96
NMTAP	41	240	1
NMTAP	41	240	3
NMTAP	42	0	0
NMTAP	42	0	1
NMTAP	42	96	6
NMTAP	42	96	7
NMTAP	42	192	4
NMTAP	42	192	5
EXTAP	42	288	2
EXTAP	42	320	3
EXTAP	42	352	2
EXTAP	43	0	3
EXTAP	43	32	2
EXTAP	43	64	3
EXTAP	43	96	2
EXTAP	43	128	3
EXTAP	43	160	2
NMTTP	43	192	0	C	0	M1
NMSTR	44	96	1
NMSI_	44	96	1	96	48	4
NMTAP	44	96	7
NMSTR	44	192	0
NMSI_	44	192	0	96	48	5
NMSTR	45	0	7
NMSI_	45	0	7	96	48	2
NMSTR	45	96	6
NMSI_	45	96	6	96	48	3
NMSTR	45	288	1
NMSCR	45	288	1	96	96	5
NMTAP	46	0	0
NMTAP	46	48	0
NMSTR	46	96	0
NMSUL	46	96	0	96	192	5
NMHLD	46	192	4	192
NMTAP	47	96	0
NMSTR	47	96	6
NMSI_	47	96	6	96	48	3
NMSTR	47	192	7
NMSI_	47	192	7	96	48	2
NMSTR	48	0	0
NMSI_	48	0	0	96	48	5
NMSTR	48	96	1
NMSI_	48	96	1	96	48	4
NMSTR	48	288	6
NMSCL	48	288	6	96	96	3
NMTAP	49	0	7
NMTAP	49	48	7
NMTAP	49	144	0
BRTAP	49	192	0
BRTAP	49	192	2
BRTAP	49	288	5
BRTAP	49	288	7
BRTAP	50	0	2
BRTAP	50	0	6
NMTAP	50	96	5
NMTAP	50	144	5
NMTAP	50	192	0
NMTAP	50	240	0
NMTAP	50	288	3
NMTAP	50	336	3
NMTAP	51	0	1
NMTAP	51	48	1
NMTAP	51	96	7
NMTAP	51	144	7
NMTAP	51	192	4
NMTAP	51	240	4
NMTAP	51	288	5
NMTAP	51	336	5
NMTAP	52	0	0
NMTAP	52	48	0
NMTAP	52	96	3
NMTAP	52	144	3
NMTAP	52	192	1
NMTAP	52	240	1
NMTAP	52	288	7
NMTAP	52	336	7
NMSTR	53	0	3
NMSI_	53	0	3	96	48	5
BRTAP	53	96	6
BRTAP	53	144	6
NMSTR	53	288	4
NMSI_	53	288	4	96	48	2
BRTAP	54	0	1
BRTAP	54	48	1
NMTAP	54	192	3
NMTAP	54	288	4
NMHLD	54	288	6	144
NMTAP	55	48	7
NMTAP	55	144	0
NMTAP	55	144	5
NMTAP	55	192	0
NMTAP	55	192	5
NMTAP	55	288	1
NMTAP	55	288	6
NMTAP	56	0	2
NMTAP	56	0	7
NMHLD	56	96	0	864
NMTAP	56	96	3
NMTTP	56	288	7	B	0	M1
NMTTP	57	0	0	B	0	M1
NMTTP	57	192	4	B	0	M1
NMTTP	57	288	3	B	0	M1
NMTTP	58	96	6	E	0	M1
NMTTP	58	192	2	E	0	M1
NMHLD	59	96	7	1056
NMTTP	59	288	5	B	0	M1
NMTTP	60	0	6	B	0	M1
NMTTP	60	192	2	B	0	M1
NMTTP	60	288	1	B	0	M1
NMTTP	61	96	0	C	0	M1
NMTTP	61	192	0	E	0	M1
NMHLD	62	96	0	864
NMTAP	62	96	6
NMTTP	62	288	4	B	0	M1
NMTTP	63	0	0	C	0	M1
NMTTP	63	192	6	B	0	M1
NMTTP	63	288	7	A	0	M1
NMTTP	64	96	1	B	0	M1
NMTTP	64	192	1	D	0	M1
NMTAP	65	96	1
NMHLD	65	96	7	864
NMTTP	65	288	3	B	0	M1
NMTTP	66	0	0	C	0	M1
NMTTP	66	192	1	B	0	M1
NMTTP	66	288	0	A	0	M1
NMTTP	67	96	6	B	0	M1
NMTTP	67	192	7	D	0	M1
EXHLD	68	96	0	96
EXHLD	68	96	6	96
NMHLD	68	240	0	96
NMHLD	68	240	6	96
NMTAP	69	0	6
NMTAP	69	0	7
NMTAP	69	96	5
NMTAP	69	192	3
NMTAP	69	192	4
NMSTR	69	288	2
NMSI_	69	288	2	96	48	4
NMTAP	70	0	6
NMHLD	70	48	6	144
NMTAP	70	192	7
NMTAP	70	288	0
NMTAP	71	0	1
EXHLD	71	96	1	96
EXHLD	71	96	7	96
NMHLD	71	240	1	96
NMHLD	71	240	7	96
NMTAP	72	0	0
NMTAP	72	0	1
NMTAP	72	96	2
NMTAP	72	192	3
NMTAP	72	192	4
NMSTR	72	288	5
NMSI_	72	288	5	96	48	3
NMTAP	73	0	1
NMHLD	73	48	1	144
NMTAP	73	192	0
NMTAP	73	288	7
NMTAP	74	0	6
NMTAP	74	96	4
NMTAP	74	96	5
NMTAP	74	192	3
NMTAP	74	288	2
NMTAP	75	0	0
NMTAP	75	0	1
NMTAP	75	96	7
NMTAP	75	192	6
NMTAP	75	288	4
NMTAP	75	288	5
NMTAP	76	0	2
NMTAP	76	0	3
NMTAP	76	96	0
NMTAP	76	96	1
NMTAP	76	192	5
NMTAP	76	192	7
NMTAP	76	288	3
NMTAP	76	288	5
NMTAP	77	0	1
NMTAP	77	0	3
BXTAP	77	96	7
NMSTR	77	144	7
NMSI_	77	144	7	96	48	3
BXTAP	77	240	1
NMSTR	77	288	1
NMSI_	77	288	1	96	48	5
NMTAP	78	0	6
NMTAP	78	96	4
NMTAP	78	96	7
NMTAP	78	192	0
NMTAP	78	192	3
BRTAP	78	288	1
BRTAP	78	288	2
BRTAP	79	0	5
BRTAP	79	0	6
BRTAP	79	96	0
BRTAP	79	96	7
BRSTR	79	192	3
NMSUR	79	192	3	96	480	4
BRSTR	79	192	4
NMSCR	79	192	4	96	480	3
BRTAP	81	288	3
BRTAP	81	288	7
NMTAP	82	48	1
NMTAP	82	48	5
NMTAP	82	96	1
NMTAP	82	96	5
NMTAP	82	144	1
NMTAP	82	144	5
NMTAP	82	192	1
NMTAP	82	192	5
BXTAP	82	288	0
BXTAP	82	288	7
NMSTR	83	96	1
NMSI_	83	96	1	96	48	4
NMTAP	83	96	7
NMSTR	83	192	0
NMSI_	83	192	0	96	48	5
NMSTR	84	0	7
NMSI_	84	0	7	96	48	2
NMSTR	84	96	6
NMSI_	84	96	6	96	48	3
NMSTR	84	288	1
NMSCR	84	288	1	96	96	4
NMTAP	85	0	0
NMTAP	85	48	0
NMTAP	85	144	7
BRTAP	85	192	5
BRTAP	85	192	7
BRTAP	85	288	0
BRTAP	85	288	2
BRTAP	86	0	1
BRTAP	86	0	5
NMTAP	86	96	2
NMTAP	86	144	2
NMTAP	86	192	7
NMTAP	86	240	7
NMTAP	86	288	4
NMTAP	86	336	4
NMTAP	87	0	6
NMTAP	87	48	6
NMTAP	87	96	0
NMTAP	87	144	0
NMTAP	87	192	3
NMTAP	87	240	3
NMTAP	87	288	2
NMTAP	87	336	2
NMTAP	88	0	7
NMTAP	88	48	7
NMTAP	88	96	4
NMTAP	88	144	4
NMTAP	88	192	6
NMTAP	88	240	6
NMTAP	88	288	0
NMTAP	88	336	0
NMSTR	89	0	3
NMSI_	89	0	3	96	48	6
BRTAP	89	96	1
BRTAP	89	144	1
NMSTR	89	288	4
NMSI_	89	288	4	96	48	1
BRTAP	90	0	6
BRTAP	90	48	6
NMTAP	90	192	3
NMHLD	90	288	1	144
NMTAP	90	288	3
NMTAP	91	48	0
NMTAP	91	144	2
NMTAP	91	144	7
NMTAP	91	192	2
NMTAP	91	192	7
NMTAP	91	288	1
NMTAP	91	288	6
NMTAP	92	0	3
NMTAP	92	0	4
EXHLD	92	96	2	288
NMTAP	92	192	0
NMTAP	92	288	7
NMHLD	93	0	5	192
NMTAP	93	96	4
NMTAP	93	192	3
NMHLD	93	288	2	192
NMTAP	94	0	0
NMTAP	94	48	0
NMSTR	94	96	0
NMSCL	94	96	0	96	192	4
NMHLD	94	192	1	288
NMTAP	95	96	3
NMTAP	95	144	3
NMTAP	95	192	0
NMTAP	95	240	0
NMHLD	95	288	6	96
NMTAP	96	0	4
NMTAP	96	48	4
NMTAP	96	96	7
NMTAP	96	144	7
NMHLD	96	192	1	96
NMSTR	96	288	3
NMSI_	96	288	3	96	48	5
NMSTR	97	0	0
NMSI_	97	0	0	96	48	2
NMTAP	97	96	6
NMTAP	97	192	4
NMTAP	97	192	7
NMTAP	97	288	2
NMTAP	97	288	6
NMTAP	98	0	3
NMTAP	98	0	4
EXHLD	98	96	5	288
NMTAP	98	192	7
NMTAP	98	288	0
NMHLD	99	0	2	192
NMTAP	99	96	3
NMTAP	99	192	4
NMHLD	99	288	5	192
NMTAP	100	0	7
NMTAP	100	48	7
NMSTR	100	96	7
NMSCR	100	96	7	96	192	3
NMHLD	100	192	6	288
NMTAP	101	96	4
NMTAP	101	144	4
NMTAP	101	192	7
NMTAP	101	240	7
NMHLD	101	288	1	96
NMTAP	102	0	3
NMTAP	102	48	3
NMTAP	102	96	0
NMTAP	102	144	0
NMHLD	102	192	6	96
NMTAP	102	288	4
NMTAP	102	336	4
NMTAP	103	0	7
NMTAP	103	48	7
NMSTR	103	96	1
NMSI_	103	96	1	96	48	5
NMSTR	103	192	6
NMSI_	103	192	6	96	48	0
NMSTR	103	288	2
NMSI_	103	288	2	96	48	4
NMSTR	104	0	7
NMSI_	104	0	7	96	48	3
NMSTR	104	96	2
NMSI_	104	96	2	96	48	0
NMSTR	104	192	6
NMSI_	104	192	6	96	48	4
EXTAP	104	288	1
EXTAP	104	336	1
NMTAP	105	0	3
NMTAP	105	48	3
NMTAP	105	96	0
NMTAP	105	144	0
NMTAP	105	192	7
NMTAP	105	240	7
NMTAP	105	288	4
NMTAP	105	288	6
NMTAP	106	0	1
NMTAP	106	0	3
NMSTR	106	96	7
NMSI_	106	96	7	96	48	1
NMSTR	106	192	2
NMSI_	106	192	2	96	48	6
NMSTR	106	288	5
NMSI_	106	288	5	96	48	3
NMSTR	107	0	0
NMSCR	107	0	0	96	1056	7
BXHLD	107	96	4	1056

T_REC_TAP	287
T_REC_BRK	31
T_REC_XTP	18
T_REC_BXX	4
T_REC_HLD	58
T_REC_XHO	6
T_REC_BHO	0
T_REC_BXH	1
T_REC_STR	52
T_REC_BST	3
T_REC_XST	0
T_REC_XBS	0
T_REC_TTP	31
T_REC_THO	0
T_REC_SLD	55
T_REC_BSL	0
T_REC_ALL	546
T_NUM_TAP	388
T_NUM_BRK	39
T_NUM_HLD	64
T_NUM_SLD	55
T_NUM_ALL	546
T_JUDGE_TAP	426
T_JUDGE_HLD	268
T_JUDGE_SLD	55
T_JUDGE_ALL	749
TTM_EACHPAIRS	103
TTM_SCR_TAP	194000
TTM_SCR_BRK	101400
TTM_SCR_HLD	64000
TTM_SCR_SLD	82500
TTM_SCR_ALL	441900
TTM_SCR_S	424900
TTM_SCR_SS	438000
TTM_RAT_ACV	10089

