VERSION	0.00.00	1.04.00
FES_MODE	0
BPM_DEF	155.000	155.000	155.000	155.000
MET_DEF	4	4
RESOLUTION	384
CLK_DEF	384
COMPATIBLE_CODE	MA2

BPM	0	0	155.000
MET	0	0	4	4

NMHLD	2	0	3	288
NMHLD	2	0	5	288
NMTTP	3	0	1	B	0	M1
NMTTP	3	24	7	B	0	M1
NMTTP	3	48	3	B	0	M1
NMTTP	3	72	5	B	0	M1
NMTTP	3	96	1	E	0	M1
NMTTP	3	120	7	E	0	M1
NMTTP	3	144	3	E	0	M1
NMTTP	3	168	5	E	0	M1
NMTHO	3	192	0	96	C	0	M1
NMHLD	4	0	1	288
NMHLD	4	0	7	288
NMTTP	5	0	2	B	0	M1
NMTTP	5	0	2	E	0	M1
NMTTP	5	0	3	E	0	M1
NMTAP	5	0	6
NMTAP	5	96	0
NMTTP	5	96	5	B	0	M1
NMTTP	5	96	5	E	0	M1
NMTTP	5	96	6	E	0	M1
NMTAP	5	192	7
NMTAP	5	240	7
NMTAP	5	288	0
NMTAP	5	288	6
NMTAP	5	336	2
NMHLD	6	0	1	288
NMHLD	6	0	3	288
NMTAP	7	0	2
NMTAP	7	24	3
NMTAP	7	48	2
NMTAP	7	72	3
NMTAP	7	96	2
NMTAP	7	120	3
NMTAP	7	144	2
NMTAP	7	168	3
NMTTP	7	192	2	D	0	M1
NMTTP	7	216	1	A	0	M1
NMTTP	7	240	1	D	0	M1
NMTTP	7	264	0	A	0	M1
NMTTP	7	288	4	D	0	M1
NMTTP	7	312	4	A	0	M1
NMTTP	7	336	5	D	0	M1
NMTTP	7	360	5	A	0	M1
EXHLD	8	0	0	192
EXHLD	8	0	6	192
NMTAP	8	288	1
NMTAP	8	312	7
NMTAP	8	336	1
NMTAP	8	360	7
BRTAP	9	0	1
NMTAP	9	48	2
NMTAP	9	72	3
NMTAP	9	96	2
NMTAP	9	144	5
NMTAP	9	168	4
NMTAP	9	192	5
NMTAP	9	240	3
NMTAP	9	264	4
NMTAP	9	288	2
NMTAP	9	288	5
NMTAP	10	0	4
NMSTR	10	0	6
NMSXL	10	0	6	96	192	2
NMTAP	10	96	4
NMTAP	10	192	4
NMTAP	10	288	4
NMSTR	11	0	2
NMSCL	11	0	2	96	192	4
NMTAP	11	0	4
NMTAP	11	96	4
NMTAP	11	192	3
NMTAP	11	288	2
NMSTR	12	0	1
NMSV_	12	0	1	96	96	4
NMTAP	12	0	3
NMTAP	12	96	3
NMTAP	12	192	3
CNSUR	12	192	4	0	96	0
NMTAP	12	288	3
NMSTR	13	0	0
NMSXR	13	0	0	96	192	2
NMTAP	13	0	3
NMTAP	13	96	3
NMTAP	13	192	4
NMTAP	13	288	4
NMTAP	14	0	3
NMTAP	14	0	6
NMTAP	14	48	5
NMTAP	14	72	5
NMTAP	14	96	4
NMTAP	14	144	1
NMTAP	14	168	1
NMTAP	14	192	3
NMTAP	14	240	5
NMTAP	14	264	5
NMTAP	14	288	4
NMTAP	14	336	3
NMTAP	14	336	6
NMTAP	15	0	4
NMTAP	15	0	5
NMTAP	15	48	2
NMTAP	15	72	2
NMTAP	15	96	3
NMTAP	15	144	6
NMTAP	15	168	6
NMTAP	15	192	4
NMTAP	15	240	2
NMTAP	15	264	2
NMTAP	15	288	3
NMTAP	15	336	1
NMTAP	15	336	4
NMTAP	16	0	3
NMTAP	16	0	5
NMTAP	16	48	3
NMTAP	16	48	5
NMTAP	16	96	4
NMTAP	16	144	4
NMTAP	16	192	3
NMTAP	16	216	2
NMTAP	16	240	1
NMTAP	16	264	0
NMTAP	16	288	7
NMTAP	16	312	6
NMTAP	16	336	5
NMTAP	16	360	4
NMSTR	17	0	3
NMSCR	17	0	3	96	144	2
NMTAP	17	288	3
NMTAP	17	288	4
NMTAP	18	0	0
NMTAP	18	0	7
NMTAP	18	48	2
NMTAP	18	72	3
NMSTR	18	96	1
NMSI_	18	96	1	96	48	3
NMSTR	18	144	0
NMSI_	18	144	0	96	48	4
NMSTR	18	192	1
NMSI_	18	192	1	96	48	5
NMTAP	18	240	0
NMTAP	18	288	1
NMTAP	18	336	7
NMTAP	19	0	4
NMTAP	19	0	6
NMTAP	19	48	5
NMTAP	19	72	4
NMTAP	19	96	6
NMTAP	19	144	2
NMTAP	19	168	3
NMTAP	19	192	1
NMTAP	19	240	6
NMTAP	19	240	7
NMTAP	19	288	0
NMTAP	19	288	5
NMTAP	20	0	2
NMTAP	20	0	3
NMTAP	20	48	5
NMTAP	20	72	4
NMSTR	20	96	6
NMSI_	20	96	6	96	48	4
NMSTR	20	144	7
NMSI_	20	144	7	96	48	3
NMSTR	20	192	6
NMSI_	20	192	6	96	48	2
NMTAP	20	240	7
NMTAP	20	288	6
NMTAP	20	336	0
NMTAP	21	0	1
NMTAP	21	0	3
NMTAP	21	48	2
NMTAP	21	72	3
NMTAP	21	96	2
NMTAP	21	144	1
NMTAP	21	168	0
NMTAP	21	192	1
NMTAP	21	240	2
NMTAP	21	240	7
NMTAP	21	288	2
NMTAP	21	288	7
NMTAP	22	0	4
NMTAP	22	0	5
NMTAP	22	48	2
NMTAP	22	72	3
NMSTR	22	96	1
NMSCR	22	96	1	96	48	4
NMSTR	22	144	0
NMSI_	22	144	0	96	48	4
NMSTR	22	192	1
NMSI_	22	192	1	96	48	5
NMTAP	22	240	0
NMTAP	22	288	1
NMTAP	22	336	6
NMTAP	23	0	4
NMTAP	23	0	6
NMTAP	23	48	2
NMTAP	23	72	3
NMTAP	23	96	1
NMTAP	23	144	6
NMTAP	23	168	4
NMTAP	23	192	6
NMTAP	23	240	3
NMTAP	23	240	5
NMTAP	23	288	3
NMSTR	23	288	5
NMSI_	23	288	5	96	48	2
NMSTR	24	0	0
NMSI_	24	0	0	96	48	4
NMTAP	24	48	0
NMTAP	24	96	7
NMTAP	24	144	7
NMTAP	24	192	1
NMTAP	24	216	6
NMTAP	24	240	1
NMTAP	24	264	6
NMTAP	24	288	0
NMTAP	24	312	7
NMTAP	24	336	0
NMTAP	24	360	7
NMTTP	25	0	1	E	0	M1
NMTTP	25	48	2	E	0	M1
NMTTP	25	96	7	E	0	M1
NMTTP	25	144	6	E	0	M1
NMTTP	25	192	3	E	0	M1
NMTTP	25	240	4	E	0	M1
NMTTP	25	288	0	C	0	M1
NMSTR	26	0	0
NMSI_	26	0	0	96	48	3
NMSTR	26	0	7
NMSI_	26	0	7	96	48	4
BRTAP	26	96	0
BRTAP	26	96	7
NMSTR	26	192	2
NMSI_	26	192	2	96	48	5
NMSTR	26	192	6
NMSI_	26	192	6	96	48	1
NMTAP	26	288	2
NMTAP	26	288	6
NMSTR	27	0	2
NMSCR	27	0	2	96	48	5
NMTAP	27	0	7
NMTAP	27	48	0
NMTAP	27	48	1
NMTAP	27	96	2
NMTAP	27	144	7
NMSTR	27	192	6
NMSCR	27	192	6	96	48	1
NMTAP	27	240	5
NMTAP	27	288	3
NMTAP	27	288	6
NMSTR	28	0	1
NMSUR	28	0	1	96	48	5
NMTAP	28	0	7
NMTAP	28	48	0
NMTAP	28	96	1
NMTAP	28	96	7
NMTAP	28	144	6
NMSTR	28	192	6
NMSUL	28	192	6	96	48	2
NMTAP	28	240	5
NMTAP	28	288	6
NMTAP	28	288	7
NMTAP	28	336	0
NMSTR	29	0	1
NMSCR	29	0	1	96	48	4
NMTAP	29	48	0
NMTAP	29	96	1
NMTAP	29	96	7
NMTAP	29	144	6
NMTAP	29	192	4
NMTAP	29	192	5
NMTAP	29	240	6
NMTAP	29	240	7
NMTAP	29	288	0
NMTAP	29	288	5
BRTAP	30	0	4
BRTAP	30	0	6
NMTAP	30	48	5
BRTAP	30	96	3
BRTAP	30	96	4
NMTAP	30	144	2
NMSTR	30	192	1
NMSCL	30	192	1	96	48	6
NMTAP	30	192	3
NMTAP	30	240	2
NMTAP	30	288	1
NMTAP	30	288	4
NMSTR	31	0	5
NMSCL	31	0	5	96	48	2
NMTAP	31	0	7
NMTAP	31	48	6
NMTAP	31	96	5
NMTAP	31	96	7
NMTAP	31	144	0
NMSTR	31	192	1
NMSI_	31	192	1	96	48	5
NMTAP	31	240	2
NMTAP	31	288	0
NMTAP	31	288	1
NMTAP	32	0	7
NMTAP	32	32	4
NMTAP	32	64	5
NMTAP	32	96	0
NMTAP	32	128	3
NMTAP	32	160	2
NMTAP	32	192	6
NMTAP	32	224	4
NMTAP	32	256	5
NMTAP	32	288	1
NMTAP	32	320	3
NMTAP	32	352	2
NMTAP	33	0	5
NMTAP	33	32	6
NMTAP	33	64	7
NMTAP	33	96	2
NMTAP	33	128	1
NMTAP	33	160	0
NMTAP	33	192	4
NMTAP	33	224	5
NMTAP	33	256	6
NMSTR	33	288	0
NMSI_	33	288	0	96	48	4
NMTAP	33	288	7
BRTAP	34	0	0
BRHLD	34	0	3	336
NMTTP	34	336	5	E	1	M1
NMTTP	34	360	4	B	1	M1
NMTTP	35	0	3	B	1	M1
NMTTP	35	24	3	E	1	M1
NMSTR	36	0	2
NMSLL	36	0	2	96	96	6
NMTTP	36	96	4	B	0	M1
NMTTP	36	108	4	E	0	M1
CNSI_	36	192	6	0	96	4
NMTTP	36	288	3	B	0	M1
CNSI_	36	288	4	0	96	6
NMTTP	36	300	4	E	0	M1
CNSLR	37	0	6	0	288	2
NMTTP	37	96	4	B	0	M1
NMTTP	37	108	4	E	0	M1
NMTTP	37	288	3	B	0	M1
NMTTP	37	300	4	E	0	M1
NMSTR	38	0	5
NMSLR	38	0	5	96	96	1
NMTTP	38	96	3	B	0	M1
NMTTP	38	108	4	E	0	M1
CNSI_	38	192	1	0	96	3
CNSI_	38	288	3	0	96	1
NMTTP	38	288	4	B	0	M1
NMTTP	38	300	4	E	0	M1
CNSLL	39	0	1	0	288	5
NMTTP	39	96	3	B	0	M1
NMTTP	39	108	4	E	0	M1
NMTTP	39	288	4	B	0	M1
NMTTP	39	300	4	E	0	M1
NMSTR	40	0	2
NMSXR	40	0	2	96	192	7
NMTTP	40	96	6	B	0	M1
NMTTP	40	96	6	A	0	M1
NMTTP	40	192	5	B	0	M1
NMTTP	40	192	5	A	0	M1
NMTTP	40	288	4	B	0	M1
NMTTP	40	288	4	A	0	M1
NMSTR	41	0	3
NMSXL	41	0	3	96	192	6
NMTTP	41	96	0	E	0	M1
NMTTP	41	96	0	D	0	M1
NMTTP	41	192	1	E	0	M1
NMTTP	41	192	1	D	0	M1
NMTTP	41	288	2	E	0	M1
NMTTP	41	288	2	D	0	M1
NMTAP	42	0	1
NMTAP	42	0	7
NMTAP	42	48	1
NMTAP	42	48	7
NMTAP	42	96	2
NMTAP	42	96	6
NMTAP	42	144	2
NMTAP	42	144	6
NMTAP	42	192	1
NMTAP	42	216	5
NMTAP	42	240	0
NMTAP	42	264	6
NMSTR	42	288	7
NMSXL	42	288	7	96	192	2
NMSXR	42	288	7	96	192	4
EXTAP	43	288	1
EXTAP	43	288	5
BXSTR	44	0	6
NMSI_	44	0	6	96	48	2
BXTAP	44	0	7
NMTAP	44	48	5
NMTAP	44	96	6
NMTAP	44	96	7
NMTAP	44	144	0
NMTAP	44	192	0
NMTAP	44	240	1
NMTAP	44	240	7
NMTAP	44	288	7
NMTAP	44	312	1
NMTAP	44	336	5
NMTAP	44	360	3
NMSTR	45	0	6
NMSI_	45	0	6	96	48	3
NMSTR	45	48	2
NMSI_	45	48	2	96	48	7
NMTAP	45	96	6
BRTAP	45	144	2
NMTAP	45	240	6
NMTAP	45	240	7
NMSTR	45	288	0
NMSI_	45	288	0	96	48	4
NMTAP	45	288	5
NMTAP	45	336	1
NMTAP	46	0	0
NMSTR	46	0	5
NMSI_	46	0	5	96	48	0
NMTAP	46	48	6
NMTAP	46	96	3
NMTAP	46	96	5
NMSTR	46	144	1
NMSI_	46	144	1	96	48	3
NMTAP	46	240	1
NMTAP	46	240	7
NMTAP	46	288	6
NMTAP	46	312	6
NMTAP	46	336	4
NMTAP	46	360	5
NMSTR	47	0	3
NMSCL	47	0	3	96	48	0
NMSTR	47	48	7
NMSCL	47	48	7	96	48	4
NMTAP	47	96	3
NMTAP	47	144	7
NMTAP	47	240	1
NMTAP	47	240	3
NMTAP	47	288	2
NMTAP	47	312	3
NMTAP	47	336	1
NMTAP	48	0	0
NMTAP	48	0	7
NMTAP	48	48	0
NMTAP	48	96	0
NMTAP	48	96	1
NMTAP	48	144	1
NMTAP	48	192	1
NMTAP	48	192	2
NMTAP	48	240	2
NMTAP	48	288	2
NMTAP	48	288	3
NMTAP	48	336	3
NMTAP	49	0	3
NMTAP	49	0	4
NMTAP	49	48	4
NMTAP	49	96	4
NMTAP	49	96	5
NMTAP	49	144	5
NMTAP	49	192	5
NMTAP	49	192	6
NMTAP	49	240	6
NMTAP	49	288	6
NMTAP	49	288	7
NMTAP	49	336	7
NMTAP	50	0	0
NMTAP	50	0	7
NMTAP	50	48	1
NMTAP	50	72	1
EXTAP	50	96	0
EXTAP	50	96	2
NMTAP	50	144	6
NMTAP	50	168	6
EXTAP	50	192	5
EXTAP	50	192	7
NMTAP	50	240	3
NMTAP	50	264	4
NMTAP	50	288	2
NMTAP	50	312	5
NMTAP	50	336	1
NMTAP	50	360	6
BRSTR	51	0	0
NMSI_	51	0	0	96	48	2
BRSTR	51	0	7
NMSI_	51	0	7	96	48	5
BRSTR	51	96	0
NMSI_	51	96	0	96	48	4
BRSTR	51	96	7
NMSI_	51	96	7	96	48	3
BRTAP	51	192	0
BRTAP	51	192	7
NMTAP	51	288	1
NMTAP	51	288	6
NMTAP	52	0	2
NMTAP	52	0	3
NMTAP	52	48	4
NMTAP	52	96	2
NMTAP	52	96	3
NMTAP	52	144	1
NMTAP	52	192	0
NMTAP	52	192	6
NMTAP	52	288	5
NMTAP	52	312	5
NMTAP	52	336	0
NMTAP	52	360	0
NMTAP	53	0	6
NMTAP	53	0	7
NMTAP	53	48	5
NMTAP	53	96	6
NMTAP	53	96	7
NMTAP	53	144	0
NMTAP	53	192	1
NMTAP	53	192	3
NMTAP	53	288	3
NMTAP	53	288	4
NMTAP	53	312	3
NMTAP	53	312	4
NMTAP	53	336	3
NMTAP	53	336	4
NMTAP	53	360	3
NMTAP	53	360	4
NMTAP	54	0	3
NMTAP	54	0	4
NMTAP	54	48	2
NMTAP	54	96	0
NMTAP	54	96	1
NMTAP	54	144	7
NMTAP	54	192	4
NMTAP	54	192	6
NMTAP	54	288	5
NMTAP	54	312	5
NMTAP	54	336	3
NMTAP	54	360	3
NMTAP	55	0	4
NMTAP	55	0	5
NMTAP	55	48	6
NMSTR	55	96	4
NMSUL	55	96	4	96	96	1
NMTAP	55	96	5
NMTAP	55	144	3
NMTAP	56	0	2
NMTAP	56	24	3
NMTAP	56	48	2
NMTAP	56	96	1
NMTAP	56	96	4
NMTAP	56	144	6
NMTAP	56	168	6
NMSTR	56	192	4
NMSI_	56	192	4	96	48	1
NMSI_	56	192	4	96	48	7
NMTAP	56	216	5
NMTAP	56	240	3
NMTAP	57	0	5
NMTAP	57	24	4
NMTAP	57	48	5
NMTAP	57	96	3
NMTAP	57	96	6
NMTAP	57	144	2
NMTAP	57	168	2
NMSTR	57	192	3
NMSI_	57	192	3	96	48	6
NMSV_	57	192	3	96	48	0
NMTAP	57	216	2
NMTAP	57	240	4
NMTAP	58	0	1
NMHLD	58	0	7	48
NMTAP	58	16	2
NMTAP	58	32	3
NMTAP	58	48	4
NMHLD	58	96	0	48
NMTAP	58	96	6
NMTAP	58	112	5
NMTAP	58	128	4
NMTAP	58	144	3
NMTAP	58	192	1
NMTAP	58	192	7
NMTAP	58	204	2
NMTAP	58	216	3
NMTAP	58	228	4
NMTAP	58	240	5
NMTAP	58	252	6
NMTAP	58	264	7
NMTAP	58	276	0
NMTAP	58	288	1
NMTAP	58	300	2
NMTAP	58	312	3
NMTAP	58	324	4
NMTAP	58	336	5
NMTAP	58	348	6
NMTAP	58	360	7
NMTAP	58	372	0
NMTTP	59	0	0	C	1	M1
NMTAP	59	0	1
BRSTR	59	288	0
NMSI_	59	288	0	96	48	4
BRTAP	59	288	7
NMTAP	60	0	0
EXSTR	60	0	6
NMSI_	60	0	6	96	48	1
EXSTR	60	96	2
NMSI_	60	96	2	96	48	5
NMTAP	60	96	6
NMTAP	60	192	2
EXSTR	60	192	7
NMSI_	60	192	7	96	48	3
NMTAP	60	240	6
EXSTR	60	288	1
NMSI_	60	288	1	96	48	7
NMTAP	60	288	7
NMTAP	60	336	2
NMSTR	61	0	1
NMSI_	61	0	1	96	48	4
EXSTR	61	0	6
NMSI_	61	0	6	96	48	3
EXTAP	61	96	1
EXSTR	61	96	6
NMSI_	61	96	6	96	48	0
BRSTR	61	192	6
NMSI_	61	192	6	96	48	4
BRSTR	61	240	2
NMSV_	61	240	2	96	48	7
BRSTR	61	288	6
NMSV_	61	288	6	96	48	3
BRTAP	61	336	2
EXSTR	62	0	6
NMSCR	62	0	6	96	48	1
EXSTR	62	96	2
NMSCR	62	96	2	96	48	5
NMTAP	62	96	6
NMTAP	62	192	2
EXSTR	62	192	7
NMSI_	62	192	7	96	48	3
NMTAP	62	240	6
EXTAP	62	288	0
NMTAP	62	288	7
NMTAP	62	336	1
NMTAP	62	360	1
EXSTR	63	0	1
NMSI_	63	0	1	96	48	5
NMTAP	63	48	4
NMTAP	63	96	1
EXSTR	63	96	6
NMSI_	63	96	6	96	48	2
NMTAP	63	144	7
EXTAP	63	192	1
NMTAP	63	192	6
EXTAP	63	288	0
EXTAP	63	336	0
EXSTR	64	0	1
NMSI_	64	0	1	96	48	6
NMTAP	64	0	7
NMTAP	64	96	1
EXSTR	64	96	5
NMSI_	64	96	5	96	48	2
EXSTR	64	192	0
NMSI_	64	192	0	96	48	3
NMTAP	64	192	5
NMTAP	64	240	1
NMTAP	64	288	0
EXSTR	64	288	6
NMSI_	64	288	6	96	48	2
NMTAP	64	336	7
BRSTR	65	0	6
NMSCL	65	0	6	96	48	3
NMSTR	65	48	7
NMSCR	65	48	7	96	48	2
BRTAP	65	96	6
BRTAP	65	144	7
BRTAP	65	240	0
BRTAP	65	240	4
NMTAP	66	0	2
NMTAP	66	0	5
NMTAP	66	48	2
NMTAP	66	72	3
BRTAP	66	96	1
NMTAP	66	96	4
NMTAP	66	144	5
NMTAP	66	168	4
NMTAP	66	192	3
BRTAP	66	192	6
NMTAP	66	240	0
NMTAP	66	256	7
NMTAP	66	272	0
NMTAP	66	288	6
NMTAP	66	312	1
NMTAP	66	336	5
NMTAP	66	360	2
NMSTR	67	0	3
NMSI_	67	0	3	96	48	1
NMSTR	67	0	4
NMSI_	67	0	4	96	48	0
NMSTR	67	96	3
NMSI_	67	96	3	96	48	7
NMSTR	67	96	4
NMSI_	67	96	4	96	48	6
NMTAP	67	192	3
NMTAP	67	192	4
NMTAP	67	288	0
NMTAP	67	288	5
BRTAP	68	0	0
BRSTR	68	0	7
NMSI_	68	0	7	96	48	3
NMTAP	68	48	6
BRSTR	68	96	2
NMSI_	68	96	2	96	48	7
NMTAP	68	96	7
NMTAP	68	144	1
NMTAP	68	192	2
BRSTR	68	192	4
NMSCR	68	192	4	96	48	7
NMTAP	68	240	3
BRSTR	68	288	1
NMSI_	68	288	1	96	48	4
NMTAP	68	288	4
NMTAP	68	336	2
NMTAP	69	0	1
BRSTR	69	0	6
BRSI_	69	0	6	96	48	2
NMTAP	69	48	5
BRTAP	69	96	6
CNSI_	69	144	2	0	48	7
NMTAP	69	144	4
NMTAP	69	240	4
NMTAP	69	240	5
NMTAP	69	288	3
NMTAP	69	288	4
NMTAP	69	336	2
NMTAP	69	336	3
BRTAP	70	0	0
BRSTR	70	0	1
NMSI_	70	0	1	96	48	5
NMTAP	70	48	2
NMTAP	70	96	0
NMTAP	70	96	1
BRSTR	70	144	7
NMSCL	70	144	7	96	48	4
NMSCR	70	144	7	96	48	2
BRSTR	70	240	7
NMSI_	70	240	7	96	48	3
BRTAP	70	336	7
NMHLD	71	0	0	144
NMTTP	71	156	1	A	0	M1
NMTTP	71	156	7	A	0	M1
NMTTP	71	168	2	A	0	M1
NMTTP	71	168	6	A	0	M1
NMTTP	71	180	3	A	0	M1
NMTTP	71	180	5	A	0	M1
NMTTP	71	192	4	A	1	M1
NMTAP	71	288	2
NMTAP	71	312	3
NMTAP	71	336	2
NMTAP	71	360	3
BRSTR	72	0	1
NMSI_	72	0	1	96	48	4
NMTAP	72	0	4
BRTAP	72	48	0
NMTAP	72	96	1
BRSTR	72	96	5
NMSI_	72	96	5	96	48	0
BRTAP	72	144	6
NMTAP	72	192	1
NMTAP	72	192	5
BXTAP	72	240	2
NMTAP	72	288	1
NMTAP	72	288	7
NMTAP	72	300	2
NMTAP	72	312	3
NMTAP	72	324	4
NMTAP	72	336	5
NMTAP	72	348	6
NMTAP	72	360	7
NMTAP	72	372	0
BXSTR	73	0	1
BRSI_	73	0	1	96	48	5
BXSTR	73	48	7
BRSI_	73	48	7	96	48	3
BRTAP	73	96	1
BRTAP	73	144	7
BRTAP	73	240	2
BRTAP	73	240	6
NMTAP	73	336	0
NMTAP	73	336	1
BRTAP	74	0	0
BRSTR	74	0	1
NMSCR	74	0	1	96	48	4
NMTAP	74	48	2
NMTAP	74	48	7
NMTAP	74	96	0
BRSTR	74	96	1
NMSV_	74	96	1	96	48	4
NMTAP	74	112	7
NMTAP	74	128	6
BXSTR	74	144	5
NMSI_	74	144	5	96	48	0
NMTAP	74	192	1
BRTAP	74	240	5
NMTAP	74	288	2
NMTAP	74	336	1
NMTAP	74	360	0
BRTAP	75	0	1
BRTAP	75	48	2
BRTAP	75	48	3
BRTAP	75	96	4
BRTAP	75	96	5
BRTAP	75	144	6
BRTAP	75	144	7
BRTAP	75	192	1
NMTAP	75	204	2
EXTAP	75	216	3
NMTAP	75	228	4
BRTAP	75	240	7
NMTAP	75	252	6
EXTAP	75	264	5
NMTAP	75	276	4
BRSTR	75	288	0
BRSI_	75	288	0	96	48	4
NMTAP	75	300	1
EXTAP	75	312	2
NMTAP	75	324	3
BRTAP	75	336	6
NMTAP	75	348	5
EXTAP	75	360	4
NMTAP	75	372	3
BRTAP	76	0	0
NMTTP	76	24	0	C	1	M1

T_REC_TAP	487
T_REC_BRK	42
T_REC_XTP	15
T_REC_BXX	2
T_REC_HLD	9
T_REC_XHO	2
T_REC_BHO	1
T_REC_BXH	0
T_REC_STR	50
T_REC_BST	22
T_REC_XST	15
T_REC_XBS	4
T_REC_TTP	70
T_REC_THO	1
T_REC_SLD	91
T_REC_BSL	4
T_REC_ALL	815
T_NUM_TAP	637
T_NUM_BRK	75
T_NUM_HLD	12
T_NUM_SLD	91
T_NUM_ALL	815
T_JUDGE_TAP	707
T_JUDGE_HLD	58
T_JUDGE_SLD	95
T_JUDGE_ALL	860
TTM_EACHPAIRS	147
TTM_SCR_TAP	318500
TTM_SCR_BRK	195000
TTM_SCR_HLD	12000
TTM_SCR_SLD	136500
TTM_SCR_ALL	662000
TTM_SCR_S	634900
TTM_SCR_SS	654500
TTM_RAT_ACV	10114

