VERSION	0.00.00	1.04.00
FES_MODE	0
BPM_DEF	155.000	155.000	155.000	155.000
MET_DEF	4	4
RESOLUTION	384
CLK_DEF	384
COMPATIBLE_CODE	MA2

BPM	0	0	155.000
MET	0	0	4	4

NMHLD	2	0	1	144
NMHLD	2	0	5	192
NMHLD	3	0	2	72
NMHLD	3	72	4	72
NMTAP	3	144	3
NMTAP	3	192	3
NMTAP	3	288	3
NMTAP	3	288	5
NMHLD	4	0	2	192
NMHLD	4	0	6	144
NMHLD	5	0	5	72
NMHLD	5	72	3	72
NMTAP	5	144	4
NMTAP	5	192	4
NMTAP	5	288	2
NMTAP	5	288	4
NMHLD	6	0	1	144
NMHLD	6	0	5	192
NMHLD	7	0	2	72
NMHLD	7	72	3	72
NMTAP	7	144	4
NMTAP	7	192	4
NMTAP	7	288	3
NMTAP	7	288	5
NMTAP	8	0	2
NMHLD	8	0	6	144
NMTAP	8	144	4
NMTAP	8	192	4
NMTAP	8	288	3
NMTAP	8	288	5
NMTAP	9	0	2
NMTAP	9	0	4
NMTAP	9	96	3
NMTAP	9	96	6
NMTAP	9	192	1
NMTAP	9	192	4
BRTAP	9	288	3
BRTAP	9	288	7
NMHLD	10	0	3	288
NMTTP	10	96	1	E	0	M1
NMTTP	10	192	2	E	0	M1
NMTTP	10	288	3	E	0	M1
NMHLD	11	0	4	288
NMTTP	11	96	7	E	0	M1
NMTTP	11	192	6	E	0	M1
NMTTP	11	288	5	E	0	M1
NMHLD	12	0	2	288
NMTTP	12	96	3	E	0	M1
NMTTP	12	192	2	E	0	M1
NMTTP	12	288	1	E	0	M1
NMHLD	13	0	6	288
NMTTP	13	96	5	E	0	M1
NMTTP	13	192	6	E	0	M1
NMTTP	13	288	7	E	0	M1
NMTAP	14	0	1
NMTAP	14	48	1
NMTAP	14	96	0
NMTAP	14	192	6
NMTAP	14	240	6
NMTAP	14	288	7
NMTAP	15	0	2
NMTAP	15	48	2
NMTAP	15	96	0
NMTAP	15	192	5
NMTAP	15	240	5
NMTAP	15	288	7
NMTAP	16	0	0
NMTAP	16	48	0
NMTAP	16	96	6
NMTAP	16	144	6
NMTAP	16	192	1
NMTAP	16	240	1
NMSTR	16	288	7
NMSCL	16	288	7	96	192	4
NMSCR	16	288	7	96	192	2
BRTAP	17	288	2
BRTAP	17	288	4
NMHLD	18	0	2	48
NMHLD	18	0	3	48
NMHLD	18	96	2	48
NMHLD	18	96	3	48
NMTAP	18	192	1
NMTAP	18	240	1
NMTAP	18	288	0
NMHLD	19	0	4	48
NMHLD	19	0	5	48
NMHLD	19	96	4	48
NMHLD	19	96	5	48
NMTAP	19	192	6
NMTAP	19	240	6
NMTAP	19	288	7
NMHLD	20	0	0	48
NMHLD	20	0	1	48
NMHLD	20	96	0	48
NMHLD	20	96	1	48
NMTAP	20	192	2
NMTAP	20	240	2
NMTAP	20	288	3
NMHLD	21	0	6	48
NMHLD	21	0	7	48
NMHLD	21	96	6	48
NMHLD	21	96	7	48
NMTAP	21	192	5
NMTAP	21	240	5
NMTAP	21	288	4
NMHLD	22	0	1	48
NMHLD	22	0	3	48
NMHLD	22	96	1	48
NMHLD	22	96	3	48
NMTAP	22	192	0
NMTAP	22	240	0
NMTAP	22	288	6
NMHLD	23	0	4	48
NMHLD	23	0	6	48
NMHLD	23	96	4	48
NMHLD	23	96	6	48
NMTAP	23	192	7
NMTAP	23	240	7
NMTAP	23	288	1
NMTAP	24	0	2
NMHLD	24	48	2	48
NMTAP	24	96	0
NMHLD	24	144	0	48
NMTAP	24	192	7
NMHLD	24	240	7	48
NMSTR	24	288	5
NMSI_	24	288	5	96	64	1
CNSI_	25	64	1	0	64	7
CNSI_	25	128	7	0	64	3
NMTAP	25	288	2
NMTAP	25	288	4
NMSTR	26	0	2
NMSI_	26	0	2	96	48	0
NMTAP	26	0	3
NMSTR	26	192	2
NMSI_	26	192	2	96	48	7
NMTAP	26	192	3
NMSTR	27	0	2
NMSI_	27	0	2	96	48	0
NMTAP	27	0	3
NMTAP	27	192	2
NMTAP	27	192	3
NMTAP	27	288	0
NMTAP	27	288	7
NMTAP	28	0	4
NMSTR	28	0	5
NMSI_	28	0	5	96	48	7
NMTAP	28	192	4
NMSTR	28	192	5
NMSI_	28	192	5	96	48	0
NMTAP	29	0	4
NMSTR	29	0	5
NMSI_	29	0	5	96	48	7
NMTAP	29	192	4
NMTAP	29	192	5
NMTAP	29	288	0
NMTAP	29	288	7
NMTAP	30	0	0
NMSTR	30	0	1
NMSI_	30	0	1	96	48	5
NMSTR	30	192	6
NMSI_	30	192	6	96	48	2
NMTAP	30	192	7
NMTAP	31	0	1
NMSTR	31	0	3
NMSI_	31	0	3	96	48	7
NMSTR	31	192	4
NMSI_	31	192	4	96	48	0
NMTAP	31	192	6
NMTAP	32	0	1
NMTAP	32	64	1
NMTAP	32	96	3
NMTAP	32	160	3
NMTAP	32	192	4
NMTAP	32	256	4
NMTAP	32	288	6
NMTAP	32	352	6
NMTAP	33	0	2
NMTAP	33	64	2
NMTAP	33	96	0
NMTAP	33	160	0
NMTAP	33	192	7
NMTAP	33	288	0
NMTAP	33	288	6
NMTTP	34	0	0	C	1	M1
NMTTP	34	0	1	B	0	M1
NMTTP	34	0	1	A	0	M1
NMTTP	34	0	5	B	0	M1
NMTTP	34	0	5	A	0	M1
EXSTR	35	0	7
NMSSR	35	0	7	96	192	3
NMHLD	36	0	1	768
NMTAP	36	96	3
NMTAP	36	144	3
NMTAP	36	240	4
NMTAP	36	288	4
NMTTP	37	0	4	E	0	M1
NMTAP	37	96	3
NMTAP	37	144	3
NMTAP	37	240	4
NMTAP	37	288	4
NMHLD	38	0	6	672
NMTAP	38	96	4
NMTAP	38	144	4
NMTAP	38	240	3
NMTAP	38	288	3
NMTTP	39	0	4	E	0	M1
NMTAP	39	96	4
NMTAP	39	144	4
NMTAP	39	240	3
NMTAP	39	288	3
NMTAP	40	0	0
NMHLD	40	0	1	96
NMTAP	40	96	0
NMTAP	40	192	0
NMHLD	40	192	7	96
NMTAP	40	288	0
NMHLD	41	0	6	96
NMTAP	41	0	7
NMTAP	41	96	7
NMHLD	41	192	0	96
NMTAP	41	192	7
NMTAP	41	288	7
NMTAP	42	0	0
NMTAP	42	48	0
NMTAP	42	96	6
NMTAP	42	144	6
NMTAP	42	192	2
NMTAP	42	240	2
EXTAP	42	288	4
EXTAP	42	312	3
EXTAP	42	336	4
EXTAP	42	360	3
EXSTR	43	0	4
NMSXL	43	0	4	96	192	0
NMSXR	43	0	4	96	192	0
BRTAP	44	0	1
BRHLD	44	0	7	96
NMTAP	44	96	4
NMHLD	44	144	4	96
NMTAP	44	240	5
NMTAP	44	288	6
NMTAP	44	288	7
NMHLD	45	0	0	96
NMTAP	45	0	5
NMTAP	45	96	3
NMHLD	45	144	3	96
NMTAP	45	240	2
NMTAP	45	288	0
NMTAP	45	288	1
NMHLD	46	0	3	96
NMTAP	46	0	6
NMTAP	46	96	0
NMHLD	46	144	0	96
NMTAP	46	240	1
NMSTR	46	288	2
NMSUR	46	288	2	96	192	5
NMSTR	46	288	7
NMSUL	46	288	7	96	192	4
NMTAP	47	288	3
NMTAP	47	288	6
NMHLD	48	0	4	96
NMTAP	48	0	6
NMTAP	48	96	2
NMHLD	48	144	2	96
NMTAP	48	240	1
NMTAP	48	288	0
NMTAP	48	288	3
NMTAP	49	0	1
NMHLD	49	0	3	96
NMTAP	49	96	5
NMHLD	49	144	5	96
NMTAP	49	240	6
NMTAP	49	288	4
NMTAP	49	288	7
NMTAP	50	0	4
NMTAP	50	0	6
NMTAP	50	96	0
NMTAP	50	96	7
NMTAP	50	192	1
NMTAP	50	192	3
NMSTR	50	288	3
NMSXR	50	288	3	96	192	0
NMSTR	50	288	4
NMSXL	50	288	4	96	192	7
BRTAP	51	288	0
BRTAP	51	288	7
NMSTR	52	0	0
NMSCR	52	0	0	96	96	4
NMTAP	52	192	5
NMTAP	52	288	4
NMTAP	52	288	6
NMSTR	53	0	7
NMSLL	53	0	7	96	96	3
NMTAP	53	192	2
EXTAP	53	288	4
EXTAP	53	312	3
EXTAP	53	336	4
EXTAP	53	360	3
EXSTR	54	0	4
NMSCR	54	0	4	96	96	0
NMTAP	54	192	1
NMTAP	54	288	0
NMTAP	54	288	2
NMSTR	55	0	3
NMSLL	55	0	3	96	96	7
BRSTR	55	192	6
NMSI_	55	192	6	96	48	2
NMTAP	56	0	1
NMTAP	56	48	1
NMTAP	56	96	2
NMTAP	56	144	2
NMSTR	56	192	3
NMSI_	56	192	3	96	48	0
NMTAP	56	240	3
NMTAP	57	0	6
NMTAP	57	48	6
NMTAP	57	96	5
NMTAP	57	144	5
NMSTR	57	192	4
NMSI_	57	192	4	96	48	7
NMTAP	57	240	4
NMTAP	58	0	0
NMTAP	58	24	7
NMTAP	58	48	0
NMTAP	58	72	7
NMTAP	58	96	0
NMTAP	58	120	7
NMTAP	58	144	0
NMTAP	58	168	7
NMTAP	58	192	0
NMTAP	58	216	7
NMTAP	58	240	0
NMTAP	58	264	7
NMTAP	58	288	0
NMTTP	59	0	0	C	1	M1
NMTTP	59	0	1	B	0	M1
NMTTP	59	0	2	B	0	M1
NMTTP	59	0	2	E	0	M1
NMTTP	59	0	3	B	0	M1
NMTTP	59	0	3	E	0	M1
NMTTP	59	0	4	B	0	M1
NMTTP	59	0	4	E	0	M1
NMTTP	59	0	5	B	0	M1
NMTTP	59	0	5	E	0	M1
NMTTP	59	0	6	B	0	M1
NMTTP	59	0	6	E	0	M1
BRTAP	59	288	0
NMTAP	60	0	1
EXTAP	60	0	7
NMTAP	60	96	4
EXTAP	60	96	6
NMTAP	60	192	2
EXTAP	60	192	3
EXTAP	60	288	0
NMTAP	60	288	6
NMTAP	61	0	1
EXTAP	61	0	3
NMTAP	61	96	4
EXTAP	61	96	5
EXTAP	61	192	6
NMTAP	61	192	7
EXTAP	61	240	6
NMTAP	61	240	7
EXTAP	61	288	0
NMTAP	61	288	5
EXTAP	61	336	0
NMTAP	61	336	5
NMTAP	62	0	1
EXTAP	62	0	4
NMTAP	62	96	4
EXTAP	62	96	6
EXTAP	62	192	2
NMTAP	62	192	3
NMTAP	62	288	0
EXTAP	62	288	5
EXTAP	62	336	6
EXTAP	62	360	7
EXTAP	63	0	6
EXTAP	63	96	4
NMTAP	63	96	5
EXTAP	63	192	2
NMTAP	63	192	3
NMTAP	63	288	1
EXTAP	63	288	7
NMTAP	63	336	1
EXTAP	63	336	7
BRTAP	64	0	2
BXTAP	64	0	6
EXTAP	64	96	1
NMTAP	64	96	3
EXTAP	64	192	5
NMTAP	64	192	6
NMTAP	64	288	0
EXTAP	64	288	1
NMTAP	64	336	0
EXTAP	64	336	1
NMTAP	65	0	2
EXTAP	65	0	7
EXTAP	65	96	0
NMTAP	65	96	5
EXTAP	65	144	0
NMTAP	65	144	5
NMTAP	65	240	3
EXTAP	65	240	6
NMTAP	65	288	3
EXTAP	65	288	6
EXTAP	66	0	2
NMTAP	66	0	7
EXTAP	66	48	1
EXTAP	66	72	0
EXTAP	66	96	1
EXTAP	66	144	6
EXTAP	66	168	7
EXTAP	66	192	6
EXTAP	66	240	0
EXTAP	66	264	7
EXSTR	66	288	0
NMSI_	66	288	0	96	48	4
NMSTR	67	0	7
NMSI_	67	0	7	96	48	5
NMSTR	67	96	1
NMSI_	67	96	1	96	48	3
NMTAP	67	192	4
BRTAP	67	288	2
BRTAP	67	288	5
NMTAP	68	0	6
EXTAP	68	0	7
EXTAP	68	96	2
NMTAP	68	96	3
NMTAP	68	192	0
EXTAP	68	192	1
EXTAP	68	288	4
NMTAP	68	288	5
EXTAP	68	336	4
NMTAP	68	336	5
EXTAP	69	0	3
NMTAP	69	0	6
EXTAP	69	96	0
NMTAP	69	96	2
EXTAP	69	192	5
NMTAP	69	192	7
EXTAP	69	288	2
NMTAP	69	288	3
BXHLD	70	0	3	96
BRHLD	70	0	7	96
BRTAP	70	144	1
BXTAP	70	144	5
BXTAP	70	240	0
BRTAP	70	240	4
BRTAP	70	336	2
BXTAP	70	336	6
NMSTR	71	0	2
NMSCL	71	0	2	96	48	0
NMSTR	71	0	6
NMSCL	71	0	6	96	48	4
CNSI_	71	144	0	0	72	3
CNSI_	71	144	4	0	72	7
EXTAP	71	288	3
EXTAP	71	288	7
BRTAP	72	0	0
NMTAP	72	0	1
BRTAP	72	48	0
NMTAP	72	48	1
BRTAP	72	96	2
NMTAP	72	96	3
BRTAP	72	144	2
NMTAP	72	144	3
BRTAP	72	240	0
BRTAP	72	240	5
BRTAP	72	336	6
NMTAP	72	360	7
BRTAP	73	0	6
BRTAP	73	48	4
NMTAP	73	48	5
BRTAP	73	96	4
NMTAP	73	96	5
NMTAP	73	144	3
BRTAP	73	144	6
BRTAP	73	240	0
NMTAP	73	240	1
EXTAP	73	336	2
BXTAP	74	0	1
BRTAP	74	0	3
EXTAP	74	96	5
BRTAP	74	144	4
BXTAP	74	144	6
NMTAP	74	240	3
NMTAP	74	288	4
NMTAP	74	336	4
NMTAP	75	0	2
NMTAP	75	0	5
NMTAP	75	48	2
NMTAP	75	48	5
NMTAP	75	96	1
NMTAP	75	96	6
NMTAP	75	144	1
NMTAP	75	144	6
NMTAP	75	192	0
NMTAP	75	216	7
NMTAP	75	240	0
NMTAP	75	264	7
NMTAP	75	288	0
NMTAP	75	312	7
NMTAP	75	336	0
BRTAP	76	0	1
BRTAP	76	0	6

T_REC_TAP	252
T_REC_BRK	30
T_REC_XTP	60
T_REC_BXX	6
T_REC_HLD	59
T_REC_XHO	0
T_REC_BHO	2
T_REC_BXH	1
T_REC_STR	25
T_REC_BST	1
T_REC_XST	4
T_REC_XBS	0
T_REC_TTP	31
T_REC_THO	0
T_REC_SLD	32
T_REC_BSL	0
T_REC_ALL	503
T_NUM_TAP	372
T_NUM_BRK	40
T_NUM_HLD	59
T_NUM_SLD	32
T_NUM_ALL	503
T_JUDGE_TAP	409
T_JUDGE_HLD	149
T_JUDGE_SLD	32
T_JUDGE_ALL	590
TTM_EACHPAIRS	124
TTM_SCR_TAP	186000
TTM_SCR_BRK	104000
TTM_SCR_HLD	59000
TTM_SCR_SLD	48000
TTM_SCR_ALL	397000
TTM_SCR_S	381250
TTM_SCR_SS	393000
TTM_RAT_ACV	10101

