VERSION	0.00.00	1.05.00
FES_MODE	0
BPM_DEF	188.000	188.000	188.000	188.000
MET_DEF	4	4
RESOLUTION	384
CLK_DEF	672
COMPATIBLE_CODE	MA2

BPM	0	0	188.000
MET	0	0	4	7
MET	3	192	4	7
MET	17	192	8	7
MET	38	192	4	7
MET	52	192	8	7
MET	59	192	4	7
MET	66	192	4	4
MET	78	192	4	7
MET	85	192	4	4
MET	89	192	4	7
MET	94	288	4	4
MET	142	288	8	7
MET	155	336	4	4
MET	169	336	8	7
MET	170	288	4	4
MET	184	288	4	7
MET	186	192	8	7
SEF	0	0	5

NMTHO	3	96	0	96	C	0	M1
NMTTP	5	96	4	E	0	M1
NMTAP	7	0	4
NMTAP	7	48	2
NMSTR	7	96	5
NMSUR	7	96	5	96	192	2
NMSTR	7	144	1
NMSUR	7	144	1	96	192	6
NMTTP	8	48	0	C	0	M1
NMTAP	8	288	1
NMHLD	8	336	0	288
NMTTP	9	240	0	E	0	M1
NMHLD	10	0	4	96
NMHLD	10	0	6	144
NMHLD	10	192	2	192
NMTAP	10	192	4
EXSTR	11	0	3
NMSI_	11	0	3	96	48	6
EXTAP	11	72	2
EXHLD	11	144	0	336
CNSCL	11	144	6	0	48	5
CNSI_	11	192	5	0	48	1
CNSCR	11	240	1	0	48	2
CNSI_	11	288	2	0	192	7
NMTAP	12	192	2
NMHLD	12	192	6	96
NMTAP	12	288	4
NMHLD	12	336	3	48
NMTAP	13	0	4
NMHLD	13	48	5	48
NMTAP	13	192	3
NMTAP	13	192	4
NMHLD	14	0	2	96
NMTAP	14	0	4
NMHLD	14	96	6	144
NMHLD	14	192	4	96
NMHLD	14	336	3	144
NMTAP	14	336	5
NMHLD	15	48	4	144
NMHLD	15	144	2	96
NMHLD	15	288	1	96
NMHLD	15	288	3	48
NMHLD	16	168	6	0
NMHLD	16	224	5	0
NMHLD	16	288	4	0
NMHLD	16	336	3	0
NMHLD	17	0	2	0
NMHLD	17	48	1	0
NMTAP	17	144	3
NMTAP	17	144	4
BRSTR	17	192	1
NMSCR	17	192	1	96	576	0
BRSTR	17	192	6
NMSCL	17	192	6	96	576	7
CNSLR	19	96	0	0	96	4
CNSLL	19	96	7	0	96	3
CNSLL	19	192	3	0	384	7
CNSLR	19	192	4	0	384	0
NMHLD	21	0	1	144
NMTAP	21	0	6
NMTAP	21	144	3
NMTAP	21	240	2
NMTAP	21	240	4
NMTAP	21	336	3
NMHLD	21	336	5	144
NMTAP	22	96	4
NMTAP	22	192	3
NMTAP	22	192	4
NMTAP	22	288	2
NMHLD	22	288	3	144
NMTAP	23	48	1
NMTAP	23	144	4
NMTAP	23	144	6
NMTAP	23	240	2
NMTAP	23	240	5
NMTAP	23	288	2
NMSTR	23	288	5
NMSI_	23	288	5	96	48	0
NMSTR	24	0	1
NMSI_	24	0	1	96	48	4
NMTAP	24	96	7
NMTAP	24	192	5
NMTAP	24	240	4
NMTAP	24	288	3
NMTAP	24	336	2
NMTAP	25	0	4
NMTAP	25	48	3
NMTAP	25	96	2
NMTAP	25	144	1
NMTAP	25	192	2
NMTAP	25	240	3
NMTAP	25	288	4
NMTAP	25	336	2
NMTAP	26	0	3
NMTAP	26	48	4
NMHLD	26	96	5	48
NMTAP	26	144	3
NMTAP	26	192	4
NMHLD	26	240	6	48
NMTAP	26	288	4
NMTAP	26	336	3
NMTAP	27	0	5
NMHLD	27	48	1	48
NMTAP	27	96	3
NMTAP	27	144	4
NMHLD	27	192	2	48
NMTAP	27	240	4
NMSTR	27	288	5
NMSCR	27	288	5	96	192	3
NMTAP	27	336	3
NMHLD	28	0	4	288
NMTAP	28	288	5
NMTAP	28	336	4
NMTAP	28	336	6
NMTAP	29	48	1
NMTAP	29	48	3
NMTTP	29	96	2	E	0	M1
NMTTP	29	120	2	B	0	M1
NMTTP	29	144	3	B	0	M1
NMTTP	29	168	4	E	0	M1
NMTTP	29	192	7	E	0	M1
NMTTP	29	216	6	B	0	M1
NMTTP	29	240	5	B	0	M1
NMTTP	29	264	5	E	0	M1
NMTTP	29	288	1	E	0	M1
NMTTP	29	312	1	B	0	M1
NMTTP	29	336	2	B	0	M1
NMTTP	29	360	3	E	0	M1
NMTTP	30	0	6	E	0	M1
NMTTP	30	24	5	B	0	M1
NMTTP	30	48	4	B	0	M1
NMTTP	30	72	4	E	0	M1
NMTTP	30	96	1	E	0	M1
NMTTP	30	120	2	E	0	M1
NMTTP	30	144	3	E	0	M1
NMTTP	30	168	4	E	0	M1
NMTTP	30	192	7	E	0	M1
NMTTP	30	216	6	E	0	M1
NMTTP	30	240	5	E	0	M1
NMTTP	30	264	4	E	0	M1
NMTAP	30	288	0
NMTAP	30	312	7
NMTAP	30	336	0
NMTAP	30	360	7
NMTAP	31	0	1
NMTAP	31	24	2
NMTAP	31	48	3
NMTAP	31	72	4
NMTAP	31	96	5
NMTAP	31	120	6
NMTAP	31	144	7
NMTAP	31	168	0
NMHLD	31	192	1	72
NMHLD	31	192	5	72
NMTAP	31	336	2
NMTAP	31	336	4
NMTAP	32	48	1
NMTAP	32	96	3
NMTAP	32	144	2
NMTAP	32	144	3
NMTAP	32	288	3
NMTAP	32	336	4
NMTAP	33	0	5
NMTAP	33	48	3
NMHLD	33	96	2	72
NMHLD	33	96	6	72
NMTAP	33	240	3
NMTAP	33	240	5
NMTAP	33	288	3
NMTAP	33	336	6
NMTAP	34	0	4
NMTAP	34	48	4
NMTAP	34	48	5
NMTAP	34	192	4
NMTAP	34	240	2
NMTAP	34	288	3
NMTAP	34	336	4
NMSTR	35	0	5
NMSUL	35	0	5	96	240	3
NMTAP	35	48	2
NMTAP	35	96	2
NMTAP	36	144	2
NMTAP	36	144	4
NMTAP	36	192	3
NMTAP	36	240	2
NMSTR	36	288	1
NMSUL	36	288	1	96	240	7
NMTAP	36	336	6
NMTAP	37	0	6
NMTTP	37	240	5	D	0	M1
NMTTP	37	312	4	E	0	M1
NMTTP	38	0	3	D	0	M1
NMTTP	38	48	7	E	0	M1
NMTTP	38	96	1	E	0	M1
NMTAP	38	192	4
NMTAP	38	192	5
NMTAP	38	288	4
NMTAP	38	336	3
NMTAP	39	0	4
NMTAP	39	48	2
NMTAP	39	96	4
NMSTR	39	144	1
NMSI_	39	144	1	96	48	7
NMTAP	39	192	4
NMTAP	39	288	4
NMTAP	39	336	5
NMTAP	40	0	6
NMTAP	40	48	3
NMTAP	40	96	2
NMTAP	40	96	4
NMTAP	40	192	2
NMTAP	40	240	3
NMTAP	40	288	2
NMTAP	40	336	4
NMTAP	41	0	2
NMSTR	41	48	5
NMSI_	41	48	5	96	48	3
NMTAP	41	96	2
NMTAP	41	192	2
NMTAP	41	240	4
NMTAP	41	288	3
NMTAP	41	288	5
NMHLD	41	336	6	96
NMTAP	42	48	4
NMHLD	42	96	4	288
NMTTP	42	192	5	A	0	M1
NMTTP	42	204	5	D	0	M1
NMTTP	42	216	4	D	0	M1
NMTTP	42	228	3	A	0	M1
NMTTP	42	240	3	D	0	M1
NMTTP	42	252	2	A	0	M1
NMTTP	42	264	2	D	0	M1
NMTTP	42	276	1	A	0	M1
NMTTP	42	288	1	D	0	M1
NMTTP	42	300	0	A	0	M1
NMTTP	42	312	0	D	0	M1
NMTTP	42	324	7	A	0	M1
NMTTP	42	336	7	D	0	M1
NMTTP	42	348	6	A	0	M1
NMTTP	42	360	6	D	0	M1
NMTTP	42	372	5	A	0	M1
NMTTP	43	0	5	D	0	M1
NMTAP	43	96	1
NMTAP	43	96	3
NMTAP	43	144	2
NMTAP	43	192	4
NMTAP	43	192	6
NMTAP	43	240	5
NMTAP	43	288	1
NMHLD	43	288	3	144
NMTAP	44	48	4
NMTAP	44	96	3
NMTAP	44	144	2
NMSTR	44	144	4
NMSCR	44	144	4	96	120	2
NMHLD	44	240	7	96
NMTAP	45	0	7
NMTAP	45	48	0
EXTAP	45	96	1
EXTAP	45	96	5
NMTAP	45	192	2
NMTAP	45	192	3
NMTAP	45	288	3
NMTAP	45	336	4
NMTAP	46	0	3
NMTAP	46	48	5
NMTAP	46	96	3
NMSTR	46	144	6
NMSI_	46	144	6	96	48	3
NMTAP	46	192	3
NMTAP	46	288	0
NMTAP	46	336	1
NMTAP	47	0	2
NMTAP	47	48	4
NMTAP	47	96	3
NMTAP	47	96	5
NMTAP	47	192	5
NMTAP	47	240	4
NMTAP	47	288	5
NMTAP	47	336	3
NMTAP	48	0	5
NMSTR	48	48	2
NMSI_	48	48	2	96	48	7
NMTAP	48	96	5
NMTAP	48	192	5
NMTAP	48	240	4
EXTAP	48	288	0
EXTAP	48	288	3
NMTAP	48	336	1
NMTAP	49	0	2
NMTAP	49	48	3
NMTAP	49	96	4
NMHLD	49	96	7	96
NMHLD	49	192	5	96
NMHLD	49	288	3	96
NMTAP	50	0	1
NMTAP	50	48	3
NMTAP	50	96	4
NMTAP	50	144	6
NMTAP	50	192	0
NMTAP	50	240	7
NMSTR	50	288	1
NMSUR	50	288	1	96	192	4
NMTAP	50	336	5
NMTAP	51	0	5
NMTAP	51	240	5
NMTAP	51	240	6
NMTAP	51	288	4
NMTAP	51	288	5
NMTAP	51	336	3
NMTAP	51	336	4
NMTAP	52	0	2
NMTAP	52	0	3
NMTAP	52	48	1
NMTAP	52	48	2
EXTAP	52	96	0
EXTAP	52	96	7
NMHLD	52	192	1	72
NMHLD	52	264	3	72
NMTAP	52	336	2
NMTAP	53	0	3
NMTAP	53	48	1
NMTAP	53	48	3
NMHLD	53	144	6	72
NMHLD	53	216	4	72
NMTAP	53	288	5
NMTAP	53	336	4
NMTAP	54	0	4
NMTAP	54	0	6
NMHLD	54	96	1	72
NMHLD	54	168	2	72
NMTAP	54	240	3
NMTAP	54	288	3
NMTAP	54	288	4
NMTAP	54	336	4
NMTAP	54	336	5
NMHLD	55	48	6	72
NMHLD	55	120	5	72
NMTAP	55	192	4
NMTAP	55	240	3
NMTAP	55	240	4
NMTAP	55	288	2
NMTAP	55	288	3
NMTAP	55	336	1
NMSTR	56	0	0
NMSI_	56	0	0	96	96	5
NMTAP	56	48	7
NMHLD	56	96	6	288
CNSI_	56	192	5	0	96	2
CNSI_	56	288	2	0	96	7
NMTAP	57	96	6
NMTAP	57	144	5
NMSTR	57	192	4
NMSI_	57	192	4	96	96	1
NMTAP	57	240	3
NMHLD	57	288	2	192
CNSI_	58	0	1	0	96	6
CNSI_	58	96	6	0	96	3
NMTAP	58	192	0
NMTAP	58	240	0
NMTAP	58	288	6
NMTAP	58	312	4
NMTAP	58	336	5
NMTAP	59	0	2
NMTAP	59	24	3
NMTAP	59	48	2
NMTAP	59	72	3
NMTAP	59	96	0
NMHLD	59	192	1	132
NMHLD	59	192	7	132
EXTAP	60	48	2
EXTAP	60	48	6
NMSTR	60	144	3
NMSUR	60	144	3	96	672	4
NMTAP	60	144	5
NMTAP	60	288	4
NMSTR	61	96	7
NMSCR	61	96	7	96	96	2
NMSTR	61	336	0
NMSCL	61	336	0	96	96	5
NMTAP	62	240	2
EXTAP	62	288	1
EXTAP	62	288	3
NMTAP	63	0	4
NMSTR	63	0	6
NMSI_	63	0	6	96	48	2
NMSTR	63	144	1
NMSI_	63	144	1	96	48	7
NMSTR	63	240	5
NMSI_	63	240	5	96	48	3
NMSTR	63	336	1
NMSI_	63	336	1	96	48	5
NMTAP	64	48	7
NMHLD	64	96	7	192
NMSTR	64	288	3
NMSCR	64	288	3	96	96	6
NMSTR	65	0	6
NMSCR	65	0	6	96	96	1
NMSTR	65	96	1
NMSCR	65	96	1	96	64	3
NMTAP	65	192	5
NMTAP	65	240	5
NMTAP	65	288	4
NMTAP	66	0	1
NMTAP	66	48	1
NMTAP	66	96	3
NMTAP	66	144	2
NMHLD	66	192	3	192
NMTTP	67	0	2	E	0	M1
NMTAP	67	192	5
NMTAP	67	240	5
NMHLD	67	288	4	96
NMTTP	68	0	6	E	0	M1
NMTAP	68	96	3
NMTAP	68	96	4
NMTAP	68	144	3
NMTAP	68	144	4
NMSTR	68	288	0
NMSCR	68	288	0	96	48	3
NMSTR	68	288	7
NMSCL	68	288	7	96	48	4
NMTTP	69	96	0	B	0	M1
NMTTP	69	96	0	C	1	M1
NMTTP	69	96	0	E	0	M1
NMTTP	69	96	4	B	0	M1
NMTTP	69	96	4	E	0	M1
NMTAP	69	336	1
NMTAP	69	336	5
NMTAP	70	0	6
NMTAP	70	48	7
NMTAP	70	96	0
NMTAP	70	144	1
NMTAP	70	192	2
NMSTR	70	192	6
NMSCR	70	192	6	96	48	1
NMSTR	70	336	2
NMSI_	70	336	2	96	48	6
NMSTR	71	96	5
NMSCL	71	96	5	96	48	2
NMHLD	71	240	0	144
NMSTR	72	0	7
NMSF_	72	0	7	96	48	3
NMTTP	72	96	0	C	1	M1
NMSTR	72	288	1
NMSI_	72	288	1	96	48	4
NMTAP	72	288	5
NMTAP	73	0	1
NMSTR	73	0	7
NMSI_	73	0	7	96	48	3
NMSTR	73	96	0
NMSI_	73	96	0	96	48	4
NMTAP	73	96	7
NMTAP	73	192	0
NMSTR	73	192	6
NMSI_	73	192	6	96	48	3
NMTAP	73	288	2
NMTAP	73	288	6
NMTAP	74	0	0
NMTAP	74	48	0
NMTAP	74	96	1
NMTAP	74	96	7
NMTAP	74	192	2
NMTAP	74	192	6
NMTAP	74	240	5
NMTAP	74	288	4
NMTAP	74	336	1
NMTAP	74	336	3
NMTAP	75	0	2
NMTAP	75	48	3
NMTAP	75	96	4
NMTAP	75	96	6
NMTAP	75	144	5
NMTAP	75	192	4
NMTAP	75	240	0
NMTAP	75	240	3
NMTAP	75	288	1
NMTAP	75	336	2
NMTAP	76	0	3
NMTAP	76	0	4
NMTAP	76	48	5
NMTAP	76	96	6
NMSTR	76	96	7
NMSI_	76	96	7	96	48	3
NMTAP	76	144	0
NMHLD	76	192	1	96
NMTAP	76	288	4
NMTAP	76	336	3
NMTAP	77	0	2
NMSTR	77	48	0
NMSI_	77	48	0	96	48	4
NMTAP	77	48	1
NMTAP	77	96	7
NMHLD	77	144	6	2256
NMTTP	77	145	0	C	1	M1
NMTTP	78	128	0	A	0	M1
NMTTP	78	144	1	D	0	M1
NMTTP	78	160	1	A	0	M1
NMTTP	78	176	2	D	0	M1
EXHLD	78	192	2	960
NMTTP	82	0	2	E	0	M1
NMTTP	82	96	3	B	0	M1
NMTTP	82	192	5	E	0	M1
NMTTP	82	240	0	C	0	M1
NMTTP	82	288	1	E	0	M1
NMHLD	83	96	1	672
NMTAP	83	192	3
NMTAP	83	240	4
NMHLD	83	288	5	576
NMSTR	85	192	0
NMSCL	85	192	0	96	96	6
NMSCR	85	192	0	96	96	2
CNSV_	86	0	2	0	96	4
CNSV_	86	0	6	0	96	4
CNSCR	86	96	4	0	96	5
CNSCR	86	96	4	0	96	5
NMTAP	86	288	6
NMTAP	86	336	5
NMTAP	87	0	4
NMTAP	87	48	3
NMSTR	87	96	2
NMSCR	87	96	2	96	96	5
NMTAP	87	144	2
NMSTR	87	288	6
NMSUL	87	288	6	96	96	1
NMTAP	87	336	6
NMSTR	88	96	0
NMSUL	88	96	0	96	144	7
NMTAP	88	144	0
NMTAP	88	336	6
NMTAP	89	0	5
NMTAP	89	48	4
NMTAP	89	96	3
NMTAP	89	144	2
NMTAP	89	192	1
NMTAP	89	192	3
NMTAP	89	240	1
NMTAP	89	240	3
NMTAP	89	336	4
NMTAP	89	336	6
NMTAP	90	0	4
NMTAP	90	0	6
NMTAP	90	96	0
NMTAP	90	96	4
NMTAP	90	144	1
NMTAP	90	144	3
NMTAP	90	240	3
NMTAP	90	240	7
NMSTR	90	288	4
NMSI_	90	288	4	96	48	0
NMTAP	90	288	6
NMTAP	91	96	6
NMTAP	91	96	7
NMTAP	91	144	0
NMTAP	91	144	5
NMTAP	91	240	0
NMTAP	91	240	1
NMTAP	91	288	2
NMTAP	91	288	7
NMTAP	92	0	4
NMTAP	92	0	5
NMTAP	92	48	3
NMTAP	92	48	7
NMTAP	92	144	2
NMTAP	92	144	3
NMTAP	92	192	0
NMTAP	92	192	4
NMTAP	92	240	7
NMTAP	92	288	5
NMTAP	92	336	3
NMTAP	93	0	1
NMSTR	93	48	1
NMSI_	93	48	1	96	48	4
NMTAP	93	144	7
NMSTR	93	192	7
NMSI_	93	192	7	96	48	2
NMTAP	93	288	5
NMSTR	93	336	5
NMSI_	93	336	5	96	48	0
NMTAP	94	48	3
NMSTR	94	96	3
NMSI_	94	96	3	96	48	0
NMSI_	94	96	3	96	48	6
NMTAP	94	288	7
NMSTR	94	336	7
NMSI_	94	336	7	96	48	3
NMTAP	95	48	0
NMSTR	95	96	0
NMSI_	95	96	0	96	48	4
CNSI_	95	96	3	0	48	1
NMTAP	95	192	7
CNSI_	95	240	4	0	48	6
NMSTR	95	240	7
NMSI_	95	240	7	96	48	3
NMTAP	95	336	0
NMTAP	96	0	0
BRTAP	96	96	1
NMTTP	96	96	3	E	0	M1
NMTTP	96	160	5	E	0	M1
BRTAP	96	160	6
BRTAP	96	224	0
BRTAP	96	224	7
NMTTP	97	96	0	C	1	M1
NMTTP	97	96	1	B	0	M1
NMTTP	97	96	2	E	0	M1
NMTTP	97	96	5	B	0	M1
NMTTP	97	96	6	E	0	M1
NMTHO	98	96	2	768	E	0	M1
NMTHO	98	288	3	576	E	0	M1
NMTHO	99	96	5	384	E	0	M1
NMTHO	99	288	6	192	E	0	M1
NMTTP	100	96	0	C	1	M1
NMTTP	100	96	3	B	0	M1
NMTTP	100	96	4	B	0	M1
BXSTR	100	192	0
NMSCR	100	192	0	96	168	7
BXTAP	100	192	7
BXTAP	101	144	0
NMTTP	101	144	6	B	0	M1
NMTTP	101	144	7	B	0	M1
NMTTP	101	144	7	E	1	M1
EXTAP	101	156	1
EXSTR	101	168	2
NMSI_	101	168	2	96	48	7
BXTAP	101	288	6
EXTAP	101	300	5
EXSTR	101	312	4
NMSI_	101	312	4	96	48	0
BXTAP	102	48	1
EXTAP	102	60	2
EXSTR	102	72	3
NMSCL	102	72	3	96	216	5
NMHLD	102	192	4	192
NMSTR	103	96	2
NMSCL	103	96	2	96	192	4
NMTAP	103	144	4
NMHLD	103	192	3	192
NMSTR	104	96	1
NMSCL	104	96	1	96	156	3
NMTAP	104	144	3
NMSTR	104	192	5
NMSCL	104	192	5	96	156	0
NMTTP	105	144	0	B	0	M1
NMTTP	105	144	1	B	0	M1
NMTTP	105	144	1	E	1	M1
BXTAP	105	144	7
EXTAP	105	156	6
EXSTR	105	168	5
NMSI_	105	168	5	96	48	0
BXTAP	105	288	1
EXTAP	105	300	2
EXSTR	105	312	3
NMSI_	105	312	3	96	48	7
BXTAP	106	48	6
EXTAP	106	60	5
EXSTR	106	72	4
NMSCR	106	72	4	96	216	2
NMHLD	106	192	3	192
NMSTR	107	96	5
NMSCR	107	96	5	96	192	3
NMTAP	107	144	3
NMHLD	107	192	4	192
NMSTR	108	96	6
NMSCR	108	96	6	96	156	4
NMTAP	108	144	4
NMSTR	108	192	2
NMSCR	108	192	2	96	192	0
BXTAP	109	192	1
NMTAP	109	204	2
NMTAP	109	216	3
NMHLD	109	228	4	252
BXTAP	109	336	7
NMTAP	109	348	0
NMTAP	109	360	1
NMSTR	109	372	2
NMSI_	109	372	2	96	60	7
BXTAP	110	192	6
NMTAP	110	204	5
NMTAP	110	216	4
NMHLD	110	228	3	252
BXTAP	110	336	0
NMTAP	110	348	7
NMTAP	110	360	6
NMSTR	110	372	5
NMSI_	110	372	5	96	60	0
NMTAP	111	144	4
NMTAP	111	192	5
EXTAP	111	240	0
BXTAP	111	240	6
NMTAP	111	252	1
NMTAP	111	264	2
NMTAP	111	276	3
BXTAP	112	0	1
EXTAP	112	0	7
NMTAP	112	12	6
NMTAP	112	24	5
NMHLD	112	36	4	60
NMTAP	112	192	0
NMTAP	112	192	1
NMTAP	112	240	2
NMTAP	112	240	7
NMTAP	112	336	6
NMTAP	112	336	7
NMTAP	113	0	0
NMSTR	113	0	5
NMSCL	113	0	5	96	48	2
NMTAP	113	96	1
NMSTR	113	144	1
NMSI_	113	144	1	96	48	5
NMHLD	113	240	7	528
NMTAP	114	96	3
NMTAP	114	192	3
NMTAP	114	288	3
NMTAP	115	0	3
NMTAP	115	96	3
NMTAP	115	96	7
NMTAP	115	144	6
NMTAP	115	192	3
NMHLD	115	192	5	96
NMTAP	115	288	4
NMTAP	116	0	3
NMTAP	116	0	4
NMTAP	116	96	2
NMTAP	116	96	3
NMTAP	116	144	1
NMHLD	116	192	0	96
NMTAP	116	192	3
NMTAP	116	288	3
NMTAP	117	0	1
NMTAP	117	0	3
NMTAP	117	96	2
NMTAP	117	96	4
NMTAP	117	144	3
NMHLD	117	192	4	480
NMTAP	117	192	5
NMTAP	117	288	5
NMTAP	118	0	5
NMTAP	118	96	5
NMTAP	118	192	5
NMTAP	118	288	5
NMTAP	119	0	5
NMTAP	119	96	3
NMTAP	119	96	4
NMTAP	119	144	2
NMHLD	119	192	1	96
NMTAP	119	192	3
NMTAP	119	288	3
NMTAP	120	0	3
NMTAP	120	0	4
NMTAP	120	96	4
NMTAP	120	96	5
NMTAP	120	144	6
NMTAP	120	192	4
NMHLD	120	192	7	96
NMTAP	120	288	4
NMTAP	121	0	4
NMTAP	121	0	6
NMTAP	121	96	3
NMTAP	121	96	5
NMTAP	121	144	4
NMSTR	121	192	2
NMSXR	121	192	2	96	384	7
NMHLD	121	192	3	192
NMTAP	122	96	4
NMTAP	122	192	5
NMTAP	122	288	6
NMTAP	123	0	7
NMTAP	123	96	0
NMHLD	123	192	1	96
NMHLD	123	288	5	96
NMTTP	124	0	3	D	0	M1
NMTTP	124	16	2	A	0	M1
NMTTP	124	32	2	D	0	M1
NMTTP	124	48	1	A	0	M1
NMTTP	124	64	1	D	0	M1
NMTTP	124	80	0	A	0	M1
NMTTP	124	96	0	D	0	M1
NMTTP	124	112	7	A	0	M1
NMTTP	124	128	7	D	0	M1
NMTTP	124	144	6	A	0	M1
NMTTP	124	160	6	D	0	M1
NMTTP	124	176	5	A	0	M1
NMTTP	124	192	5	D	0	M1
NMTAP	124	288	2
NMTAP	125	0	3
NMTAP	125	96	5
NMTAP	125	144	5
NMTAP	125	192	3
NMTAP	125	240	2
NMHLD	125	240	4	96
NMTAP	125	336	1
NMSTR	126	0	1
NMSUR	126	0	1	96	72	6
NMTAP	126	192	7
NMHLD	126	240	7	96
EXTAP	126	336	0
NMTAP	127	0	6
NMTAP	127	24	4
NMTAP	127	48	5
EXTAP	127	96	3
EXTAP	127	96	4
NMTAP	127	144	2
NMTAP	127	168	3
NMTAP	127	192	1
NMHLD	127	240	0	912
EXSTR	127	240	4
NMSCR	127	240	4	96	336	3
CNSCL	128	288	3	0	288	5
NMHLD	129	240	4	432
NMTAP	130	96	1
NMHLD	130	192	2	192
NMHLD	131	0	3	96
NMSTR	131	96	4
NMSUL	131	96	4	96	288	3
NMHLD	131	192	5	288
NMSTR	132	192	2
NMSI_	132	192	2	96	48	7
NMTAP	132	240	1
NMHLD	132	288	0	192
NMTAP	133	96	7
NMSTR	133	144	6
NMSI_	133	144	6	96	48	3
NMTAP	133	192	1
NMHLD	133	240	2	96
NMTAP	133	336	4
NMTAP	134	0	1
NMTAP	134	0	5
NMTAP	134	240	2
NMHLD	134	240	6	96
NMHLD	134	336	4	96
NMHLD	135	48	3	96
NMTAP	135	144	1
NMTAP	135	192	1
NMTAP	135	192	5
NMTTP	135	288	3	B	0	M1
NMTAP	135	288	7
NMTTP	136	0	2	E	0	M1
NMTAP	136	0	6
NMTTP	136	96	3	B	0	M1
NMTAP	136	96	5
NMTTP	136	192	2	E	0	M1
NMTAP	136	192	4
NMTAP	136	288	0
NMTTP	136	288	6	E	0	M1
NMTAP	137	0	1
NMTTP	137	0	4	B	0	M1
NMTAP	137	96	2
NMTTP	137	96	6	E	0	M1
NMTAP	137	192	3
NMTTP	137	192	4	B	0	M1
NMTTP	137	288	0	E	0	M1
NMTAP	137	288	5
NMTAP	138	0	1
NMTTP	138	0	4	E	0	M1
BRSTR	138	96	2
NMSV_	138	96	2	96	48	7
BRSTR	138	96	6
NMSI_	138	96	6	96	48	3
BRTAP	138	192	2
BRTAP	138	192	6
NMTTP	138	193	0	C	1	M1
NMHLD	139	0	1	96
NMSTR	139	0	5
NMSXL	139	0	5	96	144	4
NMTAP	139	192	3
NMTAP	139	240	3
NMSTR	139	336	2
NMSXL	139	336	2	96	144	3
NMSLL	139	336	2	96	144	3
NMTAP	140	0	2
NMTAP	140	288	5
NMTAP	141	0	3
NMTAP	141	0	7
NMSTR	141	96	1
NMSXL	141	96	1	96	48	2
NMSTR	141	96	5
NMSXL	141	96	5	96	48	6
CNSCL	141	240	2	0	48	1
CNSCL	141	240	6	0	48	5
NMTAP	142	0	0
NMTAP	142	0	4
NMSTR	142	96	2
NMSXR	142	96	2	96	48	1
NMSTR	142	96	6
NMSXR	142	96	6	96	48	5
CNSCR	142	240	1	0	48	2
CNSCR	142	240	5	0	48	6
NMTTP	143	0	2	E	0	M1
NMTTP	143	0	6	E	0	M1
BRTAP	143	96	3
BXTAP	143	96	4
BXSTR	143	144	3
NMSCL	143	144	3	96	2496	4
BRTAP	143	144	4
NMTTP	143	240	0	C	1	M1
NMTAP	150	240	2
NMHLD	150	240	3	144
NMHLD	151	0	4	144
NMTAP	151	144	5
NMHLD	151	240	4	144
NMTAP	151	240	6
NMHLD	152	0	3	144
NMSTR	152	144	1
NMSI_	152	144	1	96	48	7
NMSTR	152	288	5
NMSI_	152	288	5	96	48	3
NMSTR	153	48	1
NMSI_	153	48	1	96	48	5
NMSTR	153	144	7
NMSCL	153	144	7	96	48	4
NMSTR	153	288	3
NMSCL	153	288	3	96	48	0
NMSTR	154	48	6
NMSI_	154	48	6	96	48	2
NMSTR	154	192	1
NMSI_	154	192	1	96	48	5
NMTAP	154	288	7
NMTAP	154	336	7
EXTAP	155	0	4
NMTAP	155	0	6
NMTAP	155	48	5
NMTAP	155	96	4
NMTAP	155	144	1
EXTAP	155	144	3
NMTAP	155	192	2
NMTAP	155	240	3
NMTAP	155	288	4
EXTAP	155	336	1
NMTAP	155	336	5
NMTAP	156	0	0
NMTAP	156	48	7
NMTAP	156	96	2
EXTAP	156	96	6
NMTAP	156	144	5
NMTAP	156	192	4
NMTAP	156	240	3
NMTAP	156	288	2
EXSTR	156	336	1
NMSI_	156	336	1	96	48	4
EXSTR	156	336	5
NMSI_	156	336	5	96	48	0
NMTAP	157	144	3
NMSTR	157	144	7
BRSF_	157	144	7	96	48	3
NMTTP	157	240	0	C	1	M1
BRTAP	157	336	1
BRTAP	157	336	5
BRTAP	158	0	1
BRTAP	158	0	5
NMSTR	158	96	6
NMSI_	158	96	6	96	48	2
NMTAP	158	144	7
NMTAP	158	192	6
NMSTR	158	240	1
NMSI_	158	240	1	96	48	5
NMTAP	158	288	0
NMTAP	158	336	1
NMTAP	159	0	7
NMSTR	159	48	4
NMSI_	159	48	4	96	48	0
NMSTR	159	48	6
NMSI_	159	48	6	96	48	4
NMTAP	159	144	4
NMTAP	159	144	6
EXTAP	159	240	1
EXTAP	159	240	3
NMSTR	159	336	7
NMSCR	159	336	7	96	48	2
NMTAP	160	0	6
EXTAP	160	48	7
NMTAP	160	96	5
NMSTR	160	144	4
NMSCR	160	144	4	96	48	7
NMTAP	160	192	3
EXTAP	160	240	4
NMTAP	160	288	2
NMSTR	160	336	1
NMSCR	160	336	1	96	48	4
NMTAP	161	0	0
EXTAP	161	48	1
NMTAP	161	96	7
NMSTR	161	144	2
NMSI_	161	144	2	96	48	7
NMSTR	161	144	6
NMSI_	161	144	6	96	48	3
BRTAP	161	240	2
BRTAP	161	240	6
NMTAP	162	0	0
NMTAP	162	0	1
NMTAP	162	48	5
NMTAP	162	96	1
NMTAP	162	144	4
NMTAP	162	144	5
NMTAP	162	192	1
NMTAP	162	240	5
NMTAP	162	288	0
NMTAP	162	288	1
NMTAP	162	336	5
NMTAP	163	0	1
NMHLD	163	48	4	96
NMTAP	163	48	5
NMSTR	163	144	6
NMSCL	163	144	6	96	144	0
NMTAP	163	192	2
NMHLD	163	240	2	192
NMTAP	164	48	7
NMTAP	164	96	7
NMSTR	164	144	4
NMSI_	164	144	4	96	48	0
NMTAP	164	192	5
BRTAP	164	240	4
NMTAP	164	336	1
NMSTR	164	336	7
NMSF_	164	336	7	96	48	3
BRTAP	165	48	7
NMSTR	165	144	1
NMSCR	165	144	1	96	132	7
NMTAP	165	192	5
BRHLD	165	240	5	144
NMTAP	166	0	0
NMTAP	166	12	1
NMTAP	166	24	2
NMTAP	166	36	3
NMTAP	166	48	4
NMTTP	166	48	6	B	0	M1
NMTTP	166	48	7	B	0	M1
NMTTP	166	48	7	E	1	M1
NMSTR	166	144	1
NMSI_	166	144	1	96	48	5
NMTAP	166	240	0
NMTAP	166	240	1
NMSTR	166	336	6
NMSI_	166	336	6	96	48	2
NMTAP	167	48	6
NMTAP	167	48	7
NMSTR	167	144	0
NMSCR	167	144	0	96	48	3
NMTAP	167	240	0
NMTAP	167	240	3
NMSTR	167	336	7
NMSCL	167	336	7	96	48	4
NMTAP	168	48	4
NMTAP	168	48	7
NMTAP	168	144	0
NMTAP	168	144	1
NMSTR	168	192	2
NMSXR	168	192	2	96	96	3
NMSTR	168	192	6
NMSXR	168	192	6	96	96	7
NMTAP	168	288	2
NMTAP	168	288	6
NMTAP	169	48	0
NMTAP	169	48	4
NMHLD	169	144	2	96
NMTAP	169	144	6
NMTAP	169	240	3
NMTAP	169	288	1
NMTAP	169	288	3
NMTAP	170	0	4
NMTAP	170	0	5
NMHLD	170	48	4	240
NMTAP	170	48	6
NMTTP	170	144	5	A	0	M1
NMTTP	170	156	5	D	0	M1
NMTTP	170	168	4	D	0	M1
NMTTP	170	180	3	A	0	M1
NMTTP	170	192	3	D	0	M1
NMTTP	170	204	2	A	0	M1
NMTTP	170	216	2	D	0	M1
NMTTP	170	228	1	A	0	M1
NMTTP	170	240	1	D	0	M1
NMTTP	170	252	0	A	0	M1
NMTTP	170	264	0	D	0	M1
NMTTP	170	276	7	A	0	M1
NMTTP	170	288	6	B	1	M1
NMTTP	170	288	6	A	0	M1
NMTTP	170	288	7	E	0	M1
NMSTR	171	48	1
NMSI_	171	48	1	96	48	5
NMTAP	171	96	0
NMTAP	171	144	1
NMSTR	171	192	6
NMSI_	171	192	6	96	48	2
NMTAP	171	240	7
NMTAP	171	288	6
NMTAP	171	336	0
NMSTR	172	0	1
NMSI_	172	0	1	96	48	3
NMSTR	172	0	3
NMSI_	172	0	3	96	48	7
NMTAP	172	96	1
NMTAP	172	96	3
EXTAP	172	192	4
EXTAP	172	192	6
NMSTR	172	288	0
NMSCR	172	288	0	96	48	3
NMSTR	172	288	7
NMSCL	172	288	7	96	48	4
NMTTP	173	0	0	A	0	M1
NMTTP	173	0	0	D	1	M1
NMTTP	173	0	7	A	0	M1
NMSTR	173	96	0
NMSCL	173	96	0	96	48	5
NMSTR	173	96	1
NMSCR	173	96	1	96	48	4
NMTTP	173	192	0	A	0	M1
NMTTP	173	192	1	A	0	M1
NMTTP	173	192	1	D	1	M1
NMSTR	173	288	6
NMSCL	173	288	6	96	48	3
NMSTR	173	288	7
NMSCR	173	288	7	96	48	2
NMTTP	174	0	6	A	0	M1
NMTTP	174	0	7	A	0	M1
NMTTP	174	0	7	D	1	M1
NMSTR	174	96	1
NMSI_	174	96	1	96	48	4
NMSTR	174	96	5
NMSI_	174	96	5	96	48	0
BRTAP	174	192	1
BRTAP	174	192	5
NMTAP	174	336	6
NMTAP	174	336	7
NMTAP	175	0	2
NMTAP	175	48	6
NMTAP	175	96	2
NMTAP	175	96	3
NMTAP	175	144	6
NMTAP	175	192	2
NMTAP	175	240	6
NMTAP	175	240	7
NMTAP	175	288	2
NMTAP	175	336	6
NMTAP	176	0	2
NMHLD	176	0	3	96
NMSTR	176	96	1
NMSCR	176	96	1	96	144	7
NMTAP	176	144	5
NMHLD	176	192	5	192
NMTAP	177	0	0
NMTAP	177	48	0
NMSTR	177	96	3
NMSI_	177	96	3	96	48	7
NMTAP	177	144	2
BXTAP	177	192	3
NMSTR	177	288	0
NMSF_	177	288	0	96	48	4
NMTAP	177	288	6
BXTAP	178	0	0
NMSTR	178	96	6
NMSCL	178	96	6	96	132	0
NMTAP	178	144	2
BXHLD	178	192	2	144
NMTAP	178	336	7
NMTAP	178	348	6
NMTAP	178	360	5
NMTAP	178	372	4
NMTTP	179	0	0	B	0	M1
NMTTP	179	0	1	B	0	M1
NMTTP	179	0	1	E	1	M1
NMTAP	179	0	3
NMSTR	179	96	6
NMSI_	179	96	6	96	48	2
NMSTR	179	192	7
NMSI_	179	192	7	96	48	3
NMSTR	179	288	0
NMSI_	179	288	0	96	48	4
NMSTR	180	0	1
NMSI_	180	0	1	96	48	5
NMSTR	180	96	7
NMSCL	180	96	7	96	144	0
NMTAP	180	144	7
NMTAP	180	192	0
NMTAP	181	0	6
NMTAP	181	0	7
NMSTR	181	96	1
NMSI_	181	96	1	96	48	4
NMSTR	181	144	3
NMSI_	181	144	3	96	48	7
EXTAP	181	192	1
EXTAP	181	240	3
EXTAP	181	336	2
NMTAP	181	336	6
NMTAP	182	0	2
EXTAP	182	0	6
NMTAP	182	96	1
EXTAP	182	96	5
EXSTR	182	144	1
NMSI_	182	144	1	96	48	4
NMSTR	182	144	5
NMSI_	182	144	5	96	48	0
BRTAP	182	240	1
BRTAP	182	240	5
NMTAP	182	336	2
NMTAP	182	336	6
NMSTR	183	0	2
NMSCR	183	0	2	96	48	5
NMTAP	183	0	6
NMTAP	183	96	7
NMTAP	183	144	7
NMSTR	183	192	4
NMSI_	183	192	4	96	48	0
NMTAP	183	240	4
NMSTR	183	288	6
NMSCR	183	288	6	96	48	1
NMTAP	183	336	6
NMSTR	184	0	2
NMSCR	184	0	2	96	48	5
NMTAP	184	48	2
NMTAP	184	96	0
NMTAP	184	144	0
NMTAP	184	192	1
NMTAP	184	192	7
BRTAP	184	240	2
BRTAP	184	240	6
NMTAP	184	336	3
NMTAP	184	336	4
NMTAP	185	0	5
NMTAP	185	24	4
NMTAP	185	48	5
NMTAP	185	96	3
NMTAP	185	96	6
NMTAP	185	144	2
NMTAP	185	168	3
NMTAP	185	192	2
NMTAP	185	240	1
NMTAP	185	240	4
NMTAP	185	288	6
NMTAP	185	312	7
NMTAP	185	336	6
NMTAP	186	0	0
NMTAP	186	0	5
NMTAP	186	48	1
NMTAP	186	72	0
NMTAP	186	96	1
NMTAP	186	144	2
NMSTR	186	144	7
NMSCR	186	144	7	96	480	0
NMSTR	186	192	3
NMSCR	186	192	3	96	432	4
CNSI_	187	336	0	0	384	3
CNSI_	187	336	4	0	384	7
NMTTP	189	48	1	E	0	M1
NMTTP	189	96	2	E	0	M1
NMTTP	189	144	3	E	0	M1
NMTTP	189	192	5	E	0	M1
NMTTP	189	240	6	E	0	M1
NMTTP	189	288	7	E	0	M1
NMTHO	189	336	0	528	C	0	M1
NMSTR	189	336	1
NMSI_	189	336	1	528	48	5

T_REC_TAP	600
T_REC_BRK	22
T_REC_XTP	38
T_REC_BXX	16
T_REC_HLD	99
T_REC_XHO	2
T_REC_BHO	1
T_REC_BXH	1
T_REC_STR	128
T_REC_BST	4
T_REC_XST	11
T_REC_XBS	2
T_REC_TTP	147
T_REC_THO	6
T_REC_SLD	147
T_REC_BSL	1
T_REC_ALL	1225
T_NUM_TAP	924
T_NUM_BRK	47
T_NUM_HLD	107
T_NUM_SLD	147
T_NUM_ALL	1225
T_JUDGE_TAP	968
T_JUDGE_HLD	451
T_JUDGE_SLD	148
T_JUDGE_ALL	1567
TTM_EACHPAIRS	188
TTM_SCR_TAP	462000
TTM_SCR_BRK	122200
TTM_SCR_HLD	107000
TTM_SCR_SLD	220500
TTM_SCR_ALL	911700
TTM_SCR_S	879800
TTM_SCR_SS	907000
TTM_RAT_ACV	10051

