VERSION	0.00.00	1.05.00
FES_MODE	0
BPM_DEF	188.000	188.000	188.000	188.000
MET_DEF	4	4
RESOLUTION	384
CLK_DEF	672
COMPATIBLE_CODE	MA2

BPM	0	0	188.000
MET	0	0	4	7
MET	3	192	4	7
MET	17	192	8	7
MET	38	192	4	7
MET	52	192	8	7
MET	59	192	4	7
MET	66	192	4	4
MET	78	192	4	7
MET	85	192	4	4
MET	89	192	4	7
MET	94	288	4	4
MET	142	288	8	7
MET	155	336	4	4
MET	169	336	8	7
MET	170	288	4	4
MET	184	288	4	7
MET	186	192	8	7
SEF	0	0	5

EXHLD	3	192	0	576
EXHLD	5	96	6	576
EXSTR	7	0	1
NMSI_	7	0	1	96	288	6
BXSTR	7	0	5
BRSI_	7	0	5	96	288	2
NMTAP	8	288	7
NMSTR	8	336	7
NMSCL	8	336	7	96	192	4
EXHLD	9	240	2	144
EXSTR	11	0	0
NMSCL	11	0	0	96	288	5
EXSTR	11	0	1
NMSCR	11	0	1	96	288	4
NMTAP	12	192	5
NMTAP	12	288	4
NMTAP	13	0	3
NMTAP	13	48	3
NMHLD	13	96	2	96
NMTAP	13	336	2
NMTAP	14	0	2
NMTAP	14	48	4
NMTAP	14	96	3
NMTAP	14	192	5
NMTAP	14	240	5
NMHLD	14	288	3	96
NMTAP	15	48	4
NMTAP	15	96	4
NMTAP	15	144	2
NMTAP	15	192	2
NMTAP	15	240	6
NMTAP	15	288	6
NMTAP	15	336	4
NMHLD	16	0	4	48
EXTAP	16	192	0
EXTAP	16	240	0
EXTAP	16	336	1
EXTAP	16	336	7
NMSTR	17	48	2
NMSCL	17	48	2	96	384	4
EXTAP	17	48	6
NMTTP	17	192	0	C	1	M1
NMTAP	19	96	2
NMTAP	19	144	3
NMTAP	19	192	1
NMTAP	19	288	0
NMTAP	19	336	0
NMTAP	20	48	5
NMTAP	20	96	4
NMTAP	20	144	6
NMTAP	20	240	7
NMTAP	20	288	7
NMTAP	21	0	2
NMTAP	21	48	3
NMTAP	21	96	1
NMTAP	21	192	0
NMTAP	21	240	0
NMTAP	21	336	6
NMTAP	22	0	4
NMTAP	22	48	5
NMTAP	22	144	7
NMTAP	22	192	7
NMTAP	22	288	1
NMTAP	22	336	1
NMTAP	23	0	3
NMTAP	23	48	2
NMTAP	23	96	4
BRTAP	23	192	4
BRTAP	23	192	5
BRTAP	23	288	6
BRTAP	23	288	7
BRTAP	24	0	0
BRTAP	24	0	1
BRTAP	24	96	2
BRTAP	24	96	3
BRTAP	24	192	1
BRTAP	24	192	4
NMHLD	24	288	2	96
NMTAP	25	0	0
NMTAP	25	48	0
NMTAP	25	144	4
NMTAP	25	144	6
NMHLD	25	240	5	96
NMTAP	25	336	7
NMTAP	26	0	7
NMTAP	26	96	1
NMTAP	26	96	3
NMHLD	26	192	2	96
NMTAP	26	288	0
NMTAP	26	336	0
NMTAP	27	48	4
NMTAP	27	48	6
NMHLD	27	144	5	96
NMTAP	27	240	7
NMTAP	27	288	7
NMTAP	28	0	0
NMTAP	28	0	2
NMHLD	28	96	1	96
NMTAP	28	192	3
NMTAP	28	240	3
NMTAP	28	336	5
NMTAP	28	336	7
NMHLD	29	48	6	96
NMTAP	29	144	4
NMTAP	29	192	4
NMTAP	29	288	0
NMTAP	29	288	2
NMHLD	30	0	1	96
NMTAP	30	96	3
NMTAP	30	144	3
NMTAP	30	240	4
NMTAP	30	240	6
NMTAP	30	288	4
NMTAP	30	288	6
BRTAP	31	0	3
BRTAP	31	0	5
BRTAP	31	96	2
BRTAP	31	96	4
NMTAP	31	192	1
NMSTR	31	288	1
NMSCR	31	288	1	96	288	5
NMTTP	32	0	4	E	0	M1
NMTAP	32	288	7
NMTAP	33	0	7
NMTAP	33	96	1
NMSTR	33	192	1
NMSCR	33	192	1	96	288	5
NMTTP	33	288	4	E	0	M1
NMTAP	34	192	7
NMTAP	34	288	7
NMTAP	35	0	6
NMSTR	35	96	6
NMSCL	35	96	6	96	288	2
NMTTP	35	192	4	E	0	M1
NMTAP	36	96	0
NMTAP	36	192	0
NMTAP	36	288	6
NMSTR	37	0	6
NMSCL	37	0	6	96	288	2
NMTTP	37	96	4	E	0	M1
NMTAP	38	192	1
NMSTR	38	288	1
NMSCR	38	288	1	96	288	5
NMTTP	39	0	4	E	0	M1
NMTTP	39	96	3	E	0	M1
NMTTP	39	192	2	E	0	M1
NMTTP	39	288	1	E	0	M1
NMTTP	40	0	0	D	0	M1
NMTAP	40	96	1
NMSTR	40	192	1
NMSCR	40	192	1	96	288	5
NMTTP	40	288	4	E	0	M1
NMTTP	41	0	3	E	0	M1
NMTTP	41	96	2	E	0	M1
NMTTP	41	192	1	E	0	M1
NMTTP	41	288	0	D	0	M1
NMTAP	42	0	6
NMSTR	42	96	6
NMSCL	42	96	6	96	288	2
NMTTP	42	192	4	E	0	M1
NMTTP	42	288	5	E	0	M1
NMTTP	43	0	6	E	0	M1
NMTTP	43	96	7	E	0	M1
NMTTP	43	192	0	D	0	M1
NMTAP	43	288	6
NMSTR	44	0	6
NMSCL	44	0	6	96	288	2
NMTTP	44	96	4	E	0	M1
NMTTP	44	192	5	E	0	M1
NMTTP	44	288	6	E	0	M1
NMTTP	45	0	7	E	0	M1
NMTTP	45	96	0	D	0	M1
NMTAP	45	192	5
NMHLD	45	288	6	288
NMTAP	46	0	4
NMTAP	46	96	4
NMTAP	46	192	4
NMTAP	46	288	3
NMTAP	46	336	3
NMTAP	47	0	4
NMTAP	47	48	4
NMTAP	47	96	2
NMHLD	47	192	1	288
NMTAP	47	288	3
NMTAP	48	0	3
NMTAP	48	96	3
NMTAP	48	192	4
NMTAP	48	240	4
NMTAP	48	288	3
NMTAP	48	336	3
NMTAP	49	0	5
NMHLD	49	96	6	288
NMTAP	49	192	4
NMTAP	49	288	4
NMTAP	50	0	4
NMTAP	50	96	3
NMTAP	50	144	3
NMTAP	50	192	4
NMTAP	50	240	4
NMTAP	50	288	2
NMHLD	51	0	1	288
NMTAP	51	96	3
NMTAP	51	192	3
NMTAP	51	288	3
NMTAP	52	0	4
EXTAP	52	96	3
EXTAP	52	96	5
NMHLD	52	192	6	72
NMHLD	52	264	4	72
NMTAP	52	336	5
NMTAP	53	0	5
NMTAP	53	96	1
NMHLD	53	144	1	72
NMHLD	53	216	3	72
NMTAP	53	288	2
NMTAP	53	336	2
NMTAP	54	48	6
NMHLD	54	96	6	72
NMHLD	54	168	5	72
NMTAP	54	240	4
NMTAP	54	288	4
NMTAP	55	0	1
NMHLD	55	48	1	72
NMHLD	55	120	2	72
NMTAP	55	192	3
NMSTR	55	240	3
NMSCL	55	240	3	96	528	4
NMTHO	57	288	0	336	C	0	M1
NMTAP	59	96	0
NMTAP	59	96	1
NMSTR	59	192	0
NMSUR	59	192	0	96	72	5
NMSTR	59	192	1
NMSCR	59	192	1	96	72	4
NMTAP	60	48	6
NMTAP	60	48	7
BRSTR	60	144	6
NMSI_	60	144	6	96	72	2
BRSTR	60	144	7
NMSI_	60	144	7	96	72	3
NMTAP	61	96	1
NMTAP	61	144	1
NMTAP	61	192	3
NMTAP	61	288	6
NMTAP	61	336	6
NMSTR	62	0	4
NMSCL	62	0	4	96	72	1
NMSCR	62	0	4	96	72	7
NMTAP	62	288	0
NMTAP	62	288	1
BRSTR	63	0	0
NMSCL	63	0	0	96	72	5
BRSTR	63	0	1
NMSCR	63	0	1	96	72	4
NMTAP	63	240	6
NMTAP	63	240	7
NMSTR	63	336	6
NMSCL	63	336	6	96	288	0
NMSTR	63	336	7
NMSUL	63	336	7	96	288	0
NMSTR	65	192	1
NMSI_	65	192	1	96	72	3
NMSTR	66	0	7
NMSI_	66	0	7	96	72	5
NMSTR	66	192	0
NMSI_	66	192	0	96	96	4
NMTAP	67	48	6
NMTAP	67	96	6
NMTAP	67	192	3
NMTAP	67	192	5
NMSTR	67	240	3
NMSV_	67	240	3	96	144	1
NMSTR	67	240	5
NMSV_	67	240	5	96	144	7
NMSTR	68	288	1
NMSI_	68	288	1	96	72	5
NMSTR	69	96	6
NMSI_	69	96	6	96	72	2
NMTAP	69	336	1
NMTAP	70	0	1
NMTAP	70	96	7
NMHLD	70	192	2	96
NMHLD	70	192	6	96
NMHLD	70	336	1	96
NMHLD	70	336	5	96
NMHLD	71	96	0	96
NMHLD	71	96	4	96
NMHLD	71	240	3	96
NMHLD	71	240	7	96
NMSTR	72	0	2
NMSLR	72	0	2	96	192	6
NMSTR	72	0	6
NMSLR	72	0	6	96	192	2
NMHLD	73	96	1	96
NMHLD	73	96	5	96
NMTAP	73	288	1
NMTAP	73	288	5
NMTAP	74	0	0
NMTAP	74	0	6
NMTAP	74	48	0
NMTAP	74	48	6
BRTAP	74	96	0
BRTAP	74	96	6
NMTAP	74	192	1
NMTAP	74	240	1
NMTAP	74	288	0
NMTAP	74	336	2
NMTAP	75	0	5
NMTAP	75	48	3
NMTAP	75	96	6
NMTAP	75	144	6
NMTAP	75	192	7
NMTAP	75	240	5
NMTAP	75	288	2
NMTAP	75	336	4
NMTAP	76	0	0
NMTAP	76	48	0
NMTAP	76	96	3
NMTAP	76	144	3
NMTAP	76	192	2
NMTAP	76	240	2
NMTAP	76	288	7
NMTAP	76	336	7
NMTAP	77	0	4
NMTAP	77	48	4
NMTAP	77	96	6
BRTAP	77	144	6
NMSTR	78	96	1
NMSCL	78	96	1	96	576	3
CNSUL	80	0	3	0	384	0
NMTAP	81	192	0
NMTAP	81	192	7
NMSTR	81	288	6
NMSXR	81	288	6	96	480	2
CNSCR	83	96	2	0	480	7
NMTAP	85	0	1
NMTAP	85	0	5
NMSTR	85	96	0
NMSXR	85	96	0	96	288	0
NMHLD	85	192	6	576
CNSCR	86	96	0	0	288	3
NMHLD	87	192	4	576
NMSTR	87	192	5
NMSXR	87	192	5	96	480	7
EXTAP	89	96	0
NMTAP	89	192	4
NMTAP	89	192	7
NMTAP	89	240	4
NMTAP	89	240	7
NMTAP	89	336	3
NMTAP	89	336	6
NMTAP	90	0	3
NMTAP	90	0	6
NMTAP	90	96	2
NMTAP	90	96	5
NMSTR	90	144	2
NMSI_	90	144	2	96	72	0
NMSTR	90	144	5
NMSI_	90	144	5	96	72	3
NMTAP	91	96	0
NMTAP	91	96	3
NMTAP	91	144	0
NMTAP	91	144	3
NMTAP	91	240	1
NMTAP	91	240	4
NMTAP	91	288	1
NMTAP	91	288	4
NMTAP	92	0	2
NMTAP	92	0	5
NMSTR	92	48	2
NMSI_	92	48	2	96	72	4
NMSTR	92	48	5
NMSI_	92	48	5	96	72	7
NMTAP	93	0	4
NMTAP	93	0	6
NMTAP	93	48	4
NMTAP	93	48	6
NMTAP	93	144	3
NMTAP	93	144	4
NMTAP	93	192	3
NMTAP	93	192	4
NMTAP	93	288	1
NMTAP	93	288	3
NMSTR	93	336	1
NMSCL	93	336	1	96	96	6
NMTAP	93	336	3
NMTAP	94	288	5
NMTAP	94	288	6
NMTAP	94	336	5
NMTAP	94	336	6
NMTAP	95	48	0
NMTAP	95	48	7
NMTAP	95	96	0
NMTAP	95	96	7
NMTAP	95	192	1
NMTAP	95	192	2
NMTAP	95	240	1
NMTAP	95	240	2
NMTAP	95	336	0
NMTAP	95	336	7
NMTAP	96	0	0
NMTAP	96	0	7
BXTAP	96	96	1
BXTAP	96	96	6
BXTAP	96	168	3
BXTAP	96	168	4
BXTAP	96	240	2
BXTAP	96	240	5
NMTTP	97	96	0	B	0	M1
NMTTP	97	96	0	C	1	M1
NMTTP	97	96	1	B	0	M1
NMTTP	97	96	2	B	0	M1
NMTTP	97	96	3	B	0	M1
NMTTP	97	96	4	B	0	M1
NMTTP	97	96	5	B	0	M1
NMTTP	97	96	6	B	0	M1
NMTTP	97	96	7	B	0	M1
NMTAP	100	96	6
NMTAP	100	96	7
NMSTR	100	192	4
BRSI_	100	192	4	96	72	1
NMSTR	100	192	5
BRSI_	100	192	5	96	72	0
NMTTP	101	144	1	B	1	M1
NMTTP	101	144	2	E	0	M1
NMTTP	101	288	0	E	0	M1
NMTTP	101	288	7	B	1	M1
NMTTP	102	48	5	B	1	M1
NMTTP	102	48	6	E	0	M1
NMTAP	102	192	7
NMTAP	102	288	0
NMTAP	102	288	6
NMTAP	103	0	1
NMTAP	103	0	5
NMTAP	103	96	2
NMTAP	103	144	2
NMTAP	103	192	4
NMTAP	103	288	6
NMTAP	104	0	4
NMTAP	104	0	5
NMTAP	104	96	1
NMSTR	104	192	2
BRSI_	104	192	2	96	72	7
NMSTR	104	192	3
BRSI_	104	192	3	96	72	6
NMTTP	105	144	5	B	0	M1
NMTTP	105	144	6	B	0	M1
NMTTP	105	144	6	E	1	M1
NMTTP	105	288	0	B	0	M1
NMTTP	105	288	0	E	1	M1
NMTTP	105	288	7	B	0	M1
NMTTP	106	48	1	B	0	M1
NMTTP	106	48	2	B	0	M1
NMTTP	106	48	2	E	1	M1
NMTAP	106	192	0
NMTAP	106	288	1
NMTAP	106	288	7
NMTAP	107	0	2
NMTAP	107	0	6
NMTAP	107	96	5
NMTAP	107	144	5
NMTAP	107	192	3
NMTAP	107	288	1
NMTAP	108	0	2
NMTAP	108	0	3
NMTAP	108	96	4
NMTAP	108	96	5
NMSTR	108	192	6
BRSCL	108	192	6	96	72	3
NMSTR	108	192	7
BRSUL	108	192	7	96	72	2
NMTTP	109	192	2	B	0	M1
NMTTP	109	192	2	E	0	M1
NMTTP	109	192	2	A	1	M1
NMTTP	109	192	3	E	0	M1
NMTTP	109	336	6	B	0	M1
NMTTP	109	336	6	E	0	M1
NMTTP	109	336	6	A	1	M1
NMTTP	109	336	7	E	0	M1
NMTTP	110	192	5	B	0	M1
NMTTP	110	192	5	E	0	M1
NMTTP	110	192	5	A	1	M1
NMTTP	110	192	6	E	0	M1
NMTTP	110	336	1	B	0	M1
NMTTP	110	336	1	E	0	M1
NMTTP	110	336	1	A	1	M1
NMTTP	110	336	2	E	0	M1
NMTTP	111	240	4	B	0	M1
NMTTP	111	240	5	B	0	M1
NMTTP	111	240	5	E	0	M1
NMTTP	111	240	5	A	1	M1
NMTTP	111	240	5	D	0	M1
NMTTP	111	240	6	B	0	M1
NMTTP	111	240	6	E	0	M1
NMTTP	111	240	6	D	0	M1
NMTTP	112	0	1	B	0	M1
NMTTP	112	0	2	B	0	M1
NMTTP	112	0	2	E	0	M1
NMTTP	112	0	2	A	1	M1
NMTTP	112	0	2	D	0	M1
NMTTP	112	0	3	B	0	M1
NMTTP	112	0	3	E	0	M1
NMTTP	112	0	3	D	0	M1
EXTAP	112	96	0
EXTAP	112	96	7
NMTAP	112	192	4
NMTAP	112	192	6
NMTAP	112	240	4
NMTAP	112	240	6
NMTAP	112	336	1
NMTAP	112	336	3
NMTAP	113	0	1
NMTAP	113	0	3
NMTAP	113	96	2
NMTAP	113	96	4
NMSTR	113	144	2
NMSCL	113	144	2	96	144	0
NMTAP	113	144	4
CNSUL	114	0	0	0	192	7
CNSCL	114	192	7	0	96	5
NMTAP	115	96	5
NMTAP	115	144	4
NMHLD	115	192	6	96
NMTAP	115	288	4
NMTAP	116	0	3
NMTAP	116	0	4
NMTAP	116	96	2
NMTAP	116	144	3
NMHLD	116	192	1	96
NMTAP	116	288	3
NMTAP	117	0	2
NMTAP	117	0	3
NMSTR	117	96	1
NMSLR	117	96	1	96	144	5
NMHLD	117	96	4	576
NMTAP	118	96	5
NMTAP	118	192	6
NMTAP	118	288	7
NMTAP	119	0	0
NMTAP	119	96	1
NMTAP	119	144	3
NMHLD	119	192	2	96
NMTAP	119	288	0
NMTAP	120	0	7
NMTAP	120	96	6
NMTAP	120	144	4
NMHLD	120	192	5	96
NMTAP	120	288	7
NMTAP	121	0	7
NMHLD	121	96	0	576
NMSTR	121	96	6
NMSLR	121	96	6	96	144	2
NMTAP	122	96	2
NMTAP	122	192	1
NMTAP	122	288	7
NMTAP	123	0	6
NMTAP	123	96	5
NMTAP	123	192	4
NMTAP	123	288	3
NMTAP	124	0	2
NMTAP	124	96	1
NMHLD	124	144	1	96
NMHLD	124	240	2	96
NMTAP	124	336	3
NMTAP	125	0	3
NMTAP	125	96	5
NMHLD	125	144	5	96
NMTAP	125	240	4
NMTAP	125	336	0
NMTAP	125	336	7
NMTAP	126	0	0
NMTAP	126	0	7
NMTAP	126	96	3
NMTAP	126	96	6
NMTAP	126	192	4
NMTAP	126	192	5
NMSTR	126	240	4
NMSI_	126	240	4	96	96	0
NMSTR	126	240	5
NMSI_	126	240	5	96	96	0
NMTAP	127	192	1
NMTAP	127	192	3
NMSTR	127	240	1
NMSCL	127	240	1	96	240	6
NMHLD	127	240	3	768
CNSLR	128	192	6	0	432	2
NMTAP	130	96	2
NMTAP	130	96	3
NMTAP	130	192	0
NMTAP	130	192	1
NMTAP	130	288	6
NMTAP	130	288	7
NMTAP	131	0	4
NMTAP	131	0	5
NMSTR	131	96	3
NMSCR	131	96	3	96	240	0
NMTAP	132	192	2
NMHLD	132	288	1	96
NMHLD	132	288	3	96
NMTAP	133	96	5
NMTAP	133	192	4
NMTAP	133	192	6
NMTAP	133	240	4
NMTAP	133	240	6
NMTAP	133	336	1
NMTAP	133	336	3
NMTAP	134	0	1
NMTAP	134	0	3
NMTAP	134	96	3
NMTAP	134	96	4
NMTAP	134	192	6
NMTAP	134	240	6
NMTAP	134	288	4
NMTAP	134	336	5
NMTAP	135	0	0
NMTAP	135	48	7
NMTAP	135	96	1
NMTAP	135	144	3
BRTAP	135	192	2
NMSTR	135	288	1
NMSI_	135	288	1	96	72	4
NMSTR	136	96	6
NMSI_	136	96	6	96	72	3
NMTAP	136	288	1
NMTAP	136	336	1
NMTAP	137	0	3
NMTAP	137	48	2
NMTAP	137	96	6
NMTAP	137	144	6
NMTAP	137	192	4
NMTAP	137	240	4
NMSTR	137	288	5
NMSI_	137	288	5	96	72	0
EXSTR	138	96	2
NMSI_	138	96	2	96	72	7
NMTAP	138	288	5
NMTAP	138	336	5
NMTAP	139	0	0
NMTAP	139	48	7
NMTAP	139	96	1
NMTAP	139	144	1
NMTAP	139	192	3
NMTAP	139	240	2
NMTAP	139	288	4
NMTAP	139	336	4
NMTAP	140	0	3
NMTAP	140	0	5
NMTAP	140	96	2
NMTAP	140	96	6
NMTAP	140	192	1
NMTAP	140	192	7
NMSTR	140	288	1
NMSI_	140	288	1	96	48	3
NMSTR	140	288	7
NMSI_	140	288	7	96	48	3
NMSTR	141	96	0
NMSI_	141	96	0	96	48	4
NMSTR	141	96	6
NMSI_	141	96	6	96	48	4
NMSTR	141	288	6
NMSI_	141	288	6	96	48	3
NMSTR	141	288	7
NMSI_	141	288	7	96	48	3
NMSTR	142	96	0
NMSI_	142	96	0	96	48	4
NMSTR	142	96	1
NMSI_	142	96	1	96	48	4
NMTAP	142	288	5
NMTAP	142	336	5
NMTAP	143	0	3
NMTAP	143	48	3
NMTAP	143	96	2
NMTAP	143	96	4
NMTAP	143	144	2
NMTAP	143	144	4
BRTAP	143	240	5
NMTAP	143	288	5
NMTAP	143	336	4
NMTAP	144	0	3
NMTAP	144	48	2
NMTAP	144	96	3
NMTAP	144	144	4
NMTAP	144	192	5
NMTAP	144	240	5
NMTAP	144	288	4
NMTAP	144	336	3
NMTAP	145	0	2
NMTAP	145	48	3
NMTAP	145	96	4
NMTAP	145	144	5
NMTAP	145	192	5
NMTAP	145	240	4
NMTAP	145	288	3
NMTAP	145	336	2
NMTAP	146	0	3
NMTAP	146	48	4
NMTAP	146	96	5
NMTAP	146	144	5
NMTAP	146	192	4
NMTAP	146	240	3
NMTAP	146	288	2
NMTAP	146	336	3
NMTAP	147	0	4
NMTAP	147	48	5
NMTAP	147	96	5
NMTAP	147	144	4
NMTAP	147	192	3
NMTAP	147	240	2
NMTAP	147	288	3
NMTAP	147	336	4
NMTAP	148	0	5
NMTAP	148	48	5
NMTAP	148	96	4
NMTAP	148	144	3
NMTAP	148	192	2
NMTAP	148	240	3
NMTAP	148	288	4
NMTAP	148	336	5
NMTAP	149	0	5
NMTAP	149	48	4
NMTAP	149	96	3
NMTAP	149	144	2
NMTAP	149	192	3
NMTAP	149	240	4
NMTAP	149	288	5
NMTAP	149	336	5
NMTAP	150	0	3
NMTAP	150	48	2
NMTAP	150	144	2
NMTAP	150	144	3
NMTAP	150	240	1
NMTAP	150	288	1
NMTAP	150	336	0
NMTAP	151	0	7
NMTAP	151	48	6
NMTAP	151	96	7
NMTAP	151	144	0
NMTAP	151	192	1
NMTAP	151	240	1
NMTAP	151	288	0
NMTAP	151	336	7
NMTAP	152	0	6
NMTAP	152	48	7
NMTAP	152	96	0
NMTAP	152	144	1
NMTAP	152	192	1
NMTAP	152	240	0
NMTAP	152	288	7
NMTAP	152	336	6
NMTAP	153	0	7
NMTAP	153	48	0
NMTAP	153	96	1
NMTAP	153	144	1
NMTAP	153	192	0
NMTAP	153	240	7
NMTAP	153	288	6
NMTAP	153	336	5
BXHLD	154	48	3	240
BXHLD	154	48	6	240
BXHLD	155	0	2	240
BXHLD	155	0	5	240
BXHLD	155	336	1	96
BXHLD	155	336	4	96
BXHLD	156	96	0	240
BXHLD	156	96	3	240
NMTAP	157	0	1
NMTAP	157	0	2
NMTAP	157	48	1
NMTAP	157	48	2
BRTAP	157	144	7
NMTAP	157	336	3
NMTAP	157	336	6
NMTAP	158	0	4
NMTAP	158	0	5
NMTAP	158	96	1
NMTAP	158	96	4
NMTAP	158	144	2
NMTAP	158	144	3
NMTAP	158	240	3
NMTAP	158	240	6
NMTAP	158	288	3
NMTAP	158	288	6
NMTAP	158	336	4
NMTAP	158	336	5
NMTAP	159	48	6
NMTAP	159	48	7
NMTAP	159	144	0
NMTAP	159	144	1
NMTAP	159	240	2
NMTAP	159	264	3
NMTAP	159	288	2
NMTAP	159	336	1
NMTAP	159	336	4
NMTAP	160	48	5
NMTAP	160	72	4
NMTAP	160	96	5
NMTAP	160	144	3
NMTAP	160	144	6
NMTAP	160	240	2
NMTAP	160	264	3
NMTAP	160	288	2
NMTAP	160	336	1
NMTAP	160	336	4
NMTAP	161	48	5
NMTAP	161	72	4
NMTAP	161	96	5
NMTAP	161	144	3
NMTAP	161	144	6
NMTAP	161	240	1
NMHLD	161	288	1	96
NMTAP	162	0	3
NMTAP	162	48	3
NMTAP	162	96	2
NMTAP	162	144	2
NMTAP	162	192	5
NMTAP	162	240	5
NMTAP	162	288	4
NMTAP	162	336	4
NMTAP	163	0	6
NMHLD	163	48	6	96
NMTAP	163	144	3
NMTAP	163	240	5
NMTAP	163	264	4
NMTAP	163	288	5
NMTAP	163	336	3
NMTAP	163	336	6
NMTAP	164	48	2
NMTAP	164	72	3
NMTAP	164	96	2
NMTAP	164	144	1
NMTAP	164	144	4
NMTAP	164	240	5
NMTAP	164	264	4
NMTAP	164	288	5
NMTAP	164	336	3
NMTAP	164	336	6
NMTAP	165	48	2
NMTAP	165	72	3
NMTAP	165	96	2
NMTAP	165	144	1
NMTAP	165	144	4
BRTAP	165	240	0
BRTAP	165	240	5
NMTAP	165	336	6
NMTAP	165	336	7
NMSTR	166	48	0
NMSI_	166	48	0	96	48	4
NMSTR	166	144	6
NMSI_	166	144	6	96	48	2
NMSTR	166	240	1
NMSI_	166	240	1	96	48	5
NMTAP	166	336	7
NMSTR	167	48	7
NMSI_	167	48	7	96	48	3
NMSTR	167	144	0
NMSI_	167	144	0	96	48	4
NMSTR	167	240	6
NMSI_	167	240	6	96	48	3
NMTAP	167	336	2
NMTAP	168	48	1
NMTAP	168	144	0
NMHLD	168	192	0	96
NMTAP	168	288	3
NMTAP	168	336	3
NMTAP	169	48	1
NMTAP	169	48	4
NMTAP	169	144	3
NMTAP	169	144	6
NMTAP	169	240	7
NMTAP	169	288	7
NMTAP	170	0	4
NMTAP	170	0	6
NMTAP	170	48	4
NMSTR	170	48	6
NMSCL	170	48	6	96	72	3
NMTAP	170	288	1
NMTAP	170	288	4
NMTAP	170	336	2
NMTAP	170	336	3
NMTAP	171	48	3
NMTAP	171	48	6
NMTAP	171	96	4
NMTAP	171	96	5
NMTAP	171	192	1
NMTAP	171	192	4
NMTAP	171	240	1
NMTAP	171	240	4
NMTAP	171	288	2
NMTAP	171	288	3
NMTAP	172	0	0
NMTAP	172	0	1
NMTAP	172	96	6
NMTAP	172	96	7
NMTAP	172	192	5
NMTAP	172	216	4
NMTAP	172	240	5
NMTAP	172	288	3
NMTAP	172	288	6
NMTAP	173	0	2
NMTAP	173	24	3
NMTAP	173	48	2
NMTAP	173	96	1
NMTAP	173	96	4
NMTAP	173	192	5
NMTAP	173	216	4
NMTAP	173	240	5
NMTAP	173	288	3
NMTAP	173	288	6
NMTAP	174	0	2
NMTAP	174	24	3
NMTAP	174	48	2
NMTAP	174	96	1
NMTAP	174	96	4
NMTAP	174	192	5
NMHLD	174	240	5	96
NMTAP	174	336	7
NMTAP	175	0	7
NMTAP	175	48	6
NMTAP	175	96	6
NMTAP	175	144	2
NMTAP	175	192	2
NMTAP	175	240	0
NMTAP	175	288	0
NMTAP	175	336	1
NMHLD	176	0	1	96
NMTAP	176	96	4
NMTAP	176	192	2
NMTAP	176	216	3
NMTAP	176	240	2
NMTAP	176	288	1
NMTAP	176	288	4
NMTAP	177	0	5
NMTAP	177	24	4
NMTAP	177	48	5
NMTAP	177	96	3
NMTAP	177	96	6
NMTAP	177	192	2
NMTAP	177	216	3
NMTAP	177	240	2
NMTAP	177	288	1
NMTAP	177	288	4
NMTAP	178	0	5
NMTAP	178	24	4
NMTAP	178	48	5
NMTAP	178	96	3
NMTAP	178	96	6
BRTAP	178	192	2
BRTAP	178	192	7
NMTAP	178	288	0
NMTAP	178	288	1
NMTAP	179	0	2
NMTAP	179	24	3
NMTAP	179	48	2
NMTAP	179	96	5
NMTAP	179	120	4
NMTAP	179	144	5
NMTAP	179	192	2
NMTAP	179	216	3
NMTAP	179	240	2
NMTAP	179	288	5
NMTAP	179	312	4
NMTAP	179	336	5
NMTAP	180	0	2
NMTAP	180	24	3
NMTAP	180	48	2
NMTAP	180	96	5
NMTAP	180	120	4
NMTAP	180	144	5
NMTAP	180	192	1
NMTAP	180	216	3
NMTAP	180	240	2
NMTAP	180	288	6
NMTAP	180	312	4
NMTAP	180	336	5
NMTAP	181	0	1
NMTAP	181	24	3
NMTAP	181	48	2
NMTAP	181	96	6
NMTAP	181	120	4
NMTAP	181	144	5
NMTAP	181	192	1
NMTAP	181	216	3
NMTAP	181	240	2
NMTAP	181	288	6
NMTAP	181	312	4
NMTAP	181	336	5
NMHLD	182	0	5	96
NMTAP	182	96	7
NMTAP	182	144	7
BRTAP	182	240	0
BRTAP	182	240	6
NMTAP	182	336	2
NMTAP	182	336	4
NMTAP	183	0	2
NMTAP	183	0	4
NMTAP	183	96	3
NMTAP	183	96	5
NMTAP	183	192	1
NMTAP	183	192	7
BRTAP	183	240	1
BRTAP	183	240	7
NMTAP	183	336	3
NMTAP	183	336	5
NMTAP	184	0	3
NMTAP	184	0	5
NMTAP	184	96	2
NMTAP	184	96	3
NMTAP	184	192	1
NMTAP	184	216	0
NMTAP	184	240	1
NMTAP	184	288	2
NMTAP	184	288	7
NMTAP	185	0	6
NMTAP	185	24	7
NMTAP	185	48	6
NMTAP	185	96	0
NMTAP	185	96	5
NMTAP	185	192	1
NMTAP	185	216	0
NMTAP	185	240	1
NMTAP	185	288	2
NMTAP	185	288	7
NMTAP	186	0	6
NMTAP	186	24	7
NMTAP	186	48	6
NMHLD	186	96	0	96
NMTAP	186	96	5
EXSTR	186	192	2
NMSCL	186	192	2	96	432	6
BXSTR	186	240	2
BRSUL	186	240	2	96	384	5
NMTTP	188	144	5	E	0	M1
NMTTP	188	192	4	E	0	M1
NMTTP	188	240	3	E	0	M1
NMTTP	188	336	1	B	0	M1
NMTTP	188	336	1	A	0	M1
NMTTP	188	336	2	E	0	M1
NMTTP	189	48	0	B	0	M1
NMTTP	189	48	0	E	0	M1
NMTTP	189	48	0	A	0	M1
NMTTP	189	144	6	B	0	M1
NMTTP	189	144	6	E	0	M1
NMTTP	189	144	6	A	0	M1
NMTTP	189	240	4	B	0	M1
NMTTP	189	240	4	E	0	M1
NMTTP	189	240	4	A	0	M1
NMTHO	189	336	0	528	C	0	M1

T_REC_TAP	682
T_REC_BRK	28
T_REC_XTP	10
T_REC_BXX	6
T_REC_HLD	53
T_REC_XHO	3
T_REC_BHO	0
T_REC_BXH	8
T_REC_STR	65
T_REC_BST	4
T_REC_XST	5
T_REC_XBS	2
T_REC_TTP	96
T_REC_THO	2
T_REC_SLD	69
T_REC_BSL	8
T_REC_ALL	1041
T_NUM_TAP	858
T_NUM_BRK	56
T_NUM_HLD	58
T_NUM_SLD	69
T_NUM_ALL	1041
T_JUDGE_TAP	898
T_JUDGE_HLD	254
T_JUDGE_SLD	77
T_JUDGE_ALL	1229
TTM_EACHPAIRS	182
TTM_SCR_TAP	429000
TTM_SCR_BRK	145600
TTM_SCR_HLD	58000
TTM_SCR_SLD	103500
TTM_SCR_ALL	736100
TTM_SCR_S	708600
TTM_SCR_SS	730500
TTM_RAT_ACV	10076

