VERSION	0.00.00	1.05.00
FES_MODE	0
BPM_DEF	188.000	188.000	188.000	188.000
MET_DEF	4	4
RESOLUTION	384
CLK_DEF	672
COMPATIBLE_CODE	MA2

BPM	0	0	188.000
MET	0	0	4	7
MET	3	192	4	7
MET	17	192	8	7
MET	38	192	4	7
MET	52	192	8	7
MET	59	192	4	7
MET	66	192	4	4
MET	78	192	4	7
MET	85	192	4	4
MET	89	192	4	7
MET	94	288	4	4
MET	142	288	8	7
MET	155	336	4	4
MET	169	336	8	7
MET	170	288	4	4
MET	184	288	4	7
MET	186	192	8	7
SEF	0	0	5

EXSTR	3	192	0
NMSI_	3	192	0	96	288	4
NMSTR	5	96	6
NMSI_	5	96	6	96	288	2
NMSTR	7	0	1
NMSI_	7	0	1	96	288	5
EXSTR	8	288	7
NMSI_	8	288	7	96	288	3
NMSTR	10	192	2
NMSI_	10	192	2	96	288	7
NMSTR	12	96	6
NMSI_	12	96	6	96	288	3
EXSTR	14	0	1
NMSUR	14	0	1	96	768	4
EXTAP	17	192	4
EXTAP	17	288	4
EXTAP	18	0	4
NMTAP	18	96	4
NMTAP	18	192	4
NMTAP	18	288	4
NMTAP	19	96	5
NMTAP	19	192	5
NMTAP	19	288	5
NMTAP	20	0	5
NMTAP	20	96	5
NMTAP	20	192	5
NMTAP	21	0	6
NMTAP	21	96	6
NMTAP	21	192	6
NMTAP	21	288	6
NMTAP	22	0	6
NMTAP	22	96	6
NMTAP	22	288	7
NMTAP	23	0	7
NMTAP	23	96	7
NMTAP	23	192	7
NMTAP	23	288	0
NMTAP	23	288	7
NMTAP	24	0	0
NMTAP	24	0	7
NMTAP	24	192	0
NMTAP	24	288	0
NMTAP	25	0	0
NMTAP	25	96	0
NMTAP	25	192	0
NMTAP	25	288	0
NMTAP	26	96	1
NMTAP	26	192	1
NMTAP	26	288	1
NMTAP	27	0	1
NMTAP	27	96	1
NMTAP	27	192	1
NMTAP	28	0	2
NMTAP	28	96	2
NMTAP	28	192	2
NMTAP	28	288	2
NMTAP	29	0	2
NMTAP	29	96	2
NMTAP	29	288	3
NMTAP	30	0	3
NMTAP	30	96	3
NMTAP	30	192	3
NMTAP	30	288	3
NMTAP	30	288	4
NMTAP	31	0	3
NMTAP	31	0	4
EXHLD	31	192	2	336
NMTAP	32	144	3
EXHLD	33	96	1	336
NMTAP	34	48	0
EXHLD	35	0	6	336
NMTAP	35	336	7
EXHLD	36	288	5	336
NMTAP	37	240	4
NMTAP	38	192	5
NMTAP	38	288	5
NMTAP	39	0	5
NMTAP	39	192	4
NMTAP	39	192	5
NMTAP	39	288	4
NMTAP	39	288	5
NMTAP	40	96	6
NMTAP	40	192	6
NMTAP	40	288	6
NMTAP	41	96	6
NMTAP	41	96	7
NMTAP	41	192	6
NMTAP	41	192	7
NMTAP	42	0	0
NMTAP	42	96	0
NMTAP	42	192	0
NMTAP	43	0	0
NMTAP	43	0	1
NMTAP	43	96	0
NMTAP	43	96	1
NMTAP	43	288	2
NMTAP	44	0	2
NMTAP	44	96	2
NMTAP	44	288	2
NMTAP	44	288	3
NMTAP	45	0	2
NMTAP	45	0	3
NMTAP	45	192	3
NMTAP	45	288	3
NMTAP	46	0	2
NMTAP	46	96	2
NMTAP	46	192	0
NMTAP	46	192	1
NMTAP	46	288	0
NMTAP	46	288	1
NMTAP	47	96	7
NMTAP	47	192	7
NMTAP	47	288	6
NMTAP	48	0	6
NMTAP	48	96	4
NMTAP	48	96	5
NMTAP	48	192	4
NMTAP	48	192	5
NMTAP	49	0	4
NMTAP	49	96	4
NMTAP	49	192	5
NMTAP	49	288	5
NMTAP	50	0	6
NMTAP	50	0	7
NMTAP	50	96	6
NMTAP	50	96	7
NMTAP	50	288	0
NMTAP	51	0	0
NMTAP	51	96	1
NMTAP	51	192	1
NMTAP	51	288	2
NMTAP	51	288	3
NMTAP	52	0	2
NMTAP	52	0	3
NMTAP	52	192	2
NMTAP	52	192	3
NMTAP	52	288	2
NMTAP	52	288	3
NMTAP	53	0	1
NMTAP	53	96	1
NMTAP	53	192	0
NMTAP	53	192	7
NMTAP	53	288	0
NMTAP	53	288	7
NMTAP	54	96	6
NMTAP	54	96	7
NMTAP	54	192	6
NMTAP	54	192	7
NMTAP	54	288	5
NMTAP	55	0	5
NMTAP	55	96	3
NMTAP	55	96	4
NMTAP	55	192	3
NMTAP	55	192	4
NMTAP	56	0	4
NMTAP	56	0	5
NMTAP	56	96	4
NMTAP	56	96	5
NMTAP	56	192	6
NMTAP	56	288	6
NMTAP	57	0	0
NMTAP	57	0	7
NMTAP	57	96	0
NMTAP	57	96	7
NMTAP	57	288	0
NMTAP	57	288	1
NMTAP	58	0	0
NMTAP	58	0	1
NMTAP	58	96	2
NMTAP	58	192	2
NMTAP	58	288	3
NMTAP	58	288	4
NMTAP	59	0	3
NMTAP	59	0	4
EXSTR	59	192	2
NMSXL	59	192	2	96	864	5
NMSTR	63	0	6
NMSXL	63	0	6	96	864	3
NMTTP	66	192	1	B	0	L1
NMTTP	66	288	2	B	0	L1
NMTTP	67	0	3	B	0	L1
NMTTP	67	192	6	B	0	L1
NMTTP	67	288	5	B	0	L1
NMTTP	68	0	4	B	0	L1
NMTTP	68	192	1	B	0	L1
NMTTP	68	288	2	B	0	L1
NMTTP	69	0	3	B	0	L1
NMTTP	69	96	4	B	0	L1
NMTTP	69	192	5	B	0	L1
NMTTP	69	288	6	B	0	L1
NMTTP	70	0	0	C	0	L1
NMTTP	70	192	7	B	0	L1
NMTTP	70	288	6	B	0	L1
NMTTP	71	0	4	B	0	L1
NMTTP	71	0	5	B	0	L1
NMTTP	71	192	0	B	0	L1
NMTTP	71	288	1	B	0	L1
NMTTP	72	0	2	B	0	L1
NMTTP	72	0	3	B	0	L1
NMTTP	72	192	6	B	0	L1
NMTTP	72	288	5	B	0	L1
NMTTP	73	0	4	B	0	L1
NMTTP	73	96	3	B	0	L1
NMTTP	73	192	0	C	1	L1
NMTAP	74	192	0
NMTAP	74	288	7
NMTAP	75	0	6
NMTAP	75	96	5
NMTAP	75	192	4
NMTAP	75	288	3
NMTAP	76	0	2
NMTAP	76	96	1
NMTAP	76	192	0
NMTAP	76	288	7
NMTAP	77	0	6
NMTAP	77	96	5
EXTAP	77	192	3
EXTAP	77	192	4
NMHLD	78	192	2	288
NMHLD	80	96	3	288
NMHLD	82	0	4	288
NMHLD	83	288	5	288
NMTAP	85	192	5
NMTAP	85	288	5
NMTAP	86	0	4
NMTAP	86	0	5
NMTAP	86	192	6
NMTAP	86	288	6
NMTAP	87	0	0
NMTAP	87	0	7
NMTAP	87	192	1
NMTAP	87	288	1
NMTAP	88	0	0
NMTAP	88	0	1
NMTAP	88	192	2
NMTAP	88	288	2
NMTAP	89	0	3
NMTAP	89	0	4
EXTAP	89	192	3
EXTAP	89	192	5
EXTAP	89	336	3
EXTAP	89	336	5
EXTAP	90	96	3
EXTAP	90	96	5
NMTAP	90	240	3
NMTAP	90	240	5
EXTAP	91	96	2
EXTAP	91	96	4
EXTAP	91	240	2
EXTAP	91	240	4
EXTAP	92	0	2
EXTAP	92	0	4
NMTAP	92	144	2
NMTAP	92	144	4
EXTAP	93	0	3
EXTAP	93	0	5
EXTAP	93	144	3
EXTAP	93	144	5
EXTAP	93	288	3
EXTAP	93	288	5
NMTAP	94	48	3
NMTAP	94	48	5
EXTAP	94	288	2
EXTAP	94	288	4
EXTAP	95	48	2
EXTAP	95	48	4
EXTAP	95	192	2
EXTAP	95	192	4
NMTAP	95	336	2
NMTAP	95	336	4
NMHLD	96	96	2	144
NMHLD	96	96	4	144
NMTTP	97	96	0	C	1	L1
NMTTP	97	96	1	B	0	L1
NMTTP	97	96	2	B	0	L1
NMTTP	97	96	5	B	0	L1
NMTTP	97	96	6	B	0	L1
EXTAP	100	288	3
EXTAP	100	288	4
BXTAP	101	144	1
BXTAP	101	144	3
BXTAP	101	288	1
BXTAP	101	288	3
BXHLD	102	48	1	144
BXHLD	102	48	3	144
NMTAP	103	0	2
NMTAP	103	96	1
NMTAP	103	192	0
NMTAP	103	288	7
NMTAP	104	0	6
NMTAP	104	96	5
NMTAP	104	192	5
BXTAP	105	144	4
BXTAP	105	144	6
BXTAP	105	288	4
BXTAP	105	288	6
BXHLD	106	48	4	144
BXHLD	106	48	6	144
NMTAP	107	0	5
NMTAP	107	96	6
NMTAP	107	192	7
NMTAP	107	288	0
NMTAP	108	0	1
NMTAP	108	96	2
NMTAP	108	192	2
BXTAP	109	192	1
BXTAP	109	192	3
BXTAP	109	336	1
BXTAP	109	336	3
BXTAP	110	192	4
BXTAP	110	192	6
BXTAP	110	336	4
BXTAP	110	336	6
BXTAP	111	240	1
BXTAP	111	240	3
BXTAP	112	0	1
BXTAP	112	0	3
EXTAP	112	240	3
EXTAP	112	240	4
EXTAP	113	0	3
EXTAP	113	0	4
EXSTR	113	240	2
NMSCR	113	240	2	96	336	5
EXTAP	115	96	6
NMTAP	115	192	6
NMTAP	115	288	7
NMTAP	116	0	7
NMTAP	116	96	0
NMTAP	116	192	0
NMTAP	116	288	0
NMTAP	116	288	1
NMTAP	117	0	0
NMTAP	117	0	1
NMTAP	117	192	2
NMTAP	117	288	2
NMTAP	118	0	2
NMTAP	118	96	2
NMTAP	118	192	1
NMTAP	118	288	1
NMTAP	119	0	1
NMTAP	119	96	1
NMTAP	119	192	0
NMTAP	119	288	0
NMTAP	120	0	0
NMTAP	120	96	0
NMTAP	120	192	6
NMTAP	120	192	7
NMTAP	120	288	6
NMTAP	120	288	7
NMTAP	121	0	6
NMTAP	121	0	7
EXHLD	121	192	5	384
NMTAP	122	0	4
NMTAP	122	192	4
NMTAP	123	0	3
NMTAP	123	0	4
EXHLD	123	192	2	384
NMTAP	124	0	3
NMTAP	124	192	3
NMSTR	125	0	3
NMSI_	125	0	3	96	288	0
NMSTR	125	0	4
NMSI_	125	0	4	96	288	7
EXHLD	126	192	0	192
EXHLD	126	192	7	192
NMSTR	127	192	0
NMSCR	127	192	0	96	384	3
NMSTR	127	192	7
NMSCL	127	192	7	96	384	4
NMTAP	130	0	5
NMTAP	130	96	5
NMTAP	130	192	5
NMTAP	131	0	6
NMTAP	131	96	6
NMTAP	131	192	6
NMTAP	132	0	7
NMTAP	132	96	7
NMTAP	132	192	7
NMTAP	133	0	0
NMTAP	133	96	0
NMTAP	133	192	0
NMTAP	134	0	1
NMTAP	134	96	1
NMTAP	134	192	1
NMTAP	135	0	2
NMTAP	135	0	3
NMTAP	135	96	2
NMTAP	135	96	3
NMTAP	135	288	2
NMTAP	135	336	2
NMTAP	136	0	2
NMTAP	136	96	1
NMTAP	136	192	1
NMTAP	136	288	0
NMTAP	136	336	0
NMTAP	137	0	0
NMTAP	137	96	6
NMTAP	137	96	7
NMTAP	137	288	5
NMTAP	137	336	5
NMTAP	138	0	5
NMTAP	138	96	6
NMTAP	138	192	6
NMTAP	138	288	7
NMTAP	138	336	7
NMTAP	139	0	7
BRTAP	139	96	0
BRTAP	139	96	1
NMTAP	139	288	1
NMTAP	139	336	1
NMTAP	140	0	1
NMTAP	140	96	2
NMTAP	140	192	2
NMTAP	140	288	3
NMTAP	140	336	3
NMTAP	141	0	3
NMTAP	141	96	4
NMTAP	141	96	5
NMTAP	141	288	6
NMTAP	141	336	6
NMTAP	142	0	6
NMTAP	142	96	5
NMTAP	142	192	5
NMTAP	142	288	4
NMTAP	142	336	4
NMTAP	143	0	4
NMTAP	143	96	3
NMTAP	143	96	4
EXSTR	143	240	2
NMSLL	143	240	2	96	912	4
EXSTR	143	240	5
NMSLR	143	240	5	96	912	3
NMSTR	147	48	5
NMSXR	147	48	5	96	912	0
NMSTR	150	240	1
NMSXR	150	240	1	96	912	4
NMHLD	154	48	5	336
NMHLD	155	0	4	336
NMHLD	155	336	3	336
NMTAP	156	288	2
NMTAP	157	336	2
NMTAP	158	48	2
NMTAP	158	144	1
NMTAP	158	240	1
NMTAP	158	336	0
NMTAP	158	336	1
NMTAP	159	48	0
NMTAP	159	48	1
NMTAP	159	240	7
NMTAP	159	336	7
NMTAP	160	48	6
NMTAP	160	48	7
NMTAP	160	144	6
NMTAP	160	144	7
NMTAP	160	240	4
NMTAP	160	240	5
NMTAP	160	336	4
NMTAP	160	336	5
NMTAP	161	48	3
NMTAP	161	48	6
NMTAP	161	240	5
NMTAP	161	336	5
NMTAP	162	48	4
NMTAP	162	48	5
NMTAP	162	144	4
NMTAP	162	144	5
NMTAP	162	240	6
NMTAP	162	336	6
NMTAP	163	48	6
NMTAP	163	48	7
NMTAP	163	144	6
NMTAP	163	144	7
NMTAP	163	240	0
NMTAP	163	336	0
NMTAP	164	48	0
NMTAP	164	48	1
NMTAP	164	144	0
NMTAP	164	144	1
NMTAP	164	240	2
NMTAP	164	240	3
NMTAP	164	336	2
NMTAP	164	336	3
NMTAP	165	48	1
NMTAP	165	48	4
NMTAP	165	240	2
NMTAP	165	288	2
NMTAP	165	336	2
NMTAP	166	48	2
NMTAP	166	48	3
NMTAP	166	240	1
NMTAP	166	288	1
NMTAP	166	336	1
NMTAP	167	48	0
NMTAP	167	48	1
NMTAP	167	240	7
NMTAP	167	288	7
NMTAP	167	336	7
NMTAP	168	48	6
NMTAP	168	48	7
NMTAP	168	240	5
NMTAP	168	288	5
NMTAP	168	336	5
NMTAP	169	48	4
NMTAP	169	48	5
EXHLD	169	240	3	288
EXHLD	169	240	4	288
EXTAP	170	288	5
EXTAP	171	0	6
EXTAP	171	0	7
EXTAP	171	96	6
EXTAP	171	96	7
NMTAP	171	192	0
NMTAP	171	240	0
NMTAP	171	288	0
NMTAP	172	0	0
NMTAP	172	0	1
NMTAP	172	96	0
NMTAP	172	96	1
NMTAP	172	192	2
NMTAP	172	240	2
NMTAP	172	288	2
NMTAP	173	0	0
NMTAP	173	0	1
NMTAP	173	96	0
NMTAP	173	96	1
NMTAP	173	192	7
NMTAP	173	240	7
NMTAP	173	288	7
NMTAP	174	0	6
NMTAP	174	0	7
NMTAP	174	192	6
NMTAP	174	240	6
NMTAP	174	288	6
NMTAP	175	0	4
NMTAP	175	0	5
NMTAP	175	96	4
NMTAP	175	96	5
NMTAP	175	192	3
NMTAP	175	240	3
NMTAP	175	288	3
NMTAP	176	0	2
NMTAP	176	0	3
NMTAP	176	96	2
NMTAP	176	96	3
NMTAP	176	192	1
NMTAP	176	240	1
NMTAP	176	288	1
NMTAP	177	0	2
NMTAP	177	0	3
NMTAP	177	96	2
NMTAP	177	96	3
NMTAP	177	192	4
NMTAP	177	240	4
NMTAP	177	288	4
BRTAP	178	0	4
BRTAP	178	0	5
NMTAP	178	192	6
NMTAP	178	240	6
NMTAP	178	288	6
NMTAP	179	0	6
NMTAP	179	0	7
NMTAP	179	48	6
NMTAP	179	48	7
NMTAP	179	96	6
NMTAP	179	96	7
NMTAP	179	192	5
NMTAP	179	240	5
NMTAP	179	288	5
NMTAP	180	0	4
NMTAP	180	0	5
NMTAP	180	48	4
NMTAP	180	48	5
NMTAP	180	96	4
NMTAP	180	96	5
NMTAP	180	192	3
NMTAP	180	240	3
NMTAP	180	288	3
NMTAP	181	0	2
NMTAP	181	0	3
NMTAP	181	48	2
NMTAP	181	48	3
NMTAP	181	96	2
NMTAP	181	96	3
NMTAP	181	192	1
NMTAP	181	240	1
NMTAP	181	288	1
NMTAP	182	0	0
NMTAP	182	0	7
NMTAP	182	192	1
NMTAP	182	240	1
NMTAP	182	288	1
NMTAP	183	0	0
NMTAP	183	0	1
NMTAP	183	48	0
NMTAP	183	48	1
NMTAP	183	96	0
NMTAP	183	96	1
NMTAP	183	192	2
NMTAP	183	240	2
NMTAP	183	288	2
NMTAP	184	0	2
NMTAP	184	0	3
NMTAP	184	48	2
NMTAP	184	48	3
NMTAP	184	96	2
NMTAP	184	96	3
NMTAP	184	192	4
NMTAP	184	240	4
NMTAP	184	288	4
NMTAP	185	0	4
NMTAP	185	0	5
NMTAP	185	48	4
NMTAP	185	48	5
NMTAP	185	96	4
NMTAP	185	96	5
NMTAP	185	192	6
NMTAP	185	240	6
NMTAP	185	288	6
EXSTR	186	0	7
NMSLR	186	0	7	96	768	5
CNSI_	188	96	5	0	336	3
NMTHO	189	336	0	528	C	0	L1

T_REC_TAP	463
T_REC_BRK	4
T_REC_XTP	41
T_REC_BXX	20
T_REC_HLD	9
T_REC_XHO	10
T_REC_BHO	0
T_REC_BXH	4
T_REC_STR	11
T_REC_BST	0
T_REC_XST	8
T_REC_XBS	0
T_REC_TTP	31
T_REC_THO	1
T_REC_SLD	19
T_REC_BSL	0
T_REC_ALL	621
T_NUM_TAP	554
T_NUM_BRK	28
T_NUM_HLD	20
T_NUM_SLD	19
T_NUM_ALL	621
T_JUDGE_TAP	578
T_JUDGE_HLD	138
T_JUDGE_SLD	19
T_JUDGE_ALL	735
TTM_EACHPAIRS	143
TTM_SCR_TAP	277000
TTM_SCR_BRK	72800
TTM_SCR_HLD	20000
TTM_SCR_SLD	28500
TTM_SCR_ALL	398300
TTM_SCR_S	383650
TTM_SCR_SS	395500
TTM_RAT_ACV	10070

