VERSION	0.00.00	1.05.00
FES_MODE	0
BPM_DEF	188.000	188.000	188.000	188.000
MET_DEF	4	4
RESOLUTION	384
CLK_DEF	672
COMPATIBLE_CODE	MA2

BPM	0	0	188.000
MET	0	0	4	7
MET	3	192	4	7
MET	17	192	8	7
MET	38	192	4	7
MET	52	192	8	7
MET	59	192	4	7
MET	66	192	4	4
MET	78	192	4	7
MET	85	192	4	4
MET	89	192	4	7
MET	94	288	4	4
MET	142	288	8	7
MET	155	336	4	4
MET	169	336	8	7
MET	170	288	4	4
MET	184	288	4	7
MET	186	192	8	7
SEF	0	0	5

NMTAP	3	192	0
NMTAP	5	96	1
NMTAP	7	0	2
NMTAP	8	288	3
NMTAP	10	192	4
NMTAP	12	96	5
NMTAP	14	0	6
NMTAP	15	288	0
NMTAP	15	288	7
BXTAP	17	192	7
EXTAP	17	336	7
EXTAP	18	96	7
NMTAP	19	96	6
NMTAP	19	240	6
NMTAP	20	0	6
NMTAP	21	0	5
NMTAP	21	144	5
NMTAP	21	288	5
NMTAP	22	288	4
NMTAP	23	48	4
NMTAP	23	192	4
NMTAP	24	192	3
NMTAP	24	336	3
NMTAP	25	96	3
NMTAP	26	96	2
NMTAP	26	240	2
NMTAP	27	0	2
NMTAP	28	0	1
NMTAP	28	144	1
NMTAP	28	288	1
NMTAP	29	288	0
NMTAP	30	48	0
NMTAP	30	192	0
NMTAP	30	192	7
NMHLD	31	192	0	336
NMHLD	31	192	1	336
NMHLD	33	96	2	336
NMHLD	33	96	3	336
NMHLD	35	0	4	336
NMHLD	35	0	5	336
NMHLD	36	288	6	336
NMHLD	36	288	7	336
NMTAP	38	192	7
NMTAP	39	0	7
NMTAP	39	192	7
NMTAP	40	96	6
NMTAP	40	288	6
NMTAP	41	96	6
NMTAP	42	0	5
NMTAP	42	192	5
NMTAP	43	0	5
NMTAP	43	288	4
NMTAP	44	96	4
NMTAP	44	288	4
NMTAP	45	192	3
NMTAP	46	0	3
NMTAP	46	192	3
NMTAP	47	96	2
NMTAP	47	288	2
NMTAP	48	96	2
NMTAP	49	0	1
NMTAP	49	192	1
NMTAP	50	0	1
NMTAP	50	288	0
NMTAP	51	96	0
NMTAP	51	288	0
NMTAP	52	192	7
NMTAP	53	0	7
NMTAP	53	192	0
NMTAP	53	192	7
NMTAP	54	96	0
NMTAP	54	288	0
NMTAP	55	96	0
NMTAP	55	96	7
NMSTR	56	0	0
NMSI_	56	0	0	96	240	4
NMSTR	57	288	7
NMSI_	57	288	7	96	240	3
NMTTP	60	144	0	B	0	L1
NMTTP	61	96	7	B	0	L1
NMTTP	62	48	1	B	0	L1
NMTTP	63	0	6	B	0	L1
NMTTP	63	336	0	C	1	L1
EXTAP	65	192	0
EXTAP	65	192	7
NMTAP	66	192	1
NMTAP	67	0	1
NMTAP	67	192	0
NMTAP	67	192	1
NMTAP	68	192	6
NMTAP	69	0	6
NMTAP	69	192	6
NMTAP	69	192	7
NMTAP	70	192	0
NMTAP	71	0	0
NMTAP	71	192	0
NMTAP	71	192	7
EXSTR	72	96	0
NMSI_	72	96	0	96	384	3
EXSTR	72	96	7
NMSI_	72	96	7	96	384	4
EXTAP	74	192	5
EXTAP	74	288	5
NMTAP	75	96	3
NMTAP	75	96	4
NMTAP	75	192	3
NMTAP	75	192	4
NMTAP	76	0	2
NMTAP	76	96	2
NMTAP	76	288	3
NMTAP	76	288	4
NMHLD	77	0	3	144
NMHLD	77	0	4	144
EXHLD	78	192	2	288
EXHLD	78	192	3	288
NMHLD	80	96	0	288
NMHLD	80	96	1	288
NMHLD	82	0	6	288
NMHLD	82	0	7	288
NMHLD	83	288	4	288
NMHLD	83	288	5	288
NMTTP	85	192	4	B	0	L1
NMTTP	86	192	3	B	0	L1
NMTTP	87	192	5	B	0	L1
NMTTP	88	192	2	B	0	L1
NMTTP	89	192	6	B	0	L1
NMTTP	89	192	7	E	0	L1
NMTTP	91	96	1	B	0	L1
NMTTP	91	96	1	E	0	L1
NMTTP	93	0	3	B	0	L1
NMTTP	93	0	4	B	0	L1
NMTTP	93	0	4	E	0	L1
NMTHO	94	288	0	960	C	1	L1
NMTTP	94	288	1	B	0	L1
NMTTP	94	288	6	B	0	L1
NMSTR	100	288	1
NMSI_	100	288	1	96	288	5
NMTAP	102	192	6
NMTAP	103	0	6
NMTAP	103	192	7
NMTAP	104	0	7
NMSTR	104	192	6
NMSI_	104	192	6	96	288	2
NMTAP	106	192	1
NMTAP	107	0	1
NMTAP	107	192	2
NMTAP	108	0	2
NMTAP	108	192	3
NMTAP	109	0	3
NMTAP	109	192	4
NMTAP	110	0	4
NMTAP	110	192	5
NMTAP	111	0	5
NMHLD	111	192	4	432
NMHLD	111	192	5	432
EXSTR	113	240	5
NMSI_	113	240	5	96	288	0
NMTAP	115	192	1
NMTAP	116	0	1
NMTAP	116	192	2
NMTAP	117	0	2
NMSTR	117	192	3
NMSI_	117	192	3	96	288	7
NMTAP	119	192	6
NMTAP	120	0	6
NMTAP	120	192	5
NMTAP	121	0	5
NMTAP	121	192	4
NMTAP	122	0	4
NMTAP	122	192	3
NMTAP	123	0	3
NMTAP	123	192	2
NMTAP	124	0	2
NMHLD	124	192	3	432
NMHLD	124	192	4	432
NMTAP	126	240	3
NMTAP	126	240	4
NMTAP	127	48	3
NMTAP	127	48	4
NMTAP	127	240	3
NMTAP	127	336	3
NMTAP	128	48	3
NMTAP	128	240	2
NMTAP	128	240	3
NMTAP	129	48	2
NMTAP	129	48	3
NMTAP	129	240	1
NMTAP	129	336	1
NMTAP	130	48	1
NMTAP	130	240	0
NMTAP	130	240	1
NMTAP	131	48	0
NMTAP	131	48	1
NMTAP	131	240	7
NMTAP	131	336	7
NMTAP	132	48	7
NMTAP	132	240	6
NMTAP	132	240	7
NMTAP	133	48	6
NMTAP	133	48	7
NMTAP	133	240	5
NMTAP	133	336	5
NMTAP	134	48	5
NMTAP	134	240	4
NMTAP	134	240	5
EXTAP	135	288	4
EXTAP	136	0	4
EXTAP	136	96	4
NMTAP	136	288	4
NMTAP	136	288	5
NMTAP	137	96	4
NMTAP	137	96	5
NMTAP	137	288	6
NMTAP	138	0	6
NMTAP	138	96	6
NMTAP	138	288	0
NMTAP	138	288	7
NMTAP	139	96	0
NMTAP	139	96	7
NMTAP	139	288	1
NMTAP	140	0	1
NMTAP	140	96	1
NMTAP	140	288	0
NMTAP	140	288	1
NMTAP	141	96	0
NMTAP	141	96	1
NMTAP	141	288	2
NMTAP	142	0	2
NMTAP	142	96	2
NMTAP	142	288	3
NMTAP	142	288	4
EXSTR	143	240	4
NMSI_	143	240	4	96	240	0
NMSTR	145	144	1
NMSI_	145	144	1	96	240	4
NMSTR	147	48	5
NMSI_	147	48	5	96	240	0
NMSTR	148	336	1
NMSI_	148	336	1	96	240	5
NMTTP	150	240	6	B	0	L1
NMTTP	150	240	7	B	0	L1
NMTTP	151	192	4	B	0	L1
NMTTP	151	192	5	B	0	L1
NMTTP	152	144	2	B	0	L1
NMTTP	152	144	3	B	0	L1
NMTTP	153	96	0	B	0	L1
NMTTP	153	96	1	B	0	L1
NMTTP	154	48	2	B	0	L1
NMTTP	154	48	3	B	0	L1
NMTTP	154	48	3	E	0	L1
NMTTP	155	0	4	B	0	L1
NMTTP	155	0	5	B	0	L1
NMTTP	155	0	5	E	0	L1
NMTHO	155	336	0	384	C	0	L1
BRTAP	157	336	0
NMTAP	158	48	0
NMTAP	158	144	0
NMTAP	158	336	0
NMTAP	158	336	1
NMTAP	159	240	2
NMTAP	159	336	2
NMTAP	160	48	2
NMTAP	160	240	2
NMTAP	160	240	3
NMTAP	161	240	4
NMTAP	161	336	4
NMTAP	162	48	4
NMTAP	162	240	4
NMTAP	162	240	5
NMTAP	163	240	6
NMTAP	163	336	6
NMTAP	164	48	6
NMTAP	164	240	6
NMTAP	164	240	7
NMTAP	165	240	1
NMTAP	165	336	1
NMTAP	166	48	0
NMTAP	166	48	1
NMTAP	166	240	6
NMTAP	166	336	6
NMTAP	167	48	6
NMTAP	167	48	7
NMTAP	167	240	0
NMTAP	167	336	0
NMTAP	168	48	0
NMTAP	168	48	7
NMTAP	168	240	0
NMTAP	168	240	7
NMTAP	168	336	0
NMTAP	168	336	7
NMHLD	169	48	0	240
NMHLD	169	48	7	240
BXTAP	170	288	7
EXTAP	171	0	7
NMTAP	171	96	6
NMTAP	171	192	6
NMTAP	171	288	4
NMTAP	171	288	5
NMTAP	172	0	4
NMTAP	172	0	5
NMTAP	172	192	3
NMTAP	172	288	3
NMTAP	173	0	2
NMTAP	173	96	2
NMTAP	173	192	1
NMTAP	173	288	1
NMTAP	174	0	0
NMTAP	174	0	1
NMTAP	174	192	0
NMTAP	174	288	0
NMTAP	175	0	1
NMTAP	175	96	1
NMTAP	175	192	2
NMTAP	175	288	2
NMTAP	176	0	2
NMTAP	176	0	3
NMTAP	176	192	4
NMTAP	176	288	4
NMTAP	177	0	5
NMTAP	177	96	5
NMTAP	177	192	6
NMTAP	177	288	6
NMTAP	178	0	6
NMTAP	178	0	7
NMTAP	178	192	0
NMTAP	178	288	0
NMTAP	179	0	0
NMTAP	179	0	1
NMTAP	179	192	7
NMTAP	179	288	7
NMTAP	180	0	6
NMTAP	180	0	7
NMTAP	180	192	0
NMTAP	180	288	0
NMTAP	181	0	0
NMTAP	181	0	7
NMSTR	181	192	0
NMSI_	181	192	0	96	288	3
NMSTR	181	192	7
NMSI_	181	192	7	96	288	4
NMTAP	183	192	3
NMTAP	183	192	4
NMTAP	183	288	3
NMTAP	183	288	4
NMTAP	184	192	2
NMTAP	184	192	5
NMTAP	184	288	2
NMTAP	184	288	5
NMTAP	185	192	1
NMTAP	185	192	6
NMTAP	185	288	1
NMTAP	185	288	6
NMTAP	186	192	0
NMTAP	186	192	7
EXHLD	186	288	0	1200
EXHLD	186	288	7	1728

T_REC_TAP	255
T_REC_BRK	1
T_REC_XTP	10
T_REC_BXX	2
T_REC_HLD	22
T_REC_XHO	4
T_REC_BHO	0
T_REC_BXH	0
T_REC_STR	10
T_REC_BST	0
T_REC_XST	4
T_REC_XBS	0
T_REC_TTP	32
T_REC_THO	2
T_REC_SLD	14
T_REC_BSL	0
T_REC_ALL	356
T_NUM_TAP	311
T_NUM_BRK	3
T_NUM_HLD	28
T_NUM_SLD	14
T_NUM_ALL	356
T_JUDGE_TAP	314
T_JUDGE_HLD	245
T_JUDGE_SLD	14
T_JUDGE_ALL	573
TTM_EACHPAIRS	66
TTM_SCR_TAP	155500
TTM_SCR_BRK	7800
TTM_SCR_HLD	28000
TTM_SCR_SLD	21000
TTM_SCR_ALL	212300
TTM_SCR_S	205650
TTM_SCR_SS	212000
TTM_RAT_ACV	10014

