VERSION	0.00.00	1.05.00
FES_MODE	0
BPM_DEF	120.000	180.000	240.000	120.000
MET_DEF	4	4
RESOLUTION	384
CLK_DEF	384
COMPATIBLE_CODE	MA2

BPM	0	0	120.000
BPM	11	0	130.000
BPM	12	0	140.000
BPM	13	0	150.000
BPM	14	0	160.000
BPM	15	0	170.000
BPM	16	0	180.000
BPM	17	0	190.000
BPM	18	0	200.000
BPM	19	0	210.000
BPM	20	0	220.000
BPM	21	0	230.000
BPM	21	192	240.000
BPM	40	0	180.000
BPM	100	0	187.500
BPM	102	0	195.000
BPM	104	0	202.500
BPM	106	0	210.000
BPM	108	0	217.500
BPM	110	0	225.000
BPM	112	0	232.500
BPM	114	0	240.000
BPM	116	0	180.000
BPM	117	0	170.000
BPM	118	0	160.000
BPM	119	0	140.000
BPM	120	0	180.000
BPM	121	0	180.000
MET	0	0	4	4
SEF	0	0	0
SEF	119	288	1
SEF	120	0	3

BRTAP	2	0	1
NMTAP	2	6	0
NMTAP	2	6	2
NMTAP	2	12	3
NMTAP	2	12	7
NMHLD	2	18	4	654
NMTAP	2	18	6
NMSTR	2	24	5
NMSCR	2	24	5	96	648	3
CNSCL	4	0	3	0	480	5
NMHLD	4	0	4	288
NMHLD	5	0	3	192
NMHLD	5	192	4	96
NMTAP	5	288	5
NMHLD	6	0	5	672
BRSTR	6	0	6
NMSCR	6	0	6	96	480	4
NMSTR	7	288	4
NMSI_	7	288	4	96	48	7
NMHLD	8	0	4	288
NMSTR	8	288	3
BRSI_	8	288	3	96	48	0
NMHLD	9	0	3	288
NMHLD	9	192	7	96
NMHLD	10	0	4	48
NMHLD	10	0	5	48
NMHLD	10	72	4	48
NMHLD	10	72	5	48
NMHLD	10	144	5	48
NMHLD	10	144	6	48
NMHLD	10	216	6	48
NMSTR	10	216	7
NMSI_	10	216	7	96	24	3
NMTAP	10	288	0
NMTAP	10	288	7
NMHLD	11	0	2	48
NMHLD	11	0	3	48
NMHLD	11	72	2	48
NMHLD	11	72	3	48
NMHLD	11	144	1	48
NMHLD	11	144	2	48
NMSTR	11	216	0
NMSCL	11	216	0	96	72	3
NMHLD	11	216	1	48
NMHLD	12	0	2	48
NMHLD	12	72	2	48
NMHLD	12	72	3	48
NMHLD	12	144	1	48
NMHLD	12	144	2	48
NMSTR	12	216	0
NMSI_	12	216	0	96	48	4
NMHLD	12	216	1	48
NMTAP	12	288	0
NMTAP	12	288	7
NMHLD	13	0	5	48
NMHLD	13	72	5	48
NMHLD	13	72	6	48
NMHLD	13	144	6	48
NMHLD	13	144	7	48
NMHLD	13	216	0	48
NMHLD	13	216	7	48
NMTTP	13	288	1	A	0	M1
NMTTP	13	300	2	E	0	M1
NMTTP	13	312	3	E	0	M1
NMTTP	13	324	3	A	0	M1
NMTTP	13	336	7	A	0	M1
NMTTP	13	348	7	E	0	M1
NMTTP	13	360	6	E	0	M1
NMTTP	13	372	5	A	0	M1
BRTAP	14	0	0
NMTAP	14	72	2
NMTAP	14	96	3
NMTAP	14	144	3
NMHLD	14	192	1	72
NMTAP	14	192	4
NMTAP	14	264	3
NMTAP	14	288	2
NMTAP	14	336	1
NMTAP	14	336	4
NMTAP	15	0	0
NMHLD	15	0	5	72
NMTAP	15	72	4
NMTAP	15	96	6
NMTAP	15	144	6
NMHLD	15	192	5	48
NMHLD	15	192	7	48
NMHLD	15	264	4	48
NMHLD	15	264	6	48
NMTAP	15	336	5
NMTAP	15	360	4
BRHLD	16	0	5	72
NMTAP	16	72	4
NMTAP	16	96	5
NMTAP	16	144	5
NMTAP	16	192	3
NMHLD	16	192	6	72
NMTAP	16	264	4
NMTAP	16	288	5
NMTAP	16	336	3
NMTAP	16	336	6
NMHLD	17	0	2	72
NMTAP	17	0	7
NMTAP	17	72	3
NMTAP	17	96	1
NMTAP	17	144	1
NMHLD	17	192	0	48
NMHLD	17	192	1	48
NMHLD	17	264	2	48
NMHLD	17	264	7	48
NMTAP	17	336	3
NMTAP	17	336	6
NMSTR	18	0	2
NMSI_	18	0	2	96	48	0
BRTAP	18	0	5
NMTAP	18	72	3
NMTAP	18	96	2
NMTAP	18	144	4
NMSTR	18	192	2
NMSI_	18	192	2	96	48	6
NMTAP	18	264	3
NMTAP	18	288	2
NMTAP	18	336	4
BRTAP	19	0	0
NMSTR	19	0	5
NMSI_	19	0	5	96	48	7
NMTAP	19	72	4
NMTAP	19	96	5
NMTAP	19	144	3
NMSTR	19	192	5
NMSI_	19	192	5	96	48	1
NMTAP	19	264	4
NMTAP	19	288	5
NMTAP	19	336	3
BRTAP	20	0	0
BRTAP	20	0	2
NMTAP	20	48	0
NMTAP	20	48	2
NMTAP	20	96	1
NMTAP	20	96	7
NMTAP	20	144	1
NMTAP	20	144	7
NMTAP	20	192	0
NMTAP	20	192	6
NMTAP	20	240	0
NMTAP	20	240	6
NMTAP	20	288	5
NMTAP	20	288	7
NMTAP	20	336	5
NMTAP	20	336	7
NMTAP	21	0	6
NMTAP	21	24	7
NMTAP	21	48	6
NMTAP	21	72	7
NMSTR	21	96	6
NMSI_	21	96	6	96	24	0
NMSCL	21	96	6	96	144	6
NMTAP	21	120	7
NMTAP	21	144	6
NMTAP	21	168	7
CNSI_	21	216	0	0	24	2
CNSI_	21	240	2	0	48	4
CNSI_	21	288	4	0	48	6
NMTTP	22	0	0	C	1	M1
NMTAP	23	0	2
NMTAP	23	0	3
NMTAP	23	48	3
NMTAP	23	48	4
NMTAP	23	96	4
NMTAP	23	96	5
NMTAP	23	144	3
NMTAP	23	168	4
NMTAP	23	192	3
NMTAP	23	216	4
NMTAP	23	240	3
NMTAP	23	264	4
NMTAP	23	288	2
NMSTR	23	288	5
NMSI_	23	288	5	96	48	7
BRTAP	24	0	0
NMTTP	24	0	5	A	1	M1
NMTAP	24	96	1
NMHLD	24	144	1	96
NMTAP	24	240	7
NMHLD	24	288	7	96
NMTAP	25	0	5
NMHLD	25	48	5	96
NMTAP	25	144	4
NMTAP	25	192	4
NMTAP	25	288	3
NMTAP	25	288	5
NMHLD	26	0	2	96
NMTAP	26	96	4
NMHLD	26	144	4	96
NMTAP	26	240	6
NMHLD	26	288	6	96
NMTAP	27	0	0
NMHLD	27	48	0	96
NMTAP	27	144	1
NMTAP	27	192	1
NMTAP	27	288	0
NMTAP	27	288	1
BRTAP	28	0	2
NMHLD	28	0	7	96
NMTAP	28	96	5
NMHLD	28	144	5	96
NMTAP	28	240	4
NMHLD	28	288	4	96
NMTAP	29	0	2
NMHLD	29	48	2	96
NMTAP	29	144	0
NMTAP	29	192	0
NMTAP	29	288	1
NMTAP	29	288	7
NMHLD	30	0	5	96
NMHLD	30	0	6	96
NMHLD	30	192	1	96
NMHLD	30	192	2	96
NMTAP	31	0	3
NMTAP	31	0	4
NMTAP	31	96	0
NMTAP	31	96	7
NMTAP	31	192	4
NMTAP	31	192	5
NMTAP	31	208	3
NMTAP	31	224	2
NMTAP	31	240	1
NMTAP	31	256	0
NMTAP	31	272	7
NMTAP	31	288	6
NMTAP	31	304	5
NMTAP	31	320	4
NMTAP	31	336	3
NMTAP	31	352	2
NMTAP	31	368	1
BRTAP	32	0	0
BRTAP	32	0	4
NMSTR	32	96	6
NMSI_	32	96	6	96	48	3
NMTAP	32	144	6
NMSTR	32	192	1
NMSI_	32	192	1	96	48	4
NMTAP	32	240	1
NMSTR	32	288	7
NMSI_	32	288	7	96	48	3
NMTAP	32	336	7
NMSTR	33	0	0
NMSI_	33	0	0	96	48	4
NMTAP	33	48	0
NMSTR	33	96	6
NMSI_	33	96	6	96	48	2
NMTAP	33	144	6
NMSTR	33	192	0
NMSCR	33	192	0	96	48	3
NMTAP	33	240	0
NMTAP	33	288	4
NMTAP	33	312	5
NMTAP	33	336	6
NMTAP	33	360	7
BRHLD	34	0	0	96
NMSTR	34	96	1
NMSI_	34	96	1	96	48	4
NMTAP	34	144	1
NMSTR	34	192	6
NMSI_	34	192	6	96	48	3
NMTAP	34	240	6
NMSTR	34	288	7
NMSI_	34	288	7	96	48	2
NMTAP	34	336	7
NMSTR	35	0	5
NMSCL	35	0	5	96	48	2
NMTAP	35	48	5
NMTAP	35	96	7
NMTAP	35	144	7
NMTAP	35	168	0
NMHLD	35	192	1	48
NMTAP	35	240	7
NMTAP	35	264	6
NMHLD	35	288	5	48
NMTAP	35	336	3
NMTAP	35	360	2
BRHLD	36	0	1	96
NMSTR	36	96	6
NMSI_	36	96	6	96	48	2
NMTAP	36	144	6
NMSTR	36	192	0
NMSCR	36	192	0	96	48	3
NMTAP	36	240	0
NMTAP	36	288	4
NMTAP	36	312	5
NMTAP	36	336	6
NMTAP	36	360	7
BRSTR	37	0	0
NMSI_	37	0	0	96	48	4
NMTAP	37	48	0
NMHLD	37	96	2	96
NMTAP	37	192	6
NMTAP	37	208	5
NMTAP	37	224	4
NMTAP	37	240	3
NMTAP	37	256	2
NMTAP	37	272	1
NMTAP	37	288	0
NMTAP	37	304	7
NMTAP	37	320	6
NMTAP	37	336	5
NMTAP	37	352	4
NMTAP	37	368	3
BRHLD	38	0	1	96
BRHLD	38	0	2	96
BRHLD	38	128	4	96
BRHLD	38	128	5	96
BRHLD	38	256	1	96
BRTAP	38	256	3
BRTAP	39	0	4
NMTAP	39	32	2
NMTAP	39	64	3
NMTAP	39	96	2
BRTAP	39	128	5
NMTAP	39	160	3
NMTAP	39	192	4
NMTAP	39	224	3
BRTAP	39	256	6
NMTAP	39	288	4
NMTAP	39	320	5
NMTAP	39	352	4
BRTAP	40	0	7
NMTAP	40	96	1
NMTAP	40	96	5
NMTAP	40	144	2
NMTAP	40	168	3
NMTAP	40	216	5
NMTAP	40	240	4
NMTAP	40	288	3
NMTAP	40	288	6
NMTAP	40	336	2
NMTAP	40	336	7
NMTAP	41	0	1
NMTAP	41	24	0
NMTAP	41	48	2
NMTAP	41	96	3
NMTAP	41	96	7
NMTAP	41	144	6
NMTAP	41	168	4
NMTAP	41	216	4
NMHLD	41	240	6	48
NMTAP	41	288	4
NMTAP	41	312	5
NMTAP	41	336	3
NMTAP	41	360	4
NMTAP	42	0	2
NMTAP	42	24	3
NMTAP	42	48	1
NMTAP	42	96	0
NMTAP	42	96	4
NMTAP	42	144	6
NMTAP	42	168	7
NMTAP	42	216	1
NMTAP	42	240	0
NMTAP	42	288	2
NMSTR	42	288	7
NMSI_	42	288	7	96	48	3
NMSTR	42	336	3
NMSI_	42	336	3	96	48	0
NMTAP	42	336	6
CNSI_	43	96	0	0	48	4
CNSI_	43	144	4	0	48	6
NMSTR	43	192	7
NMSF_	43	192	7	96	48	3
NMTAP	43	288	7
BRTAP	44	0	1
BRTAP	44	0	5
NMTAP	44	96	2
NMTAP	44	120	4
NMTAP	44	144	3
NMTAP	44	168	5
NMTAP	44	216	5
NMTAP	44	264	1
NMTAP	44	288	7
NMTAP	44	336	2
NMTAP	44	336	6
NMTAP	45	0	5
NMTAP	45	24	3
NMTAP	45	48	4
NMTAP	45	96	4
NMTAP	45	120	3
NMTAP	45	144	5
NMTAP	45	168	2
NMTAP	45	216	2
NMTAP	45	264	7
NMSTR	45	288	0
NMSCR	45	288	0	96	48	3
NMHLD	45	336	6	48
NMTAP	45	336	7
NMTAP	46	0	0
NMTAP	46	96	5
NMTAP	46	120	4
NMTAP	46	144	6
NMTAP	46	168	3
NMTAP	46	216	3
NMTAP	46	264	0
NMTAP	46	288	1
NMTAP	46	336	2
NMTAP	46	336	7
BRHLD	47	0	6	48
BRHLD	47	72	5	48
BRHLD	47	72	7	48
BRTAP	47	144	0
BRTAP	47	144	4
NMTAP	47	192	1
NMTAP	47	216	3
NMTAP	47	240	2
NMTAP	47	264	4
NMTAP	47	288	3
NMTAP	47	312	5
NMTAP	47	336	4
NMTAP	47	360	6
BRTAP	48	0	0
NMTAP	48	96	1
NMTAP	48	96	4
NMTAP	48	144	2
NMTAP	48	168	3
NMTAP	48	192	2
NMTAP	48	240	2
NMTAP	48	264	3
NMSTR	48	288	1
NMSI_	48	288	1	96	48	3
NMTAP	48	336	0
NMTAP	49	0	4
NMTAP	49	16	5
NMTAP	49	32	6
CNSI_	49	48	3	0	48	0
NMTAP	49	48	7
CNSI_	49	96	0	0	48	4
NMTAP	49	96	7
NMTAP	49	144	7
NMTAP	49	192	6
NMTAP	49	240	6
NMTAP	49	264	4
NMTAP	49	288	5
NMTAP	49	336	5
NMTAP	49	360	4
NMTAP	50	0	6
NMTAP	50	48	6
NMTAP	50	72	4
NMTAP	50	96	5
NMTAP	50	144	5
NMTTP	50	192	2	E	0	M1
NMHLD	50	192	5	48
NMTTP	50	208	1	B	0	M1
NMTTP	50	224	0	B	0	M1
NMTTP	50	240	0	E	0	M1
NMTAP	50	288	4
NMTAP	50	288	5
NMTAP	50	336	3
NMTAP	50	336	6
NMTAP	51	0	2
NMTAP	51	0	7
NMTAP	51	48	1
NMTAP	51	72	0
NMTAP	51	96	3
NMTAP	51	144	5
NMTAP	51	168	4
NMSTR	51	192	7
NMSI_	51	192	7	96	48	2
NMSI_	51	192	7	96	48	4
NMTAP	51	288	7
BRTAP	52	0	1
BRTAP	52	0	5
NMTAP	52	96	1
NMTAP	52	96	4
NMTAP	52	144	2
NMTAP	52	168	3
NMTAP	52	192	2
NMTAP	52	240	2
NMTAP	52	264	1
NMTAP	52	288	2
NMTAP	52	336	2
NMTAP	52	360	3
NMTAP	53	0	1
NMTAP	53	48	1
NMTAP	53	72	0
NMTAP	53	96	1
NMTAP	53	144	1
NMTAP	53	168	2
NMTAP	53	192	1
NMTAP	53	240	1
NMTAP	53	264	0
NMTAP	53	288	2
NMTAP	53	336	3
NMTAP	53	336	7
NMTAP	54	0	4
NMTAP	54	0	6
NMTAP	54	48	6
NMTAP	54	72	5
NMTAP	54	96	6
NMTAP	54	144	6
NMTAP	54	168	7
NMTAP	54	192	6
NMTAP	54	240	6
NMTAP	54	264	4
NMTAP	54	288	6
NMTAP	54	336	3
NMTAP	54	336	5
BRHLD	55	0	2	48
BRHLD	55	0	6	48
BRHLD	55	72	4	48
BRHLD	55	72	5	48
BRTAP	55	144	2
BRTAP	55	144	3
BRTAP	55	192	0
NMTTP	55	192	0	C	1	M1
NMTAP	55	288	1
NMTAP	55	288	7
NMTAP	55	320	2
NMTAP	55	320	6
NMTAP	55	352	3
NMTAP	55	352	5
NMSTR	56	0	4
NMSI_	56	0	4	96	48	2
NMSCR	56	0	4	96	48	7
BRTAP	56	96	4
NMTAP	56	192	1
NMTAP	56	216	0
NMTAP	56	240	1
NMTAP	56	264	0
NMTAP	56	288	2
NMTAP	56	312	0
NMTAP	56	336	1
NMTAP	56	360	0
NMTAP	57	0	1
NMTAP	57	0	7
NMTAP	57	48	1
NMTAP	57	48	7
NMTAP	57	64	2
NMTAP	57	80	3
NMTAP	57	96	0
NMTAP	57	112	7
NMTAP	57	128	6
NMTAP	57	144	0
NMTAP	57	160	1
NMTAP	57	176	2
NMTAP	57	192	7
NMTAP	57	208	6
NMTAP	57	224	5
NMTAP	57	240	7
NMTAP	57	256	0
NMTAP	57	272	1
NMTAP	57	288	2
NMSTR	57	288	3
NMSI_	57	288	3	96	48	7
BRSTR	58	0	3
NMSI_	58	0	3	96	48	5
NMSCL	58	0	3	96	48	0
NMTAP	58	96	3
NMTAP	58	192	6
NMTAP	58	216	7
NMTAP	58	240	6
NMTAP	58	264	7
NMTAP	58	288	5
NMTAP	58	312	7
NMTAP	58	336	6
NMTAP	58	360	7
NMTAP	59	0	0
NMTAP	59	0	6
NMTAP	59	48	0
NMTAP	59	48	6
NMTAP	59	64	1
NMTAP	59	80	2
NMTAP	59	96	7
NMTAP	59	112	6
NMTAP	59	128	5
NMTAP	59	144	1
NMTAP	59	160	2
NMTAP	59	176	3
NMSTR	59	192	4
NMSF_	59	192	4	96	48	0
NMTAP	59	192	5
NMTAP	59	288	4
BRTAP	60	0	2
BRTAP	60	0	6
NMTAP	60	48	2
NMTAP	60	96	2
NMTAP	60	120	4
NMTAP	60	144	2
NMTAP	60	168	4
NMTAP	60	192	2
NMTAP	60	216	3
NMTAP	60	240	2
NMTAP	60	264	3
NMTAP	60	288	2
NMTAP	60	312	2
NMTAP	60	336	2
NMTAP	60	360	2
BRTAP	61	0	2
NMTAP	61	48	1
NMTAP	61	72	0
NMSTR	61	96	2
NMSI_	61	96	2	96	48	4
NMTAP	61	144	3
NMTAP	61	144	7
NMTAP	61	192	5
CNSCL	61	240	4	0	48	1
NMTAP	61	240	6
NMHLD	61	288	7	96
BRTAP	62	0	0
NMTAP	62	48	0
NMTAP	62	48	7
NMTAP	62	96	0
NMTAP	62	96	7
NMTAP	62	144	0
NMTAP	62	144	7
NMTAP	62	156	1
NMTAP	62	168	2
NMTAP	62	180	3
BRTAP	62	192	6
NMTAP	62	216	5
NMTAP	62	240	6
NMTAP	62	264	5
NMTAP	62	288	6
NMTAP	62	312	6
NMTAP	62	336	6
NMTAP	62	360	6
BRHLD	63	0	6	48
NMTAP	63	48	7
NMHLD	63	72	5	48
NMTAP	63	120	0
NMHLD	63	144	4	48
BRTAP	63	192	1
NMTAP	63	216	3
NMTAP	63	240	2
NMTAP	63	264	4
NMTAP	63	288	2
NMTAP	63	312	3
NMTAP	63	336	1
NMTAP	63	360	4
BRHLD	64	0	0	672
NMTAP	65	288	5
NMHLD	66	0	6	768
NMTAP	67	288	3
NMHLD	68	0	2	768
NMTAP	69	0	4
NMTAP	69	288	3
NMHLD	70	0	5	384
NMSTR	71	0	0
NMSI_	71	0	0	96	96	3
NMSCL	71	0	0	96	48	7
CNSI_	71	144	7	0	48	4
CNSI_	71	192	3	0	96	0
CNSI_	71	192	4	0	96	7
NMTAP	72	0	0
NMTAP	72	48	0
NMTAP	72	96	1
NMHLD	72	96	7	672
NMTAP	72	240	3
NMTAP	73	0	5
NMTAP	73	144	3
NMTAP	73	288	2
BRTAP	74	0	0
NMTAP	74	48	0
NMHLD	74	96	1	576
NMTAP	74	96	7
NMTAP	74	240	3
NMTAP	75	0	4
NMTAP	75	144	2
NMSTR	75	288	3
NMSCR	75	288	3	96	960	2
NMHLD	76	0	2	288
NMHLD	77	0	3	288
NMTAP	78	0	3
NMTAP	78	96	3
NMTAP	78	192	4
NMTAP	78	240	4
NMTAP	78	288	5
NMTAP	78	336	5
NMTAP	79	0	5
NMTAP	79	24	4
NMTAP	79	48	5
NMTAP	79	72	4
NMTAP	79	96	6
NMTAP	79	120	3
NMTAP	79	144	7
NMTAP	79	168	2
NMTAP	79	192	0
NMTAP	79	216	1
NMTAP	79	240	0
NMTAP	79	264	1
NMTAP	79	288	7
NMTAP	79	300	6
NMTAP	79	312	5
NMTAP	79	324	4
NMTAP	79	336	3
NMTAP	79	348	2
NMTAP	79	360	1
NMTAP	79	372	0
BRTAP	80	0	3
BRHLD	80	0	7	96
NMTAP	80	96	0
NMTAP	80	144	1
NMTAP	80	144	7
NMTAP	80	192	2
NMSTR	80	192	6
NMSCL	80	192	6	96	48	3
NMSTR	80	240	3
NMSI_	80	240	3	96	48	7
NMTAP	80	288	2
NMTAP	80	312	1
NMTAP	80	336	0
NMTAP	81	0	0
CNSI_	81	0	7	0	48	5
NMTAP	81	24	1
NMSTR	81	48	2
NMSI_	81	48	2	96	48	4
NMTAP	81	96	1
NMSTR	81	96	4
NMSI_	81	96	4	96	48	0
NMTAP	81	144	5
NMSTR	81	192	6
NMSI_	81	192	6	96	48	2
CNSCL	81	240	0	0	48	6
NMTAP	81	240	5
NMTAP	81	288	4
NMSTR	81	336	3
NMSCR	81	336	3	96	112	7
NMTAP	82	48	0
NMTAP	82	96	0
NMTAP	82	120	1
NMTAP	82	144	2
NMTAP	82	168	3
NMTAP	82	192	0
NMTAP	82	216	1
NMTAP	82	240	2
NMTAP	82	264	3
NMTAP	82	288	0
NMSTR	82	288	4
NMSI_	82	288	4	96	48	0
NMTAP	82	336	2
NMTAP	82	336	6
NMTAP	83	0	6
CNSI_	83	48	0	0	48	2
NMTAP	83	48	7
CNSI_	83	96	2	0	48	5
NMTAP	83	96	7
NMHLD	83	144	6	96
NMTAP	83	240	4
NMTAP	83	264	5
NMTAP	83	288	3
NMTAP	83	312	4
NMTAP	83	336	2
NMTAP	83	360	3
BRHLD	84	0	0	96
BRTAP	84	0	4
NMTAP	84	96	7
NMTAP	84	144	0
NMTAP	84	144	6
NMSTR	84	192	1
NMSCR	84	192	1	96	48	4
NMTAP	84	192	5
NMSTR	84	240	4
NMSI_	84	240	4	96	48	0
NMTAP	84	288	5
NMTAP	84	312	6
NMTAP	84	336	7
CNSI_	85	0	0	0	48	2
NMTAP	85	0	7
NMTAP	85	24	6
NMSTR	85	48	5
NMSI_	85	48	5	96	48	3
NMSTR	85	96	3
NMSI_	85	96	3	96	48	7
NMTAP	85	96	6
NMTAP	85	144	2
NMSTR	85	192	1
NMSI_	85	192	1	96	48	5
NMTAP	85	240	2
CNSCR	85	240	7	0	48	1
NMTAP	85	288	3
NMSTR	85	336	4
NMSCL	85	336	4	96	112	0
NMTAP	86	48	7
NMTAP	86	96	7
NMTAP	86	120	6
NMTAP	86	144	5
NMTAP	86	168	4
NMTAP	86	192	7
NMTAP	86	216	6
NMTAP	86	240	5
NMTAP	86	264	4
NMTAP	86	288	3
NMTAP	86	288	7
BRTAP	87	0	1
BRTAP	87	0	5
NMTAP	87	48	2
BRTAP	87	72	1
BRTAP	87	72	3
NMTAP	87	120	5
BRTAP	87	144	4
BRTAP	87	144	6
BRSTR	87	192	3
BRSI_	87	192	3	96	48	7
BRTAP	87	192	7
BRTAP	87	288	3
BRHLD	87	288	6	96
BRTAP	88	0	0
NMTAP	88	12	1
NMTAP	88	12	5
NMTAP	88	24	2
NMTAP	88	24	4
NMTAP	88	36	3
BRTAP	88	96	2
BRTAP	88	96	7
NMTAP	88	192	1
NMTAP	88	208	0
NMTAP	88	224	1
NMTAP	88	240	0
NMTAP	88	256	1
NMTAP	88	272	0
NMSTR	88	288	1
BRSI_	88	288	1	96	48	5
NMTAP	88	336	7
BRTAP	89	0	1
NMSTR	89	0	5
NMSI_	89	0	5	96	48	1
NMSTR	89	96	0
NMSI_	89	96	0	96	48	4
NMTAP	89	120	7
NMTAP	89	144	6
NMTAP	89	168	5
NMSTR	89	192	4
NMSI_	89	192	4	96	48	1
NMTAP	89	216	5
NMTAP	89	240	6
NMTAP	89	264	7
NMSTR	89	288	0
BRSI_	89	288	0	96	48	5
NMTAP	90	0	0
BRSTR	90	0	7
NMSI_	90	0	7	96	48	2
NMSCL	90	0	7	96	48	4
NMSTR	90	96	7
NMSI_	90	96	7	96	48	3
NMSTR	90	192	3
NMSI_	90	192	3	96	48	7
NMTAP	90	192	7
NMTAP	90	240	2
NMSTR	90	288	1
NMSI_	90	288	1	96	48	5
NMTAP	90	336	0
NMTAP	91	0	1
CNSCL	91	48	5	0	48	2
CNSI_	91	96	2	0	48	7
NMTAP	91	96	7
NMHLD	91	144	6	96
NMTAP	91	240	7
NMTAP	91	288	0
NMTAP	91	288	5
BRTAP	92	0	1
NMTAP	92	24	1
NMTAP	92	48	3
NMTAP	92	72	2
NMTAP	92	96	6
NMTAP	92	120	6
NMTAP	92	144	4
NMTAP	92	168	5
NMTAP	92	192	3
NMTAP	92	216	4
NMTAP	92	240	2
NMTAP	92	264	3
NMHLD	92	288	0	96
BRTAP	93	0	6
NMTAP	93	24	6
NMTAP	93	48	4
NMTAP	93	72	5
NMTAP	93	96	1
NMTAP	93	120	1
NMTAP	93	144	3
NMTAP	93	168	2
NMTAP	93	192	6
NMTAP	93	216	6
NMTAP	93	240	0
NMTAP	93	264	0
NMTAP	93	288	1
NMHLD	93	288	7	96
BRTAP	94	0	0
NMTAP	94	12	1
NMTAP	94	24	2
NMTAP	94	36	3
NMTAP	94	48	6
NMTAP	94	60	5
NMTAP	94	72	4
NMTAP	94	84	3
NMTAP	94	96	0
NMTAP	94	120	0
NMTAP	94	144	6
NMTAP	94	168	6
BRTAP	94	192	1
NMTAP	94	204	2
NMTAP	94	216	3
NMTAP	94	228	4
NMTAP	94	240	7
NMTAP	94	252	6
NMTAP	94	264	5
NMTAP	94	276	4
NMTAP	94	288	0
NMTAP	94	312	0
NMTAP	94	336	6
NMTAP	94	360	6
BRTAP	95	0	1
NMTAP	95	24	3
NMTAP	95	48	2
BRTAP	95	72	5
NMTAP	95	96	3
NMTAP	95	120	4
BRTAP	95	144	2
NMTAP	95	168	2
BRTAP	95	192	6
NMTAP	95	208	5
NMTAP	95	224	4
NMTAP	95	240	3
NMTAP	95	256	2
NMTAP	95	272	1
NMTAP	95	288	0
BRTAP	95	288	3
NMTAP	95	304	4
NMTAP	95	320	5
NMTAP	95	336	6
NMTAP	95	352	7
NMTAP	95	368	0
NMSTR	96	0	1
BRSI_	96	0	1	96	48	6
NMSTR	96	0	5
BRSI_	96	0	5	96	48	2
NMTTP	96	96	0	E	0	M1
BRTAP	96	96	1
NMTTP	96	96	4	E	0	M1
BRTAP	96	96	5
NMTTP	96	97	0	C	1	M1
NMTAP	96	288	0
NMTAP	96	288	4
NMTAP	96	312	1
NMTAP	96	312	5
NMTAP	96	336	2
NMTAP	96	336	6
NMTAP	96	360	3
NMTAP	96	360	7
NMSTR	97	0	0
NMSCL	97	0	0	96	48	5
NMSTR	97	0	4
NMSCL	97	0	4	96	48	1
NMTAP	97	96	0
NMTAP	97	96	4
NMTAP	97	192	0
NMTAP	97	192	4
NMTAP	97	264	2
NMTAP	97	264	3
NMTAP	97	336	4
NMTAP	97	336	5
NMTTP	98	0	1	B	0	M1
NMTTP	98	0	1	A	0	M1
NMTTP	98	0	2	B	0	M1
NMTTP	98	0	2	E	1	M1
NMTTP	98	0	2	A	0	M1
NMTTP	98	0	2	D	0	M1
BRTAP	98	0	7
NMTAP	100	0	3
NMTAP	100	192	3
NMTAP	101	0	3
NMTAP	101	192	3
NMTAP	101	288	4
NMHLD	102	0	3	144
NMTAP	102	0	5
NMHLD	102	192	3	144
NMTAP	102	192	5
NMHLD	103	0	3	144
NMTAP	103	0	5
NMTAP	103	192	3
NMTAP	103	192	5
NMTAP	103	288	2
NMTAP	103	288	4
NMTAP	104	0	1
NMHLD	104	0	3	144
NMTAP	104	96	1
NMTAP	104	192	1
NMHLD	104	192	3	144
NMTAP	104	288	1
NMTAP	105	0	1
NMHLD	105	0	3	144
NMTAP	105	96	1
NMTAP	105	192	1
NMTAP	105	192	3
NMTAP	105	288	1
NMTAP	105	288	2
NMHLD	106	0	0	96
NMHLD	106	0	1	96
NMHLD	106	192	6	96
NMHLD	106	192	7	96
NMTAP	107	0	1
NMTAP	107	0	2
NMTAP	107	96	5
NMTAP	107	96	6
NMSTR	107	192	3
BRSI_	107	192	3	96	48	0
NMSTR	107	192	4
BRSI_	107	192	4	96	48	7
NMTAP	107	288	3
NMTAP	107	288	4
BRTAP	108	0	1
BRTAP	108	0	6
NMTAP	108	96	2
NMTAP	108	96	3
NMTAP	108	144	3
NMTAP	108	144	4
NMTAP	108	192	4
NMTAP	108	192	5
NMTAP	108	240	5
NMTAP	108	240	6
NMTAP	108	288	6
NMTAP	108	288	7
NMTAP	108	336	0
NMTAP	108	336	7
BRTAP	109	0	0
BRTAP	109	0	1
NMTAP	109	48	7
NMTAP	109	60	6
NMTAP	109	72	5
NMTAP	109	84	4
BRTAP	109	96	2
NMTAP	109	144	7
NMTAP	109	156	6
NMTAP	109	168	5
NMTAP	109	180	4
BRTAP	109	192	1
NMTAP	109	240	7
NMTAP	109	252	6
NMTAP	109	264	5
NMTAP	109	276	4
BRTAP	109	288	0
NMTAP	109	300	1
NMTAP	109	312	2
NMTAP	109	324	3
NMTAP	109	336	4
NMTAP	109	348	5
NMTAP	109	360	6
NMTAP	109	372	7
NMSTR	110	0	0
NMSI_	110	0	0	96	48	2
NMSTR	110	48	0
NMSI_	110	48	0	96	48	6
NMSTR	110	96	0
NMSI_	110	96	0	96	48	3
NMSTR	110	144	0
NMSI_	110	144	0	96	48	5
NMSTR	110	192	0
NMSI_	110	192	0	96	48	4
NMTAP	110	240	0
NMTAP	110	288	0
NMTAP	110	336	6
NMTAP	111	0	3
NMTAP	111	0	7
NMTAP	111	48	3
NMTAP	111	48	7
NMTAP	111	96	4
NMTAP	111	96	6
NMTAP	111	144	3
NMTAP	111	168	5
NMHLD	111	192	0	48
NMTAP	111	240	4
NMTAP	111	264	2
NMHLD	111	288	7	48
NMTAP	111	336	1
NMTAP	111	360	6
NMTAP	112	0	2
NMTAP	112	24	2
NMTAP	112	48	4
NMTAP	112	72	4
NMTAP	112	96	3
NMTAP	112	120	3
NMTAP	112	144	5
NMTAP	112	168	5
NMTAP	112	192	1
NMTAP	112	216	1
NMTAP	112	240	6
NMTAP	112	264	6
NMTAP	112	288	0
NMTAP	112	304	7
NMTAP	112	320	0
NMTAP	112	336	7
NMTAP	112	352	0
NMTAP	112	368	7
NMTAP	113	0	1
NMTAP	113	16	6
NMTAP	113	32	1
NMTAP	113	48	6
NMTAP	113	64	1
NMTAP	113	80	6
NMTAP	113	96	2
NMTAP	113	112	5
NMTAP	113	128	2
NMTAP	113	144	5
NMTAP	113	160	2
NMTAP	113	176	5
NMTAP	113	192	3
NMTAP	113	208	4
NMTAP	113	224	3
NMTAP	113	240	4
NMTAP	113	256	3
NMTAP	113	272	4
BRTAP	113	288	2
BRTAP	113	288	5
NMTAP	114	0	1
BRTAP	114	0	6
NMTAP	114	16	7
NMTAP	114	32	0
NMTAP	114	48	1
NMTAP	114	64	2
NMTAP	114	80	3
NMTAP	114	96	4
NMTAP	114	112	5
NMTAP	114	128	6
BRTAP	114	144	2
NMTAP	114	144	7
NMTAP	114	160	1
NMTAP	114	176	0
NMTAP	114	192	7
NMTAP	114	208	6
NMTAP	114	224	5
NMTAP	114	240	4
NMTAP	114	256	3
NMTAP	114	272	2
NMTAP	114	288	1
BRTAP	114	288	5
NMTAP	114	304	6
NMTAP	114	320	7
NMTAP	114	336	0
NMTAP	114	352	1
NMTAP	114	368	2
NMTAP	115	0	3
NMTAP	115	16	4
NMTAP	115	32	5
BRTAP	115	48	1
NMTAP	115	48	6
NMTAP	115	64	0
NMTAP	115	80	7
NMTAP	115	96	6
NMTAP	115	112	5
NMTAP	115	128	4
BRTAP	115	144	3
NMTAP	115	160	2
NMTAP	115	176	1
BRTAP	115	192	0
NMTAP	115	204	7
NMTAP	115	216	6
NMTAP	115	228	5
BRTAP	115	240	4
NMTAP	115	252	3
NMTAP	115	264	2
NMTAP	115	276	1
BRTAP	115	288	0
NMTAP	115	300	1
NMTAP	115	300	7
NMTAP	115	312	2
NMTAP	115	312	6
NMTAP	115	324	3
NMTAP	115	324	5
BRTAP	115	336	4
NMTAP	115	348	3
NMTAP	115	348	5
NMTAP	115	360	2
NMTAP	115	360	6
NMTAP	115	372	1
NMTAP	115	372	7
NMSTR	116	0	0
NMSF_	116	0	0	96	48	4
BRSTR	116	96	0
NMTTP	116	96	0	B	0	M1
NMTTP	116	96	0	E	0	M1
NMSCL	116	96	0	96	768	0
NMSCR	116	96	0	96	768	0
NMTTP	116	96	1	B	0	M1
NMTTP	116	96	1	E	0	M1
NMTTP	116	96	2	B	0	M1
NMTTP	116	96	2	E	0	M1
NMTTP	116	96	3	B	0	M1
NMTTP	116	96	3	E	0	M1
NMTTP	116	96	4	B	0	M1
NMTTP	116	96	4	E	0	M1
NMTTP	116	96	5	B	0	M1
NMTTP	116	96	5	E	0	M1
NMTTP	116	96	6	B	0	M1
NMTTP	116	96	6	E	0	M1
NMTTP	116	96	7	B	0	M1
NMTTP	116	96	7	E	0	M1
NMTTP	116	97	0	C	1	M1
NMTHO	119	0	0	288	C	0	M1
NMTTP	119	0	1	B	0	M1
NMTTP	119	0	2	B	0	M1
NMTTP	119	0	2	E	0	M1
NMTTP	119	0	5	B	0	M1
NMTTP	119	0	6	B	0	M1
NMTTP	119	0	6	E	0	M1
NMTTP	121	0	0	C	1	M1
NMTHO	121	0	1	96	B	0	M1
NMTHO	121	0	2	96	B	0	M1
NMTHO	121	0	2	96	E	0	M1
NMTHO	121	0	5	96	B	0	M1
NMTHO	121	0	6	96	B	0	M1
NMTHO	121	0	6	96	E	0	M1
NMTTP	121	192	1	D	0	M1
NMTTP	121	204	0	D	0	M1
NMTTP	121	216	7	D	0	M1
NMTTP	121	228	6	D	0	M1
NMTTP	121	240	5	D	0	M1
NMTTP	121	252	4	D	0	M1
NMTTP	121	264	3	D	0	M1
NMTTP	121	276	2	D	0	M1
NMTTP	121	288	1	D	0	M1
NMTAP	122	0	2
NMTAP	122	0	4
NMTAP	122	48	4
NMTAP	122	72	1
NMTAP	122	96	4
NMTAP	122	144	0
NMTAP	122	144	4
NMTAP	122	192	5
NMTAP	122	192	7
NMTAP	122	240	5
NMTAP	122	240	7
NMTAP	122	252	0
NMTAP	122	264	1
NMTAP	122	276	2
NMTAP	122	288	3
NMTAP	122	288	5
NMTAP	122	336	5
BRTAP	123	0	3
NMTAP	123	0	6
NMTAP	123	48	6
NMTAP	123	72	3
NMTAP	123	96	6
NMTAP	123	144	3
NMTAP	123	144	6
NMTAP	123	192	3
NMTAP	123	192	7
NMTAP	123	204	2
NMTAP	123	216	1
NMTAP	123	228	0
NMTAP	123	240	7
NMTAP	123	252	6
NMTAP	123	264	5
NMTAP	123	276	4
NMTAP	123	288	3
NMTAP	123	288	7
NMTAP	124	0	0
NMTAP	124	48	0
NMTAP	124	72	2
NMTAP	124	96	0
NMTAP	124	144	0
NMTAP	124	168	1
NMSTR	124	192	0
BRSCL	124	192	0	96	48	5
BRSCR	124	192	0	96	48	3
NMTAP	124	288	0
NMTTP	125	0	0	C	1	M1
NMTHO	125	0	1	144	B	0	M1
NMTHO	125	0	2	144	B	0	M1
NMTHO	125	0	2	144	E	0	M1
NMTHO	125	0	5	72	B	0	M1
NMTHO	125	0	6	72	B	0	M1
NMTHO	125	0	6	72	E	0	M1
NMTTP	125	192	7	D	0	M1
NMTTP	125	204	0	D	0	M1
NMTTP	125	216	1	D	0	M1
NMTTP	125	228	2	D	0	M1
NMTTP	125	240	3	D	0	M1
NMTTP	125	252	4	D	0	M1
NMTTP	125	264	5	D	0	M1
NMTTP	125	276	6	D	0	M1
NMTTP	125	288	7	D	0	M1
NMTAP	126	0	3
BRTAP	126	0	4
NMTAP	126	48	3
NMTAP	126	72	5
NMTAP	126	96	3
NMTAP	126	144	3
NMTAP	126	144	6
NMTAP	126	192	2
NMTAP	126	192	7
NMTAP	126	240	0
NMTAP	126	240	2
NMTAP	126	252	7
NMTAP	126	264	6
NMTAP	126	276	5
NMTAP	126	288	2
NMTAP	126	288	4
NMTAP	126	336	2
NMTAP	127	0	1
BRTAP	127	0	4
NMTAP	127	48	1
NMTAP	127	72	4
NMTAP	127	96	1
NMTAP	127	144	1
NMTAP	127	144	4
NMTAP	127	192	0
BRTAP	127	192	4
NMTAP	127	204	5
NMTAP	127	216	6
NMTAP	127	228	7
NMTAP	127	240	0
NMTAP	127	252	1
NMTAP	127	264	2
NMTAP	127	276	3
NMSTR	127	288	0
NMSI_	127	288	0	96	48	5
NMTAP	127	288	4
BRSTR	128	0	0
NMSI_	128	0	0	96	48	4
NMTAP	128	0	5
NMTAP	128	72	3
BRSTR	128	96	0
NMSCR	128	96	0	96	72	4
NMTAP	128	144	6
BRTAP	128	192	0
NMTTP	128	288	0	E	1	M1
NMTTP	128	288	7	B	0	M1
NMTTP	128	320	3	B	0	M1
NMTTP	128	320	4	E	1	M1
NMTTP	128	352	5	B	0	M1
NMTTP	128	352	6	E	1	M1
NMTTP	129	0	1	B	0	M1
NMTTP	129	0	2	E	1	M1
NMHLD	129	48	0	48
NMHLD	129	120	0	48
NMHLD	129	192	1	48
NMHLD	129	192	7	48
NMHLD	129	264	1	48
NMHLD	129	264	7	48
NMTAP	129	336	1
NMTAP	129	336	7
NMTAP	129	352	2
NMTAP	129	368	3
NMHLD	130	0	4	144
NMTAP	130	96	0
NMTAP	130	112	7
NMTAP	130	128	6
NMHLD	130	144	5	96
NMTAP	130	240	3
NMTAP	130	288	7
NMTAP	130	312	0
NMTAP	130	336	7
NMTAP	130	360	0
BRSTR	131	0	7
NMSCL	131	0	7	96	48	4
NMTAP	131	96	3
NMTAP	131	112	2
NMTAP	131	128	1
NMHLD	131	144	0	96
NMTAP	131	240	4
NMTAP	131	256	1
NMTAP	131	256	5
NMTAP	131	272	2
NMTAP	131	272	6
NMTAP	131	288	3
NMTAP	131	288	7
NMTAP	132	0	0
NMTHO	132	0	5	96	B	0	M1
NMTHO	132	0	6	96	B	0	M1
NMTHO	132	0	6	96	E	0	M1
NMTAP	132	96	0
NMTAP	132	108	1
NMTAP	132	120	2
NMTAP	132	132	3
NMTAP	132	144	4
NMTHO	132	192	1	96	B	0	M1
NMTHO	132	192	2	96	B	0	M1
NMTHO	132	192	2	96	E	0	M1
NMTAP	132	192	7
NMTAP	132	288	7
NMTAP	132	300	6
NMTAP	132	312	5
NMTAP	132	324	4
NMTAP	132	336	3
NMTAP	133	0	0
BRSTR	133	0	7
NMSI_	133	0	7	96	144	3
NMTAP	133	72	3
NMTAP	133	96	3
NMTAP	133	144	2
NMTAP	133	192	2
NMTAP	133	240	2
NMTAP	133	288	1
NMTAP	133	312	3
NMTAP	133	336	1
NMTAP	133	360	3
BRHLD	134	0	0	96
NMTAP	134	72	7
NMTAP	134	96	7
NMTAP	134	144	0
NMTAP	134	192	0
NMTAP	134	192	1
NMTAP	134	240	0
NMTAP	134	240	1
NMTAP	134	252	7
NMTAP	134	264	6
NMTAP	134	276	5
NMTAP	134	288	2
NMTAP	134	312	3
NMTAP	134	336	2
NMTAP	134	360	3
BRTAP	135	0	0
NMTAP	135	96	1
NMTAP	135	96	7
NMTAP	135	144	1
NMTAP	135	144	7
NMTAP	135	156	2
NMTAP	135	168	3
NMTAP	135	180	4
NMHLD	135	192	5	64
NMTAP	135	256	6
NMTAP	135	272	5
NMTAP	135	288	6
NMTAP	135	304	5
NMTAP	135	320	6
NMTAP	135	336	5
NMTAP	135	352	6
NMTAP	135	368	5
NMTAP	136	0	6
NMTAP	136	16	5
NMTAP	136	32	6
NMTAP	136	48	5
NMTAP	136	64	6
NMTAP	136	80	5
NMTAP	136	96	6
NMTAP	136	112	5
NMTAP	136	128	6
NMTAP	136	144	5
NMTAP	136	160	6
NMTAP	136	176	5
BRHLD	136	192	7	48
BRHLD	136	264	0	48
BRHLD	136	264	6	48
BRTAP	136	336	1
BRTAP	136	336	5
BRTAP	137	0	2
BRTAP	137	0	4
NMTAP	137	48	1
NMTAP	137	72	3
NMTAP	137	96	2
NMTAP	137	120	6
NMTAP	137	144	4
NMTAP	137	168	5
NMTAP	137	192	0
NMTAP	137	208	7
NMTAP	137	224	0
NMTAP	137	240	7
NMTAP	137	256	1
NMTAP	137	272	6
NMTAP	137	288	2
NMTAP	137	304	5
NMTAP	137	320	3
NMTAP	137	336	4
NMTAP	137	352	3
NMTAP	137	368	4
NMTAP	138	0	3
NMTAP	138	24	6
NMTAP	138	48	4
NMTAP	138	72	5
NMSTR	138	96	2
NMSCL	138	96	2	96	96	5
NMHLD	138	192	4	144
CNSCR	138	288	5	0	96	2
NMTAP	139	48	4
NMTAP	139	72	4
NMTAP	139	96	3
NMTAP	139	120	5
NMTAP	139	144	2
NMTAP	139	168	2
NMHLD	139	192	3	24
NMHLD	139	216	1	24
NMHLD	139	240	3	24
NMHLD	139	264	1	24
NMSTR	139	288	7
NMSI_	139	288	7	96	48	1
NMHLD	139	312	0	24
NMHLD	139	336	7	24
NMHLD	139	360	0	24
CNSI_	140	48	1	0	48	6
CNSI_	140	96	6	0	48	2
CNSI_	140	144	2	0	48	5
CNSI_	140	192	5	0	48	3
NMSTR	140	192	7
NMSF_	140	192	7	96	48	3
CNSI_	140	240	3	0	48	7
BRTAP	141	0	0
BRTAP	141	0	6
NMTAP	145	0	3
NMTAP	145	0	4
NMTAP	145	96	2
NMTAP	145	120	4
NMTAP	145	144	2
NMTAP	145	168	4
NMTAP	145	192	2
NMTAP	145	216	4
NMTAP	145	240	2
NMTAP	145	264	4
NMTAP	145	288	1
NMTAP	145	312	5
NMTAP	145	336	1
NMTAP	145	360	5
NMTAP	146	0	0
NMTAP	146	24	6
NMTAP	146	48	0
NMTAP	146	72	6
NMTAP	146	96	0
NMTAP	146	120	6
NMTAP	146	144	0
NMTAP	146	168	6
NMTAP	146	192	7
NMTAP	146	216	7
NMTAP	146	240	7
NMTAP	146	264	7
NMTAP	146	288	7
NMTAP	146	312	7
NMTAP	146	336	7
NMTAP	146	360	7
NMTAP	147	0	0
NMTAP	147	12	1
NMTAP	147	24	2
NMTAP	147	48	7
NMTAP	147	72	7
NMTAP	147	96	7
NMTAP	147	120	7
NMTAP	147	144	7
NMTAP	147	168	7
NMTAP	147	192	6
NMTAP	147	204	5
NMTAP	147	216	4
NMTAP	147	240	7
NMTAP	147	264	7
NMTAP	147	288	7
NMTAP	147	312	7
NMTAP	147	336	7
NMTAP	147	360	7
NMTAP	148	0	0
NMTAP	148	12	1
NMTAP	148	24	2
NMTAP	148	48	7
NMTAP	148	72	7
NMTAP	148	96	6
NMTAP	148	108	5
NMTAP	148	120	4
NMTAP	148	144	7
NMTAP	148	168	7
NMTAP	148	192	0
NMTAP	148	204	1
NMTAP	148	216	2
NMTAP	148	240	6
NMTAP	148	252	5
NMTAP	148	264	4
BRTAP	148	288	0
BRTAP	149	0	2
BRTAP	149	0	6
NMSTR	149	48	5
NMSI_	149	48	5	96	48	1
NMTAP	149	72	3
NMTAP	149	96	7
NMTAP	149	144	2
NMTAP	149	192	0
CNSI_	149	192	1	0	24	3
CNSCR	149	216	3	0	72	7
NMTAP	149	240	0
NMSTR	149	288	0
NMSI_	149	288	0	96	48	3
NMTAP	149	336	6
NMTAP	149	360	6
NMSTR	150	0	0
NMSI_	150	0	0	96	48	5
NMTAP	150	48	4
NMTAP	150	72	4
NMSTR	150	96	0
NMSI_	150	96	0	96	48	4
NMTAP	150	144	3
NMTAP	150	168	3
NMTAP	150	192	0
NMSTR	150	288	2
NMSV_	150	288	2	96	48	1
NMTAP	150	312	3
NMSTR	150	336	1
NMSLR	150	336	1	96	72	5
NMTAP	150	360	3
BRTAP	151	0	2
NMTAP	151	48	6
NMTAP	151	96	7
NMTAP	151	144	7
NMSTR	151	192	5
NMSI_	151	192	5	96	48	0
NMTAP	151	240	4
NMTAP	151	240	6
NMTAP	151	288	5
NMTAP	151	336	3
NMSTR	152	0	1
NMSI_	152	0	1	96	48	4
NMTAP	152	48	0
NMTAP	152	48	2
NMTAP	152	96	1
NMSTR	152	96	7
NMSI_	152	96	7	96	48	3
NMTAP	152	144	5
NMTAP	152	192	3
NMTAP	152	288	2
NMTAP	152	288	4
NMTTP	153	0	0	B	0	M1
NMTTP	153	0	1	B	0	M1
NMTTP	153	0	1	E	0	M1
BRHLD	153	0	6	48
NMTHO	153	72	4	48	A	0	M1
NMTHO	153	72	5	48	A	0	M1
NMTHO	153	72	5	48	D	0	M1
BRHLD	153	72	6	48
NMTTP	153	144	0	A	0	M1
NMTTP	153	144	1	A	0	M1
NMTTP	153	144	1	D	0	M1
BRHLD	153	144	6	48
NMTHO	153	216	4	48	B	0	M1
NMTHO	153	216	5	48	B	0	M1
NMTHO	153	216	5	48	E	0	M1
BRHLD	153	216	6	48
NMTTP	153	288	0	C	1	M1
BRTAP	153	288	7
BRHLD	154	0	1	48
NMTTP	154	0	6	B	0	M1
NMTTP	154	0	7	B	0	M1
NMTTP	154	0	7	E	0	M1
BRHLD	154	72	1	48
NMTHO	154	72	2	48	A	0	M1
NMTHO	154	72	3	48	A	0	M1
NMTHO	154	72	3	48	D	0	M1
BRHLD	154	144	1	48
NMTTP	154	144	6	A	0	M1
NMTTP	154	144	7	A	0	M1
NMTTP	154	144	7	D	0	M1
BRHLD	154	216	1	48
NMTHO	154	216	2	48	B	0	M1
NMTHO	154	216	3	48	B	0	M1
NMTHO	154	216	3	48	E	0	M1
BRTAP	154	288	0
NMTTP	154	288	0	C	1	M1
BRTAP	154	336	0
BRHLD	155	0	5	48
NMHLD	155	0	7	48
NMTHO	155	72	3	48	B	0	M1
NMTHO	155	72	4	48	B	0	M1
NMTHO	155	72	4	48	E	0	M1
NMTHO	155	72	4	48	D	0	M1
BRHLD	155	72	5	48
BRHLD	155	144	5	48
NMHLD	155	144	7	48
NMTHO	155	216	0	48	B	0	M1
NMTHO	155	216	1	48	B	0	M1
NMTHO	155	216	1	48	E	0	M1
NMTHO	155	216	1	48	D	0	M1
BRHLD	155	216	5	48
BRTAP	155	288	6
BRTAP	155	288	7
NMTAP	156	0	6
NMTAP	156	0	7
NMTAP	156	24	5
NMTAP	156	48	4
NMTAP	156	72	3
NMSTR	156	96	6
NMSCL	156	96	6	96	120	1
NMSTR	156	120	5
BRSCL	156	120	5	96	120	0
NMSTR	156	144	4
NMSCL	156	144	4	96	120	7
NMSTR	156	168	3
BRSCL	156	168	3	96	120	6
NMTTP	156	192	6	A	0	M1
NMTTP	156	216	5	A	0	M1
NMTTP	156	240	4	A	0	M1
NMTTP	156	264	3	A	0	M1
NMTTP	156	288	2	A	0	M1
NMTAP	156	288	6
NMTTP	156	312	1	A	0	M1
NMTAP	156	312	5
NMTTP	156	336	0	A	0	M1
NMTAP	156	336	4
NMTAP	156	360	3
NMTTP	156	360	7	A	0	M1
BRSTR	157	0	2
BRSF_	157	0	2	96	48	6
NMTTP	157	0	6	A	1	M1
NMTAP	157	192	0
NMTAP	157	208	4
NMTAP	157	224	0
NMTAP	157	240	4
NMTAP	157	256	0
NMTAP	157	272	4
NMTAP	157	288	0
NMTAP	157	336	5
NMHLD	158	0	5	72
NMTAP	158	72	7
NMSTR	158	96	5
BRSI_	158	96	5	96	48	7
NMTAP	158	144	0
NMTAP	158	168	1
NMSTR	158	192	2
BRSCR	158	192	2	96	48	5
NMTAP	158	192	5
NMTAP	158	240	0
NMTAP	158	264	1
NMTAP	158	288	2
NMTAP	158	288	5
NMTAP	158	312	6
NMTAP	158	336	7
NMHLD	159	0	7	48
NMHLD	159	72	5	48
NMHLD	159	72	6	48
NMTAP	159	144	4
NMTAP	159	144	5
NMTAP	159	192	7
NMTAP	159	208	3
NMTAP	159	224	7
NMTAP	159	240	3
NMTAP	159	256	7
NMTAP	159	272	3
NMSTR	159	288	6
BRSI_	159	288	6	96	48	2
NMTAP	159	336	0
NMTAP	160	0	2
NMSTR	160	0	6
BRSCL	160	0	6	96	48	3
NMTAP	160	72	1
NMSTR	160	96	6
BRSCR	160	96	6	96	36	3
NMTAP	160	144	2
NMHLD	160	168	2	24
NMTTP	160	240	4	D	0	M1
NMTTP	160	246	4	A	0	M1
NMTTP	160	252	5	D	0	M1
NMTTP	160	258	5	A	0	M1
NMTTP	160	264	6	D	0	M1
NMTTP	160	270	6	A	0	M1
NMTTP	160	276	7	D	0	M1
NMTTP	160	282	7	A	0	M1
NMTTP	160	288	0	E	0	M1
NMTTP	160	288	0	A	0	M1
NMTTP	160	288	0	D	1	M1
BRTAP	161	0	1
BRTAP	161	0	7
NMTAP	161	72	6
NMTAP	161	96	1
NMTAP	161	144	5
NMTAP	161	192	1
NMTAP	161	204	2
NMTAP	161	216	3
NMTAP	161	228	4
NMTAP	161	240	5
NMTAP	161	252	4
NMTAP	161	264	3
NMTAP	161	276	2
NMTAP	161	288	1
NMTAP	161	336	7
NMTAP	161	360	7
BRTAP	162	0	1
NMTAP	162	72	6
NMTAP	162	96	1
NMTAP	162	144	5
NMTAP	162	168	5
NMTAP	162	192	1
NMTAP	162	240	4
NMTAP	162	256	3
NMTAP	162	272	4
BRTAP	162	288	2
BRTAP	162	320	2
BRTAP	162	352	2
BRTAP	163	0	0
BRTAP	163	32	0
BRTAP	163	64	0
BRTAP	163	96	6
BRTAP	163	128	6
BRTAP	163	160	6
BRTAP	163	192	4
BRTAP	163	224	4
BRTAP	163	256	4
BRTAP	163	288	2
BRTAP	163	320	2
BRTAP	163	352	2
BRTAP	164	0	1
BRTAP	164	0	5
BRTAP	164	32	1
BRTAP	164	32	5
BRTAP	164	64	1
BRTAP	164	64	5
BRTAP	164	96	1
BRTAP	164	96	5
BRTAP	164	128	1
BRTAP	164	128	5
BRTAP	164	160	1
BRTAP	164	160	5
BRSTR	164	192	2
BRSI_	164	192	2	96	48	7
BRSTR	164	192	6
BRSI_	164	192	6	96	48	3
BRTAP	164	224	2
BRTAP	164	224	6
BRTAP	164	256	2
BRTAP	164	256	6
CNSI_	164	336	3	0	48	5
CNSI_	164	336	7	0	48	1
NMTTP	165	0	1	A	0	M1
NMTTP	165	0	1	D	0	M1
NMTTP	165	0	2	D	0	M1
NMTTP	165	0	5	A	1	M1
NMTTP	165	0	5	D	0	M1
NMTTP	165	0	6	D	0	M1
BRSTR	165	96	0
NMSI_	165	96	0	96	48	3
BRTAP	165	96	6
NMSTR	165	192	0
BRSI_	165	192	0	96	48	5
CNSI_	165	240	3	0	48	0
NMTAP	165	240	5
NMTAP	165	288	4
NMTAP	165	336	3
NMSTR	166	0	2
NMSI_	166	0	2	96	48	7
NMSTR	166	48	5
BRSI_	166	48	5	96	48	1
NMSTR	166	96	2
NMSCR	166	96	2	96	48	5
NMSTR	166	144	5
BRSI_	166	144	5	96	48	2
NMSTR	166	192	2
NMSF_	166	192	2	96	48	6
NMTTP	167	0	0	A	0	M1
NMTTP	167	0	0	D	0	M1
NMTTP	167	0	1	D	0	M1
NMTTP	167	0	4	A	1	M1
NMTTP	167	0	4	D	0	M1
NMTTP	167	0	5	D	0	M1
BRTAP	167	96	1
BRSTR	167	96	7
BRSI_	167	96	7	96	48	4
NMSTR	167	192	7
NMSI_	167	192	7	96	48	2
NMTAP	167	240	2
CNSI_	167	240	4	0	48	7
NMTAP	167	288	3
NMTAP	167	336	4
NMSTR	168	0	5
NMSI_	168	0	5	96	48	0
NMSTR	168	48	2
BRSI_	168	48	2	96	48	6
NMSTR	168	96	5
NMSCL	168	96	5	96	48	2
NMSTR	168	144	2
BRSI_	168	144	2	96	48	5
NMSTR	168	192	5
NMSF_	168	192	5	96	48	1
BRTAP	169	0	3
BRTAP	169	0	7
NMTAP	169	48	6
NMTAP	169	72	4
NMTAP	169	96	6
NMTAP	169	120	4
NMTAP	169	144	6
NMTAP	169	168	4
NMTAP	169	192	5
NMTAP	169	216	4
NMTAP	169	240	3
NMTAP	169	264	4
NMTAP	169	288	2
NMTAP	169	312	4
NMTAP	169	336	1
NMTAP	169	360	4
BRTAP	170	0	0
NMTAP	170	24	3
NMTAP	170	48	7
NMTAP	170	72	2
NMTAP	170	96	6
NMTAP	170	120	1
NMTAP	170	144	5
NMTAP	170	168	0
NMTAP	170	192	4
NMTAP	170	216	0
NMTAP	170	240	4
NMTAP	170	288	1
NMTAP	170	288	5
NMTAP	171	0	1
NMTAP	171	12	2
NMTAP	171	24	5
NMTAP	171	36	4
NMTAP	171	48	1
NMTAP	171	60	2
NMTAP	171	72	5
NMTAP	171	84	4
NMTAP	171	96	0
NMTAP	171	108	1
NMTAP	171	120	6
NMTAP	171	132	5
NMTAP	171	144	0
NMTAP	171	156	1
NMTAP	171	168	6
NMTAP	171	180	5
NMTAP	171	192	1
NMTAP	171	204	2
NMTAP	171	216	7
NMTAP	171	228	6
NMTAP	171	240	1
NMTAP	171	252	2
NMTAP	171	264	7
NMTAP	171	276	6
NMTAP	171	288	2
NMTAP	171	300	3
NMTAP	171	312	6
NMTAP	171	324	5
NMTAP	171	336	2
NMTAP	171	348	3
NMTAP	171	360	6
NMTAP	171	372	5
NMTAP	172	0	0
NMTAP	172	12	1
NMTAP	172	24	6
NMTAP	172	36	5
NMTAP	172	48	0
NMTAP	172	60	1
NMTAP	172	72	6
NMTAP	172	84	5
NMTAP	172	96	1
NMTAP	172	108	2
NMTAP	172	120	5
NMTAP	172	132	4
NMTAP	172	144	1
NMTAP	172	156	2
NMTAP	172	168	6
NMTAP	172	180	5
NMTAP	172	192	2
NMTAP	172	204	3
NMTAP	172	216	6
NMTAP	172	228	5
NMTAP	172	240	2
NMTAP	172	252	3
NMTAP	172	264	7
NMTAP	172	276	6
NMTAP	172	288	1
NMTAP	172	300	2
NMTAP	172	312	6
NMTAP	172	324	5
NMTAP	172	336	0
NMTAP	172	348	1
NMTAP	172	360	5
NMTAP	172	372	4
NMTTP	173	0	0	C	1	M1
NMTHO	177	0	0	1152	C	1	M1
NMTHO	177	0	1	1152	B	0	M1
NMTHO	177	192	2	960	B	0	M1
NMTHO	178	0	3	768	B	0	M1
NMTHO	178	192	4	576	B	0	M1
NMTHO	179	0	5	384	B	0	M1
NMTHO	179	192	6	192	B	0	M1
NMTAP	180	192	0
NMTAP	180	216	7
NMTAP	180	240	0
NMTAP	180	264	7
NMTAP	180	288	0
NMTAP	180	312	7
NMTAP	180	336	0
NMTAP	180	360	7
NMTAP	181	0	1
NMTAP	181	12	2
NMTAP	181	24	3
NMTAP	181	36	4
NMTAP	181	48	5
NMTAP	181	96	1
NMTAP	181	96	7
NMTAP	181	144	1
NMTAP	181	144	7
NMTAP	181	156	2
NMTAP	181	168	3
NMTAP	181	180	4
NMTAP	181	192	5
NMTAP	181	240	1
NMTAP	181	240	7
NMTAP	181	288	0
NMTAP	181	300	1
NMTAP	181	300	7
NMTAP	181	312	2
NMTAP	181	312	6
NMTAP	181	324	3
NMTAP	181	324	5
NMTAP	181	336	4
NMTAP	182	0	0
NMTAP	182	0	6
NMTAP	182	12	5
NMTAP	182	24	4
NMTAP	182	36	3
NMTAP	182	48	2
NMTAP	182	96	0
NMTAP	182	96	6
NMTAP	182	144	0
NMTAP	182	144	6
NMTAP	182	156	5
NMTAP	182	168	4
NMTAP	182	180	3
NMTAP	182	192	2
NMTAP	182	240	0
NMTAP	182	240	6
BRTAP	182	288	1
BRTAP	182	288	5
BRTAP	182	320	1
BRTAP	182	320	5
BRTAP	182	352	1
BRTAP	182	352	5
NMTAP	183	0	0
NMTAP	183	0	4
NMTAP	183	12	1
NMTAP	183	24	2
NMTAP	183	36	3
NMTAP	183	48	4
NMTAP	183	96	3
NMTAP	183	96	7
NMTAP	183	108	6
NMTAP	183	120	5
NMTAP	183	132	4
NMTAP	183	144	7
NMTAP	183	156	6
NMTAP	183	168	5
NMTAP	183	180	4
NMTAP	183	192	3
NMTAP	183	192	7
NMTAP	183	240	0
NMTAP	183	288	0
NMTAP	183	288	4
NMTAP	183	300	1
NMTAP	183	312	2
NMTAP	183	324	3
NMTAP	183	336	4
NMTAP	184	0	3
NMTAP	184	0	7
NMTAP	184	12	6
NMTAP	184	24	5
NMTAP	184	36	4
NMTAP	184	48	3
NMTAP	184	96	0
NMTAP	184	96	4
NMTAP	184	108	1
NMTAP	184	120	2
NMTAP	184	132	3
NMTAP	184	144	0
NMTAP	184	156	1
NMTAP	184	168	2
NMTAP	184	180	3
NMTAP	184	192	0
NMTAP	184	192	4
NMTAP	184	240	1
NMTAP	184	240	5
NMHLD	184	288	2	48
NMHLD	184	288	6	48
NMTAP	185	0	3
NMTAP	185	12	5
NMTAP	185	24	3
NMTAP	185	36	5
NMTAP	185	48	3
NMTAP	185	60	5
NMTAP	185	72	3
NMTAP	185	84	5
NMTAP	185	96	2
NMTAP	185	108	6
NMTAP	185	120	2
NMTAP	185	132	6
NMTAP	185	144	1
NMTAP	185	156	7
NMTAP	185	168	1
NMTAP	185	180	7
NMTAP	185	192	0
NMTAP	185	204	0
NMTAP	185	216	0
NMTAP	185	228	0
NMTAP	185	240	0
NMTTP	185	288	0	B	0	M1
NMTTP	185	288	1	B	0	M1
NMTTP	185	288	1	E	1	M1
NMTTP	185	288	1	A	0	M1
NMTTP	185	288	1	D	0	M1
NMTTP	185	288	2	E	0	M1
NMTAP	186	0	4
NMTAP	186	12	2
NMTAP	186	24	4
NMTAP	186	36	2
NMTAP	186	48	4
NMTAP	186	60	2
NMTAP	186	72	4
NMTAP	186	84	2
NMTAP	186	96	5
NMTAP	186	108	1
NMTAP	186	120	5
NMTAP	186	132	1
NMTAP	186	144	6
NMTAP	186	156	0
NMTAP	186	168	6
NMTAP	186	180	0
NMTAP	186	192	7
NMTAP	186	204	7
NMTAP	186	216	7
NMTAP	186	228	7
NMTAP	186	240	7
NMTTP	186	288	6	B	0	M1
NMTTP	186	288	6	E	0	M1
NMTTP	186	288	6	A	0	M1
NMTTP	186	288	7	B	0	M1
NMTTP	186	288	7	E	1	M1
NMTTP	186	288	7	D	0	M1
NMTAP	187	0	0
NMTAP	187	12	1
NMTAP	187	24	2
NMTAP	187	36	3
NMTAP	187	48	4
NMTAP	187	60	5
NMTAP	187	72	6
NMTAP	187	84	7
NMTAP	187	96	0
NMTAP	187	108	1
NMTAP	187	120	2
NMTAP	187	132	3
NMTAP	187	144	0
NMTAP	187	156	1
NMTAP	187	168	2
NMTAP	187	180	3
NMTAP	187	192	7
NMTAP	187	204	6
NMTAP	187	216	5
NMTAP	187	228	4
NMTAP	187	240	3
NMTAP	187	252	2
NMTAP	187	264	1
NMTAP	187	276	0
NMTAP	187	288	7
NMTAP	187	300	6
NMTAP	187	312	5
NMTAP	187	324	4
NMTAP	187	336	7
NMTAP	187	348	6
NMTAP	187	360	5
NMTAP	187	372	4
NMTAP	188	0	1
NMTAP	188	12	2
NMTAP	188	24	3
NMTAP	188	36	4
NMTAP	188	48	1
NMTAP	188	60	2
NMTAP	188	72	3
NMTAP	188	84	4
NMSTR	188	96	5
NMSXL	188	96	5	96	96	3
NMSXL	188	96	5	96	96	3
NMTAP	188	108	6
NMTAP	188	120	7
NMTAP	188	132	0
NMTAP	188	144	1
NMTAP	188	156	2
NMTAP	188	168	3
NMTAP	188	180	4
NMTAP	189	0	4
NMHLD	189	0	6	0
NMTAP	189	12	7
NMTAP	189	24	0
NMTAP	189	36	1
NMTAP	189	48	2
NMTAP	189	60	3
NMTAP	189	72	4
NMHLD	189	72	6	0
NMTAP	189	84	7
NMTAP	189	96	0
NMTAP	189	108	1
NMTAP	189	120	2
NMTAP	189	132	3
NMTAP	189	144	4
NMHLD	189	144	7	0
NMTAP	189	156	6
NMTAP	189	168	5
NMTAP	189	180	4
NMTAP	189	192	3
NMTAP	189	204	2
NMTAP	189	216	1
NMHLD	189	216	7	0
NMTAP	189	228	6
NMTAP	189	240	5
NMTAP	189	252	4
NMTAP	189	264	3
NMTAP	189	276	2
NMTAP	189	288	1
NMHLD	189	288	7	0
NMTAP	189	300	6
NMTAP	189	312	5
NMTAP	189	324	4
NMTAP	189	336	3
NMTAP	189	348	2
NMTAP	189	360	1
NMTAP	189	372	0
NMHLD	190	0	1	0
NMTAP	190	12	2
NMTAP	190	12	7
NMTAP	190	24	3
NMTAP	190	24	6
NMTAP	190	36	4
NMTAP	190	48	5
NMTAP	190	60	6
NMTAP	190	72	7
NMTAP	190	84	0
NMTAP	190	84	5
NMTAP	190	96	1
NMTAP	190	96	4
NMTAP	190	108	2
NMTAP	190	120	3
NMTAP	190	132	4
NMTAP	190	144	5
NMTAP	190	156	3
NMTAP	190	156	6
NMTAP	190	168	2
NMTAP	190	168	7
NMTAP	190	180	0
NMTAP	190	192	1
NMTAP	190	204	2
NMTAP	190	216	3
NMTAP	190	228	1
NMTAP	190	228	4
NMTAP	190	240	0
NMTAP	190	240	5
NMTAP	190	252	6
NMTAP	190	264	7
NMTAP	190	276	0
NMTAP	190	288	1
NMTAP	190	300	2
NMTAP	190	312	1
NMTAP	190	324	2
NMTAP	190	336	1
NMTAP	190	348	2
NMTAP	190	360	1
NMTAP	190	372	2
NMTAP	191	0	1
NMTAP	191	0	3
NMTAP	191	12	2
NMTAP	191	12	4
NMTAP	191	24	3
NMTAP	191	24	5
NMTAP	191	36	4
NMTAP	191	36	6
NMTAP	191	48	5
NMTAP	191	60	4
NMTAP	191	60	6
NMTAP	191	72	5
NMTAP	191	72	7
NMTAP	191	84	0
NMTAP	191	84	6
BRHLD	191	96	1	1440
BRHLD	191	96	7	1440

T_REC_TAP	1485
T_REC_BRK	143
T_REC_XTP	0
T_REC_BXX	0
T_REC_HLD	127
T_REC_XHO	0
T_REC_BHO	38
T_REC_BXH	0
T_REC_STR	105
T_REC_BST	15
T_REC_XST	0
T_REC_XBS	0
T_REC_TTP	134
T_REC_THO	46
T_REC_SLD	103
T_REC_BSL	26
T_REC_ALL	2222
T_NUM_TAP	1724
T_NUM_BRK	222
T_NUM_HLD	173
T_NUM_SLD	103
T_NUM_ALL	2222
T_JUDGE_TAP	1882
T_JUDGE_HLD	564
T_JUDGE_SLD	129
T_JUDGE_ALL	2575
TTM_EACHPAIRS	279
TTM_SCR_TAP	862000
TTM_SCR_BRK	577200
TTM_SCR_HLD	173000
TTM_SCR_SLD	154500
TTM_SCR_ALL	1766700
TTM_SCR_S	1692200
TTM_SCR_SS	1744500
TTM_RAT_ACV	10127

