VERSION	0.00.00	1.05.00
FES_MODE	0
BPM_DEF	120.000	180.000	240.000	120.000
MET_DEF	4	4
RESOLUTION	384
CLK_DEF	384
COMPATIBLE_CODE	MA2

BPM	0	0	120.000
BPM	11	0	130.000
BPM	12	0	140.000
BPM	13	0	150.000
BPM	14	0	160.000
BPM	15	0	170.000
BPM	16	0	180.000
BPM	17	0	190.000
BPM	18	0	200.000
BPM	19	0	210.000
BPM	20	0	220.000
BPM	21	0	230.000
BPM	21	192	240.000
BPM	39	0	180.000
BPM	99	288	187.500
BPM	101	288	195.000
BPM	103	288	202.500
BPM	105	288	210.000
BPM	107	288	217.500
BPM	109	288	225.000
BPM	111	288	232.500
BPM	113	288	240.000
BPM	115	288	180.000
BPM	116	288	170.000
BPM	117	288	160.000
BPM	118	288	140.000
BPM	119	288	180.000
BPM	120	288	180.000
MET	0	0	4	4
MET	39	0	4	3
MET	39	288	4	4
SEF	119	192	1
SEF	119	288	3
SEF	0	0	0

BXSTR	2	0	0
BRSI_	2	0	0	96	48	3
BRSI_	2	0	0	96	48	5
NMTAP	2	6	1
NMTAP	2	6	7
NMTAP	2	12	2
NMTAP	2	12	6
NMTAP	2	18	3
NMTAP	2	18	5
NMTAP	2	24	4
CNSI_	2	144	3	0	48	1
CNSI_	2	144	5	0	48	7
CNSI_	2	192	1	0	384	4
CNSI_	2	192	7	0	384	4
NMTAP	3	336	3
NMTAP	3	336	5
NMSTR	4	0	3
NMSUR	4	0	3	96	96	0
NMHLD	4	0	5	480
NMTAP	4	336	0
NMSTR	5	0	0
NMSI_	5	0	0	96	48	4
NMTAP	5	192	3
NMTAP	5	192	6
NMTAP	5	240	5
NMTAP	5	256	4
NMTAP	5	272	5
NMTAP	5	288	3
NMTAP	5	312	4
NMTAP	5	336	2
NMTAP	5	360	3
BRSTR	6	0	1
NMSCL	6	0	1	96	96	6
NMHLD	6	0	4	288
CNSUR	6	192	6	0	96	2
NMTAP	6	336	1
NMTAP	6	336	4
NMHLD	7	0	0	96
NMSTR	7	0	5
NMSXR	7	0	5	96	96	6
NMTAP	7	192	2
NMTAP	7	288	5
NMTAP	7	304	4
NMTAP	7	320	5
NMTAP	7	336	3
NMTAP	7	360	4
NMSTR	8	0	2
NMSCL	8	0	2	96	48	7
NMHLD	8	0	5	96
NMTAP	8	144	4
CNSI_	8	144	7	0	80	3
NMHLD	8	192	4	96
NMTAP	8	288	2
NMTAP	8	304	3
NMTAP	8	320	2
NMTAP	8	336	4
NMTAP	8	360	3
NMTAP	9	0	2
NMTAP	9	0	5
NMTTP	9	48	2	D	0	M1
BRTAP	9	48	7
NMTTP	9	56	2	A	0	M1
NMTTP	9	64	3	D	0	M1
NMTTP	9	72	3	A	0	M1
NMTTP	9	80	4	D	0	M1
BRTAP	9	144	0
NMTTP	9	144	6	A	0	M1
NMTTP	9	152	6	D	0	M1
NMTTP	9	160	5	A	0	M1
NMTTP	9	168	5	D	0	M1
NMTTP	9	176	4	A	0	M1
EXTAP	9	192	1
EXTAP	9	208	3
EXTAP	9	224	2
EXTAP	9	240	4
EXTAP	9	256	3
EXTAP	9	272	5
EXTAP	9	288	4
NMTAP	9	320	6
NMTAP	9	352	6
NMHLD	10	0	4	48
NMHLD	10	0	6	48
NMHLD	10	72	4	48
NMHLD	10	72	6	48
NMHLD	10	144	3	48
NMHLD	10	144	5	48
NMHLD	10	216	3	48
NMHLD	10	216	5	48
BRTAP	10	288	1
BRHLD	11	0	1	48
BRHLD	11	0	3	48
BRHLD	11	72	1	48
BRHLD	11	72	3	48
BRHLD	11	144	2	48
BRHLD	11	144	4	48
BRHLD	11	216	2	48
BRHLD	11	216	4	48
NMTAP	11	288	5
NMTAP	11	300	3
NMTAP	11	312	5
NMTAP	11	324	3
NMTAP	11	336	5
NMHLD	12	0	4	48
NMHLD	12	0	6	48
NMHLD	12	72	4	48
NMHLD	12	72	6	48
NMHLD	12	144	2	48
NMHLD	12	144	4	48
NMHLD	12	216	2	48
NMHLD	12	216	4	48
BRTAP	12	288	0
BRHLD	13	0	1	48
BRHLD	13	0	3	48
BRHLD	13	72	1	48
BRHLD	13	72	3	48
BRHLD	13	144	3	48
BRHLD	13	144	5	48
BRHLD	13	216	3	48
BRHLD	13	216	5	48
NMTAP	13	288	6
NMTAP	13	300	2
NMTAP	13	312	6
NMTAP	13	324	2
NMTAP	13	336	6
BXSTR	14	0	7
NMSI_	14	0	7	96	48	5
NMTAP	14	72	1
NMTAP	14	96	7
NMTAP	14	144	1
BXSTR	14	192	7
NMSI_	14	192	7	96	48	4
NMTAP	14	264	1
NMTAP	14	288	7
NMTAP	14	336	1
BXSTR	15	0	7
NMSI_	15	0	7	96	48	3
NMTAP	15	72	0
NMTAP	15	96	7
NMTAP	15	144	0
BXSTR	15	192	7
NMSI_	15	192	7	96	48	2
NMTAP	15	264	0
NMTAP	15	288	7
NMTAP	15	336	0
BXSTR	16	0	1
NMSI_	16	0	1	96	48	3
BXTAP	16	0	3
NMTAP	16	72	5
NMTAP	16	96	1
NMTAP	16	144	5
BXSTR	16	192	1
NMSI_	16	192	1	96	48	7
NMTAP	16	264	4
NMTAP	16	288	1
NMTAP	16	336	4
BXSTR	17	0	1
NMSI_	17	0	1	96	48	4
NMTAP	17	72	5
NMTAP	17	96	1
NMTAP	17	144	5
BXSTR	17	192	1
NMSI_	17	192	1	96	48	5
NMTAP	17	264	7
NMTAP	17	288	1
NMTAP	17	336	7
BXSTR	18	0	6
NMSI_	18	0	6	96	48	4
NMTAP	18	72	7
NMTAP	18	96	6
NMTAP	18	144	0
BXSTR	18	192	1
NMSI_	18	192	1	96	48	3
NMTAP	18	264	0
NMTAP	18	288	1
NMTAP	18	336	7
BXSTR	19	0	5
NMSI_	19	0	5	96	48	7
NMTAP	19	72	4
NMTAP	19	96	5
NMTAP	19	144	3
BXSTR	19	192	2
NMSI_	19	192	2	96	48	0
NMTAP	19	264	3
NMTAP	19	288	2
NMTAP	19	336	5
NMTAP	20	0	1
NMTAP	20	0	7
NMTAP	20	48	1
NMTAP	20	48	7
NMTAP	20	96	2
NMTAP	20	96	6
NMTAP	20	144	2
NMTAP	20	144	6
NMTAP	20	192	3
NMTAP	20	192	5
NMTAP	20	240	3
NMTAP	20	240	5
NMTAP	20	288	2
NMTAP	20	288	4
NMTAP	20	336	2
NMTAP	20	336	4
NMTAP	21	0	1
NMTAP	21	24	3
NMTAP	21	48	1
NMTAP	21	72	3
NMTAP	21	96	0
NMTAP	21	120	4
NMTAP	21	144	0
NMTAP	21	168	4
NMTAP	21	192	0
NMTAP	21	204	1
NMTAP	21	216	2
NMTAP	21	228	3
NMTAP	21	240	4
NMTAP	21	252	5
NMTAP	21	264	6
NMTAP	21	276	7
NMTAP	21	288	0
NMTAP	21	300	1
NMTAP	21	312	2
NMTAP	21	324	3
NMTAP	21	336	4
NMTAP	21	348	5
NMTAP	21	360	6
NMTAP	21	372	7
BRHLD	22	0	0	384
BRTAP	22	0	4
NMTAP	23	0	7
NMTAP	23	48	7
NMTAP	23	96	7
NMTAP	23	144	6
NMTAP	23	168	2
NMTAP	23	192	6
NMTAP	23	216	2
NMTAP	23	240	6
NMTAP	23	264	2
NMTHO	23	288	0	96	C	1	M1
BRHLD	24	0	0	96
NMTAP	24	96	7
NMHLD	24	144	7	96
NMTAP	24	240	0
NMHLD	24	288	0	96
NMTAP	25	0	1
NMHLD	25	48	1	96
NMTAP	25	144	2
NMTAP	25	192	2
NMTAP	25	288	2
NMTAP	25	288	3
NMHLD	26	0	4	96
NMTAP	26	96	3
NMHLD	26	144	3	96
NMTAP	26	240	4
NMHLD	26	288	4	96
NMTAP	27	0	5
NMHLD	27	48	5	96
NMTAP	27	144	6
NMTAP	27	192	6
NMTAP	27	288	6
NMTAP	27	288	7
BRTAP	28	0	1
BRTAP	28	0	5
NMTAP	28	96	2
NMTAP	28	144	2
NMTAP	28	144	3
NMTAP	28	240	5
NMTAP	28	288	4
NMTAP	28	288	5
NMTAP	29	0	2
NMTAP	29	48	1
NMTAP	29	48	3
NMTAP	29	144	5
NMTAP	29	192	4
NMTAP	29	192	6
NMTAP	29	288	0
NMTAP	29	288	7
NMTAP	30	0	2
NMTAP	30	0	5
NMTAP	30	96	1
NMTAP	30	144	1
NMTAP	30	192	3
NMTAP	30	240	3
NMTAP	30	288	2
NMTAP	31	0	0
NMTAP	31	0	1
NMTAP	31	48	0
NMTAP	31	48	1
NMHLD	31	96	2	96
NMTAP	31	96	7
NMTAP	31	192	0
NMTAP	31	216	7
NMTAP	31	240	6
NMTAP	31	264	5
NMTAP	31	288	0
NMTAP	31	312	1
NMTAP	31	336	2
NMTAP	31	360	3
BRSTR	32	0	0
NMSI_	32	0	0	96	48	5
NMTAP	32	0	4
NMSTR	32	96	1
NMSI_	32	96	1	96	48	4
NMTAP	32	144	1
NMSTR	32	192	3
NMSI_	32	192	3	96	48	6
NMTAP	32	240	3
NMSTR	32	288	2
NMSI_	32	288	2	96	48	7
NMTAP	32	336	2
NMSTR	33	0	5
NMSI_	33	0	5	96	48	0
NMTAP	33	48	5
NMTAP	33	96	4
NMTAP	33	144	4
NMTAP	33	192	7
NMHLD	33	240	7	48
NMTAP	33	288	3
NMTAP	33	312	2
NMTAP	33	336	1
NMTAP	33	360	0
NMTAP	34	0	3
BRSTR	34	0	7
NMSI_	34	0	7	96	48	2
NMSTR	34	96	6
NMSI_	34	96	6	96	48	3
NMTAP	34	144	6
NMSTR	34	192	4
NMSI_	34	192	4	96	48	1
NMTAP	34	240	4
NMSTR	34	288	5
NMSI_	34	288	5	96	48	0
NMTAP	34	336	5
NMSTR	35	0	2
NMSI_	35	0	2	96	48	7
NMTAP	35	48	2
NMSTR	35	96	3
NMSI_	35	96	3	96	48	6
NMTAP	35	144	3
NMTAP	35	192	0
NMHLD	35	240	0	48
NMTAP	35	288	7
NMTAP	35	312	6
NMTAP	35	336	5
NMTAP	35	360	4
BRSTR	36	0	3
NMSI_	36	0	3	96	48	6
NMTAP	36	0	7
NMSTR	36	96	1
NMSI_	36	96	1	96	48	4
NMTAP	36	144	1
NMSTR	36	192	7
NMSI_	36	192	7	96	48	2
NMTAP	36	240	7
NMSTR	36	288	5
NMSI_	36	288	5	96	48	0
NMTAP	36	336	5
NMSTR	37	0	3
NMSXL	37	0	3	96	192	7
NMTAP	37	48	3
BRHLD	38	0	0	64
BRHLD	38	0	1	64
BRHLD	38	128	6	64
BRHLD	38	128	7	64
BRHLD	38	256	3	64
BRHLD	38	256	4	64
NMTAP	39	0	3
NMTAP	39	0	4
NMTAP	39	24	5
NMTAP	39	48	6
NMTAP	39	72	7
NMTAP	39	96	0
NMTAP	39	96	4
NMTAP	39	120	3
NMTAP	39	144	2
NMTAP	39	168	1
NMSTR	39	192	0
NMSF_	39	192	0	96	48	4
NMTAP	39	192	4
NMTAP	39	216	5
NMTAP	39	240	6
NMTAP	39	264	7
BRTAP	39	288	0
NMTAP	40	96	3
NMTAP	40	96	4
NMTAP	40	144	2
NMTAP	40	168	3
NMTAP	40	192	2
NMTAP	40	240	4
NMTAP	40	264	3
NMTAP	40	288	4
NMTAP	40	336	2
NMTAP	40	360	3
NMTAP	41	0	1
NMTAP	41	48	4
NMTAP	41	72	3
NMTAP	41	96	5
NMTAP	41	144	3
NMTAP	41	168	4
NMTAP	41	192	2
NMTAP	41	240	5
NMTAP	41	264	4
NMTAP	41	288	6
NMTAP	41	336	4
NMTAP	41	360	5
NMTAP	42	0	3
NMTAP	42	48	5
NMTAP	42	72	4
NMTAP	42	96	6
NMTAP	42	144	3
NMTAP	42	168	4
NMTAP	42	192	2
NMTAP	42	240	4
NMTAP	42	264	3
NMTAP	42	288	5
NMTAP	42	336	2
NMTAP	42	360	3
NMHLD	43	0	1	84
NMTTP	43	96	1	B	1	M1
NMTTP	43	96	1	E	0	M1
NMTTP	43	96	2	E	0	M1
NMTTP	43	103	2	B	0	M1
NMTTP	43	104	0	B	0	M1
NMTTP	43	111	3	B	0	M1
NMTTP	43	112	7	B	0	M1
NMTTP	43	119	4	E	0	M1
NMTTP	43	120	7	E	0	M1
NMTTP	43	127	4	A	0	M1
NMTTP	43	128	6	A	0	M1
EXTAP	43	192	5
NMTAP	43	288	4
NMTAP	43	288	6
NMTAP	43	336	5
NMTAP	43	360	4
NMTAP	44	0	5
NMTAP	44	48	3
NMTAP	44	72	4
NMTAP	44	96	3
NMTAP	44	144	5
NMTAP	44	168	4
NMTAP	44	192	6
NMTAP	44	240	2
NMTAP	44	264	2
NMTAP	44	288	3
NMTAP	44	336	4
NMTAP	44	360	4
NMTAP	45	0	3
NMTAP	45	48	2
NMTAP	45	72	2
NMTAP	45	96	3
NMTAP	45	144	5
NMTAP	45	168	5
NMTAP	45	192	4
NMTAP	45	240	2
NMTAP	45	264	2
NMTAP	45	288	3
NMTAP	45	336	5
NMTAP	45	360	5
NMTAP	46	0	3
NMTAP	46	48	1
NMTAP	46	72	1
NMTAP	46	96	3
NMTAP	46	144	6
NMTAP	46	168	6
NMTAP	46	192	4
NMTAP	46	240	2
NMTAP	46	264	2
NMHLD	46	288	3	48
NMHLD	46	360	2	48
NMHLD	46	360	4	48
NMTAP	47	48	1
NMTAP	47	48	5
NMTAP	47	96	0
NMTAP	47	120	6
NMTAP	47	144	0
NMTAP	47	168	6
NMTAP	47	192	1
NMTAP	47	216	7
NMTAP	47	240	1
BRTAP	47	288	2
BRTAP	47	288	6
NMTAP	47	336	3
NMTAP	47	360	3
NMHLD	48	0	5	48
NMTAP	48	48	3
NMTAP	48	72	3
NMHLD	48	96	4	48
NMTAP	48	144	2
NMTAP	48	168	2
NMHLD	48	192	3	48
NMTAP	48	240	2
NMTAP	48	264	2
NMTTP	48	288	4	E	0	M1
NMTTP	48	304	5	E	0	M1
NMTTP	48	320	5	A	0	M1
NMTTP	48	336	2	E	0	M1
NMTTP	48	352	1	E	0	M1
NMTTP	48	368	0	A	0	M1
NMHLD	49	0	6	48
NMTAP	49	48	7
NMTAP	49	72	7
NMHLD	49	96	6	48
NMTAP	49	144	4
NMTAP	49	168	4
NMHLD	49	192	5	48
NMTAP	49	240	3
NMTAP	49	264	3
NMHLD	49	288	4	48
NMTAP	49	336	2
NMTAP	49	360	2
NMHLD	50	0	5	48
NMTAP	50	48	4
NMTAP	50	72	4
NMTTP	50	96	6	E	0	M1
NMTTP	50	112	7	E	0	M1
NMTTP	50	128	7	A	0	M1
NMTTP	50	144	4	E	0	M1
NMTTP	50	160	3	E	0	M1
NMTTP	50	176	2	A	0	M1
NMHLD	50	192	0	48
NMTAP	50	240	1
NMTAP	50	264	1
NMHLD	50	288	0	48
NMTAP	50	336	3
NMTAP	50	360	3
NMHLD	51	0	6	48
NMTAP	51	48	4
NMSTR	51	96	4
NMSV_	51	96	4	96	48	7
NMTAP	51	96	5
NMSTR	51	192	6
NMSCL	51	192	6	96	48	3
BRTAP	51	288	0
NMTAP	51	336	1
NMTAP	51	360	1
NMHLD	52	0	4	48
NMTAP	52	48	0
NMTAP	52	72	0
NMHLD	52	96	6	48
NMTAP	52	144	1
NMTAP	52	168	1
NMHLD	52	192	7	48
NMTAP	52	240	2
NMTAP	52	264	2
NMHLD	52	288	5	48
NMTAP	52	336	3
NMTAP	52	360	4
NMHLD	53	0	2	48
NMTAP	53	48	5
NMTAP	53	72	4
NMHLD	53	96	6	48
NMTAP	53	144	3
NMTAP	53	168	4
NMHLD	53	192	2	48
NMTAP	53	240	3
NMTAP	53	264	1
NMHLD	53	288	6	48
NMTAP	53	336	3
NMTAP	53	360	5
NMHLD	54	0	1	48
NMTAP	54	48	4
NMTAP	54	72	2
NMSTR	54	96	7
NMSI_	54	96	7	96	48	3
NMHLD	54	288	2	48
NMHLD	54	288	4	48
NMHLD	54	360	1	48
NMHLD	54	360	5	48
NMTAP	55	48	0
NMTAP	55	48	6
EXTAP	55	96	1
EXTAP	55	96	7
EXTAP	55	120	1
EXTAP	55	120	7
EXTAP	55	144	1
EXTAP	55	144	7
BRTAP	55	192	2
BRTAP	55	192	6
EXSTR	55	288	3
NMSI_	55	288	3	96	48	1
EXSTR	55	288	5
NMSI_	55	288	5	96	48	7
NMTAP	55	336	4
BRTAP	56	0	3
BRTAP	56	0	5
NMTAP	56	96	0
NMTAP	56	120	0
NMTAP	56	144	0
NMTAP	56	168	0
NMTAP	56	192	0
NMTAP	56	216	0
NMTAP	56	240	0
NMTAP	56	264	0
NMHLD	56	288	0	128
NMTAP	56	336	1
NMTAP	56	352	2
NMTAP	56	368	3
NMTAP	57	0	4
NMTAP	57	16	5
NMTAP	57	32	6
NMTAP	57	48	1
NMTAP	57	48	7
NMTAP	57	64	2
NMTAP	57	80	3
NMTAP	57	96	4
NMTAP	57	112	5
NMTAP	57	128	6
NMTAP	57	144	7
NMTAP	57	160	0
NMTAP	57	176	1
BRTAP	57	192	2
BRTAP	57	192	4
NMSTR	57	288	2
NMSI_	57	288	2	96	48	0
NMSTR	57	288	4
NMSI_	57	288	4	96	48	6
NMTAP	57	336	3
BRTAP	58	0	2
BRTAP	58	0	4
NMTAP	58	96	7
NMTAP	58	120	7
NMTAP	58	144	7
NMTAP	58	168	7
NMTAP	58	192	7
NMTAP	58	216	7
NMTAP	58	240	7
NMTAP	58	264	7
NMHLD	58	288	7	128
NMTAP	58	336	6
NMTAP	58	352	5
NMTAP	58	368	4
NMTAP	59	0	3
NMTAP	59	16	2
NMTAP	59	32	1
NMTAP	59	48	0
NMTAP	59	48	6
NMTAP	59	64	5
NMTAP	59	80	4
NMTAP	59	96	3
NMTAP	59	112	2
NMTAP	59	128	1
NMTAP	59	144	0
NMTAP	59	160	7
NMTAP	59	176	6
BRTAP	59	192	3
BRTAP	59	192	5
NMSTR	59	288	4
NMSI_	59	288	4	96	48	2
NMSTR	59	288	6
NMSI_	59	288	6	96	48	0
NMTAP	59	336	5
BRTAP	60	0	4
BRTAP	60	0	6
NMTAP	60	96	1
NMTAP	60	120	1
NMTAP	60	144	1
NMTAP	60	168	1
NMTAP	60	192	1
NMTAP	60	216	1
NMTAP	60	240	1
NMTAP	60	264	1
NMHLD	60	288	1	128
NMTAP	60	336	2
NMTAP	60	352	3
NMTAP	60	368	4
NMTAP	61	0	5
NMTAP	61	16	6
NMTAP	61	32	7
NMTAP	61	48	0
NMTAP	61	48	2
NMTAP	61	64	3
NMTAP	61	80	4
NMTAP	61	96	5
NMTAP	61	112	6
NMTAP	61	128	7
NMTAP	61	144	0
NMTAP	61	160	1
NMTAP	61	176	2
BRTAP	61	192	3
BRTAP	61	192	5
NMSTR	61	288	2
NMSI_	61	288	2	96	48	0
NMSTR	61	288	6
NMSI_	61	288	6	96	48	4
NMTAP	61	336	3
NMTAP	61	336	7
BRTAP	62	0	2
BRTAP	62	0	6
NMTAP	62	96	3
NMTAP	62	96	7
NMTAP	62	120	0
NMTAP	62	144	1
NMTAP	62	168	2
NMTAP	62	192	3
NMTAP	62	192	4
NMTAP	62	216	5
NMTAP	62	240	6
NMTAP	62	264	7
NMTAP	62	288	1
NMTAP	62	312	7
NMTAP	62	336	1
NMTAP	62	360	7
NMTAP	63	0	0
NMTAP	63	24	6
NMTAP	63	48	0
NMTAP	63	72	6
NMTAP	63	96	0
NMTAP	63	112	1
NMTAP	63	128	2
NMTAP	63	144	3
NMTAP	63	160	4
NMTAP	63	176	5
NMTAP	63	192	0
NMTAP	63	208	7
NMTAP	63	224	6
NMTAP	63	240	5
NMTAP	63	256	4
NMTAP	63	272	3
BRSTR	63	288	0
NMSI_	63	288	0	96	288	4
CNSLR	64	288	4	0	384	1
NMSTR	65	288	2
NMSI_	65	288	2	96	96	4
CNSI_	66	96	4	0	288	7
CNSI_	67	0	7	0	288	1
NMSTR	67	288	2
BRSI_	67	288	2	96	912	7
EXSTR	69	288	2
NMSI_	69	288	2	96	312	5
CNSI_	70	144	7	0	144	4
CNSI_	70	288	4	0	144	1
CNSI_	70	312	5	0	168	0
CNSI_	71	48	1	0	144	6
CNSI_	71	96	0	0	48	3
CNSI_	71	144	3	0	48	6
NMSTR	71	288	7
NMSI_	71	288	7	96	48	3
NMHLD	72	0	2	96
NMTAP	72	96	4
NMHLD	72	144	2	96
NMTAP	72	144	4
NMTAP	72	240	4
NMHLD	72	288	1	96
NMTAP	72	288	3
NMTAP	73	0	3
NMHLD	73	48	0	96
NMTAP	73	48	2
NMTAP	73	144	2
NMSTR	73	192	0
NMSI_	73	192	0	96	48	3
NMSTR	73	192	2
NMSI_	73	192	2	96	48	5
NMTAP	74	0	2
NMHLD	74	0	4	96
NMTAP	74	96	2
NMTAP	74	144	3
NMHLD	74	144	5	96
NMTAP	74	240	3
NMTAP	74	288	4
NMHLD	74	288	6	96
NMTAP	75	0	4
NMTAP	75	48	5
NMHLD	75	48	7	96
NMTAP	75	144	5
NMSTR	75	192	5
NMSI_	75	192	5	96	48	2
NMSTR	75	192	7
NMSI_	75	192	7	96	48	4
NMHLD	76	0	2	96
NMTAP	76	0	6
NMTAP	76	96	6
NMHLD	76	144	1	96
NMTAP	76	144	5
NMTAP	76	240	5
NMHLD	76	288	0	96
NMTAP	76	288	4
NMTAP	77	0	4
NMTAP	77	48	3
NMHLD	77	48	7	96
NMTAP	77	144	3
NMSTR	77	192	2
NMSI_	77	192	2	96	48	5
NMSTR	77	192	6
NMSI_	77	192	6	96	48	1
NMSTR	78	0	2
NMSI_	78	0	2	96	48	7
NMSTR	78	0	6
NMSI_	78	0	6	96	48	3
NMTAP	78	192	0
NMTAP	78	192	4
NMTAP	78	288	1
NMTAP	78	312	5
NMTAP	78	336	2
NMTAP	78	360	6
NMSTR	79	0	3
NMSI_	79	0	3	96	48	0
NMSTR	79	0	7
NMSI_	79	0	7	96	48	4
NMTAP	79	96	3
NMTAP	79	96	7
BRTAP	79	192	2
BRTAP	79	192	6
NMTAP	79	288	0
NMSTR	79	288	1
NMSI_	79	288	1	96	48	5
NMTAP	79	304	7
NMTAP	79	320	6
NMTAP	79	336	5
NMTAP	79	352	4
NMHLD	79	368	3	64
BRTAP	80	0	1
NMSTR	80	96	3
NMSI_	80	96	3	96	48	6
NMTAP	80	96	6
NMTAP	80	144	7
NMSTR	80	192	0
NMSCR	80	192	0	96	48	3
NMTAP	80	192	3
NMTAP	80	240	1
NMTAP	80	288	0
NMSTR	80	288	7
NMSI_	80	288	7	96	48	3
NMTAP	80	336	6
NMTAP	81	0	4
NMTAP	81	0	7
NMTAP	81	16	3
NMTAP	81	32	2
NMSTR	81	48	1
NMSI_	81	48	1	96	48	4
NMTAP	81	96	0
NMTAP	81	144	1
NMTAP	81	144	4
NMTAP	81	160	5
NMTAP	81	176	6
NMTAP	81	192	7
NMTAP	81	288	3
NMTAP	81	288	7
NMTAP	81	336	5
NMTAP	81	360	4
NMSTR	82	0	6
NMSCL	82	0	6	96	48	3
NMTAP	82	48	7
NMTAP	82	72	0
NMTAP	82	96	6
NMTAP	82	144	2
NMTAP	82	192	0
NMTAP	82	192	1
NMTAP	82	240	3
NMTAP	82	240	4
BRTAP	82	288	6
NMTAP	82	312	7
NMTAP	82	336	5
BRTAP	82	360	1
NMTAP	83	0	0
NMTAP	83	24	2
BRTAP	83	48	5
NMTAP	83	72	3
NMTAP	83	96	4
NMTAP	83	120	2
NMTAP	83	144	6
NMTAP	83	168	0
NMTAP	83	192	1
NMTAP	83	192	5
NMSTR	83	288	6
NMSI_	83	288	6	96	48	2
NMTAP	83	288	7
NMTAP	83	304	0
NMTAP	83	320	1
NMTAP	83	336	2
NMTAP	83	352	3
NMHLD	83	368	4	64
BRTAP	84	0	6
NMTAP	84	96	1
NMSTR	84	96	4
NMSI_	84	96	4	96	48	1
NMTAP	84	144	0
NMTAP	84	192	4
NMSTR	84	192	7
NMSCL	84	192	7	96	48	4
NMTAP	84	240	6
NMSTR	84	288	0
NMSI_	84	288	0	96	48	4
NMTAP	84	288	7
NMTAP	84	336	1
NMTAP	85	0	0
NMTAP	85	0	3
NMTAP	85	16	4
NMTAP	85	32	5
NMSTR	85	48	6
NMSI_	85	48	6	96	48	3
NMTAP	85	96	7
NMTAP	85	144	3
NMTAP	85	144	6
NMTAP	85	160	2
NMTAP	85	176	1
NMTAP	85	192	0
NMTAP	85	288	0
NMTAP	85	288	4
NMTAP	85	336	2
NMTAP	85	360	3
NMSTR	86	0	1
NMSCR	86	0	1	96	48	4
NMTAP	86	48	0
NMTAP	86	72	7
NMTAP	86	96	1
NMTAP	86	144	5
NMTAP	86	192	6
NMTAP	86	192	7
NMTAP	86	240	3
NMTAP	86	240	4
BRTAP	86	288	1
NMTAP	86	312	0
NMTAP	86	336	2
BRTAP	86	360	6
NMSTR	87	0	7
NMSCL	87	0	7	96	96	1
NMTAP	87	24	5
BRTAP	87	48	0
NMTAP	87	72	4
EXTAP	87	96	7
NMTTP	87	192	0	C	1	M1
NMSTR	87	288	6
NMSI_	87	288	6	96	48	2
NMSTR	87	288	7
NMSI_	87	288	7	96	48	3
BRTAP	88	0	6
BRTAP	88	0	7
NMSTR	88	96	0
NMSI_	88	96	0	96	48	3
NMTAP	88	144	4
NMTAP	88	168	4
NMSTR	88	192	0
NMSCL	88	192	0	96	48	5
NMTAP	88	240	6
NMTAP	88	264	6
NMSTR	88	288	0
NMSI_	88	288	0	96	48	4
NMTAP	88	336	4
NMTAP	88	360	4
NMSTR	89	0	0
NMSI_	89	0	0	96	48	2
NMTAP	89	48	7
NMTAP	89	72	6
BXSTR	89	96	0
NMSI_	89	96	0	96	48	4
EXTAP	89	96	5
BXSTR	89	144	6
NMSI_	89	144	6	96	48	2
EXTAP	89	168	5
NMTAP	89	192	0
EXTAP	89	192	4
NMTAP	89	240	6
BXSTR	89	288	1
NMSI_	89	288	1	96	48	5
NMSI_	89	288	1	96	48	7
NMTAP	90	0	1
NMTAP	90	96	4
NMTAP	90	96	6
NMTAP	90	144	3
NMTAP	90	144	5
BRTAP	90	192	2
NMTAP	90	192	4
BRTAP	90	240	1
NMTAP	90	240	3
BRTAP	90	288	0
NMTAP	90	288	4
NMTAP	90	336	6
NMTAP	90	360	7
NMTAP	91	0	6
BRTAP	91	48	4
BRTAP	91	48	5
NMTAP	91	96	2
NMTAP	91	120	3
NMTAP	91	144	2
BRHLD	91	192	1	96
BRTAP	91	192	4
NMSTR	91	288	3
NMSUR	91	288	3	96	48	7
NMTAP	91	336	3
NMSTR	92	0	1
NMSUR	92	0	1	96	48	5
NMTAP	92	48	1
NMTAP	92	96	0
NMTAP	92	144	0
NMTAP	92	192	0
NMTAP	92	192	4
NMTAP	92	216	3
NMTAP	92	216	7
NMTAP	92	240	2
NMTAP	92	240	6
NMSTR	92	288	1
NMSUL	92	288	1	96	48	5
NMTAP	92	336	1
NMSTR	93	0	3
NMSUR	93	0	3	96	48	7
NMTAP	93	48	3
NMTAP	93	96	2
NMTAP	93	144	2
NMTAP	93	192	0
NMTAP	93	192	1
NMTAP	93	216	2
NMTAP	93	216	7
NMTAP	93	240	3
NMTAP	93	240	6
NMTAP	93	288	5
NMTAP	93	312	4
NMTAP	93	336	6
NMTAP	93	360	3
NMTAP	94	0	7
NMTAP	94	24	2
NMTAP	94	48	0
NMTAP	94	72	1
NMTAP	94	96	7
NMTAP	94	120	6
NMTAP	94	144	5
NMTAP	94	168	4
NMTAP	94	192	1
NMTAP	94	216	2
NMTAP	94	240	3
NMTAP	94	264	4
NMHLD	94	288	5	48
NMHLD	94	288	6	48
NMHLD	94	360	4	48
NMHLD	94	360	7	48
NMTAP	95	48	0
NMTAP	95	48	3
NMTAP	95	96	1
NMTAP	95	96	2
NMTAP	95	144	1
NMTAP	95	144	2
NMTAP	95	192	0
NMTAP	95	192	7
NMTAP	95	240	5
NMTAP	95	240	6
NMSTR	95	288	3
BRSCL	95	288	3	96	24	2
BRSCR	95	288	3	96	24	4
NMTAP	95	288	4
BXTAP	96	0	3
CNSI_	96	24	2	0	48	0
CNSI_	96	24	4	0	48	6
NMSTR	96	192	0
NMSV_	96	192	0	96	48	5
NMSTR	96	192	4
BRSV_	96	192	4	96	48	1
NMTAP	96	216	1
NMTAP	96	216	5
NMTAP	96	240	2
NMTAP	96	240	6
NMTAP	96	264	3
NMTAP	96	264	7
BRSTR	96	288	0
NMSI_	96	288	0	96	48	3
BRSTR	96	288	4
BRSI_	96	288	4	96	48	7
BRTAP	97	0	0
BRTAP	97	0	4
BRHLD	97	96	1	48
BRHLD	97	96	5	48
BRHLD	97	168	6	48
BRHLD	97	168	7	48
BRTAP	97	240	0
BRTAP	97	240	1
BRTAP	97	288	3
BRTAP	97	288	4
NMTTP	99	0	6	A	0	M1
NMTTP	99	24	6	E	0	M1
NMTTP	99	48	5	E	0	M1
NMTTP	99	72	4	A	0	M1
NMTTP	99	96	0	A	0	M1
NMTTP	99	120	1	E	0	M1
NMTTP	99	144	2	E	0	M1
NMTTP	99	168	2	A	0	M1
NMTTP	99	192	7	A	0	M1
NMTTP	99	216	7	B	0	M1
NMTTP	99	240	3	B	0	M1
NMTTP	99	264	3	A	0	M1
EXTAP	99	288	2
NMTAP	99	336	2
NMTAP	100	0	2
NMTAP	100	48	2
NMTAP	100	96	2
EXTAP	100	96	4
NMTAP	100	144	2
NMTAP	100	192	2
NMTAP	100	240	2
NMTAP	100	288	2
EXTAP	100	288	3
NMTAP	100	336	2
NMTAP	101	0	2
NMTAP	101	48	2
NMTAP	101	96	2
EXTAP	101	96	4
NMTAP	101	144	2
EXTAP	101	192	3
EXTAP	101	192	5
NMTAP	101	240	5
NMTAP	101	288	4
EXTAP	101	288	5
NMTAP	101	336	5
NMTAP	102	0	5
NMTAP	102	48	5
EXTAP	102	96	3
NMTAP	102	96	5
NMTAP	102	144	5
NMTAP	102	192	5
NMTAP	102	240	5
EXTAP	102	288	4
NMTAP	102	288	5
NMTAP	102	336	5
NMTAP	103	0	5
NMTAP	103	48	5
EXTAP	103	96	3
NMTAP	103	96	5
NMTAP	103	144	5
EXTAP	103	192	2
EXTAP	103	192	4
NMTAP	103	240	2
NMTAP	103	288	1
EXTAP	103	288	3
NMTAP	103	336	1
NMTAP	104	0	1
NMTAP	104	48	1
NMTAP	104	96	1
EXTAP	104	96	3
NMTAP	104	144	3
NMTAP	104	192	3
NMTAP	104	240	3
NMTAP	104	288	2
EXTAP	104	288	3
NMTAP	104	336	2
NMTAP	105	0	2
NMTAP	105	48	2
EXTAP	105	96	2
NMTAP	105	96	4
NMTAP	105	144	3
EXTAP	105	192	3
EXTAP	105	192	5
NMTAP	105	240	4
NMTAP	105	288	2
EXTAP	105	288	4
NMTAP	105	336	2
NMTAP	106	0	2
NMTAP	106	48	3
NMTAP	106	48	5
NMTAP	106	96	5
NMTAP	106	144	5
NMTAP	106	192	3
NMTAP	106	192	4
EXTAP	106	288	2
EXTAP	106	288	5
NMTAP	107	0	6
NMTAP	107	0	7
NMTAP	107	48	0
NMTAP	107	48	7
NMTAP	107	96	0
NMTAP	107	96	1
BRTAP	107	192	2
BRTAP	107	192	6
NMSTR	107	288	0
NMSCR	107	288	0	96	48	3
NMTAP	107	288	4
NMSTR	108	0	5
NMSI_	108	0	5	96	48	0
NMTAP	108	48	5
NMSTR	108	96	2
NMSI_	108	96	2	96	48	7
NMTAP	108	96	5
NMTAP	108	144	2
NMTAP	108	192	2
NMTAP	108	192	6
NMTAP	108	240	6
NMSTR	108	288	1
NMSCR	108	288	1	96	48	4
NMTAP	108	288	5
NMTAP	108	336	0
NMTAP	108	360	6
NMSTR	109	0	1
NMSI_	109	0	1	96	48	5
NMTAP	109	48	5
NMTAP	109	72	5
NMTAP	109	96	1
NMTAP	109	144	7
NMTAP	109	168	7
BRTAP	109	192	0
BRTAP	109	192	6
NMSTR	109	288	6
NMSI_	109	288	6	96	48	2
NMSTR	109	336	1
NMSI_	109	336	1	96	48	5
NMTAP	110	0	6
NMTAP	110	48	1
NMSTR	110	96	7
NMSI_	110	96	7	96	48	3
NMSTR	110	144	0
NMSI_	110	144	0	96	48	4
NMTAP	110	192	7
NMTAP	110	240	0
NMTAP	110	288	5
NMTAP	110	336	5
NMTAP	111	0	3
NMTAP	111	12	2
NMTAP	111	24	1
NMTAP	111	36	0
NMTAP	111	48	7
NMTAP	111	60	6
NMTAP	111	72	5
NMTAP	111	84	4
NMSTR	111	96	3
NMSI_	111	96	3	96	48	6
NMSI_	111	96	3	96	48	7
NMTAP	111	192	3
NMTAP	111	288	1
NMTAP	111	312	0
NMTAP	111	336	1
NMTAP	111	360	0
NMTAP	112	0	2
NMTAP	112	24	7
NMTAP	112	48	3
NMTAP	112	72	6
NMTAP	112	96	4
NMTAP	112	120	5
NMTAP	112	144	4
NMTAP	112	168	5
NMTAP	112	192	3
NMTAP	112	216	4
NMTAP	112	240	2
NMTAP	112	264	3
NMTAP	112	288	2
NMTAP	112	312	3
NMTAP	112	336	1
NMTAP	112	360	4
NMSTR	113	0	0
NMSI_	113	0	0	96	48	4
NMTAP	113	24	5
NMTAP	113	48	7
NMTAP	113	72	6
NMTAP	113	96	0
NMTAP	113	192	2
NMTAP	113	192	7
NMHLD	113	288	0	48
BRTAP	113	288	1
NMTAP	113	304	2
NMTAP	113	320	3
NMTAP	113	336	4
NMTAP	113	352	5
BRTAP	114	48	6
NMHLD	114	48	7	48
NMTAP	114	64	5
NMTAP	114	80	4
NMTAP	114	96	3
NMTAP	114	112	2
NMHLD	114	192	0	48
BRTAP	114	192	1
NMTAP	114	208	2
NMTAP	114	224	3
NMTAP	114	240	4
NMTAP	114	256	5
BRTAP	114	336	6
BRTAP	114	336	7
NMTAP	114	352	0
NMTAP	114	352	5
NMTAP	114	368	1
NMTAP	114	368	4
NMTAP	115	0	2
NMHLD	115	0	3	96
NMTAP	115	96	1
NMTAP	115	108	0
NMTAP	115	120	7
NMTAP	115	132	6
NMTAP	115	144	5
NMTAP	115	156	4
NMTAP	115	168	3
NMTAP	115	180	2
NMTAP	115	192	1
NMTAP	115	204	0
NMTAP	115	216	7
NMTAP	115	228	6
NMTAP	115	240	5
NMTAP	115	252	4
NMTAP	115	252	6
NMTAP	115	264	3
NMTAP	115	264	7
NMTAP	115	276	0
NMTAP	115	276	2
NMSTR	115	288	1
NMSF_	115	288	1	96	48	5
BRSTR	116	0	1
NMSCL	116	0	1	96	432	2
NMSCR	116	0	1	96	432	0
NMTTP	116	12	0	C	1	M1
NMSTR	117	288	0
NMSF_	117	288	0	96	480	4
NMSTR	117	288	7
NMSF_	117	288	7	96	480	3
NMTTP	120	144	2	A	0	M1
NMTTP	120	156	3	E	0	M1
NMTTP	120	168	3	B	0	M1
NMTTP	120	180	4	B	0	M1
NMTTP	120	192	5	E	0	M1
NMTTP	120	204	5	A	0	M1
BRSTR	120	288	0
NMSCR	120	288	0	96	48	2
BRSTR	120	288	6
NMSCL	120	288	6	96	48	4
NMTAP	121	0	0
NMTAP	121	0	6
NMTTP	121	96	4	E	0	M1
NMTTP	121	108	4	B	0	M1
NMTTP	121	120	5	B	0	M1
NMTTP	121	132	6	E	0	M1
NMTTP	121	144	3	E	0	M1
NMTTP	121	156	2	B	0	M1
NMTTP	121	168	1	B	0	M1
NMTTP	121	180	1	E	0	M1
BRTAP	121	192	7
NMHLD	121	288	0	48
NMHLD	121	288	6	48
NMHLD	121	360	2	48
NMHLD	121	360	4	48
NMTAP	122	48	3
NMTAP	122	72	3
NMTAP	122	96	3
NMTAP	122	144	4
NMTAP	122	168	4
BRTAP	122	192	4
NMHLD	122	288	3	48
NMHLD	122	288	5	48
NMHLD	122	360	4	48
NMHLD	122	360	6	48
NMTAP	123	48	4
NMTAP	123	48	6
NMTTP	123	96	4	E	0	M1
NMTTP	123	108	3	B	0	M1
NMTTP	123	120	2	B	0	M1
NMTTP	123	132	2	E	0	M1
NMTTP	123	144	5	E	0	M1
NMTTP	123	156	5	B	0	M1
NMTTP	123	168	6	B	0	M1
NMTTP	123	180	7	E	0	M1
NMTAP	123	192	0
NMHLD	123	288	1	48
NMHLD	123	288	7	48
NMHLD	123	360	3	48
NMHLD	123	360	5	48
NMTAP	124	48	4
NMTAP	124	72	4
NMSTR	124	96	4
NMSI_	124	96	4	96	48	2
NMSI_	124	96	4	96	48	6
BRTAP	124	288	3
BRTAP	124	288	5
NMTAP	124	360	2
NMTAP	124	360	4
NMTAP	125	48	1
NMTAP	125	48	3
NMTAP	125	96	2
NMTAP	125	120	2
NMTAP	125	144	2
NMTAP	125	192	1
NMTAP	125	192	3
BRTAP	125	288	2
BRTAP	125	288	3
NMTAP	125	360	3
NMTAP	125	360	4
NMTAP	126	48	4
NMTAP	126	48	5
NMSTR	126	96	1
NMSI_	126	96	1	96	48	3
NMSTR	126	96	6
NMSI_	126	96	6	96	48	4
NMTAP	126	144	0
NMTAP	126	168	7
NMTAP	126	192	1
NMTAP	126	192	6
NMTAP	126	288	2
NMTAP	126	312	2
NMTAP	126	336	2
NMTAP	126	360	2
BRTAP	127	0	1
BRTAP	127	0	3
NMTAP	127	96	5
NMTAP	127	120	5
NMTAP	127	144	5
NMTAP	127	168	5
BRTAP	127	192	4
BRTAP	127	192	6
NMTAP	127	288	1
NMTAP	127	288	3
NMTAP	127	360	3
NMTAP	127	360	4
NMTAP	128	48	4
NMTAP	128	48	6
NMSTR	128	96	4
NMSI_	128	96	4	96	48	1
NMSTR	128	96	6
NMSI_	128	96	6	96	48	3
NMTAP	128	288	0
NMTAP	128	288	7
NMTAP	128	336	2
NMHLD	128	360	0	48
NMTAP	129	24	1
NMHLD	129	48	7	48
NMTAP	129	96	0
NMHLD	129	120	6	48
NMTAP	129	168	7
NMHLD	129	192	5	48
NMTAP	129	240	3
NMTAP	129	264	4
NMHLD	129	288	2	96
NMTAP	130	0	3
NMSTR	130	16	4
NMSI_	130	16	4	96	48	0
NMTAP	130	32	5
NMTAP	130	48	6
NMTAP	130	64	7
NMTAP	130	144	6
NMTAP	130	240	7
NMTAP	130	264	1
BRTAP	130	288	2
BRTAP	130	288	6
NMTAP	131	0	3
NMTAP	131	0	6
NMTAP	131	16	2
NMTAP	131	16	5
NMTAP	131	32	1
NMTAP	131	32	4
NMTAP	131	48	0
NMTAP	131	48	3
NMTAP	131	144	1
NMTAP	131	144	4
NMTAP	131	160	2
NMTAP	131	160	5
NMTAP	131	176	3
NMTAP	131	176	6
NMTAP	131	192	4
NMTAP	131	192	7
NMTAP	131	288	7
NMTAP	131	304	6
NMTAP	131	320	5
NMTAP	131	336	4
NMTAP	131	352	3
NMTAP	131	368	2
NMTAP	132	0	1
NMTAP	132	16	0
NMTAP	132	32	7
NMTAP	132	48	6
NMTAP	132	64	5
NMTAP	132	80	4
NMSTR	132	96	0
NMSI_	132	96	0	96	48	5
NMSTR	132	96	3
NMSI_	132	96	3	96	48	6
NMTAP	132	288	3
NMTAP	132	288	7
NMTAP	132	336	5
NMTAP	132	360	4
NMTAP	133	0	6
NMTAP	133	48	0
NMTAP	133	96	1
NMTAP	133	96	7
NMTAP	133	144	2
NMTAP	133	168	3
NMTAP	133	192	1
NMTAP	133	240	7
NMTAP	133	288	0
NMTAP	133	288	6
NMTAP	133	336	1
NMTAP	134	0	2
NMTAP	134	0	6
NMTAP	134	48	5
NMTAP	134	96	1
NMTAP	134	96	4
NMTAP	134	144	2
NMTAP	134	160	3
NMTAP	134	176	2
NMTAP	134	192	3
EXHLD	134	288	1	96
EXTAP	134	288	4
BRSTR	135	0	3
NMSI_	135	0	3	96	48	7
NMTAP	135	32	3
NMTAP	135	64	3
BRSTR	135	96	1
NMSI_	135	96	1	96	48	5
NMTAP	135	128	1
NMTAP	135	160	1
BRSTR	135	192	6
NMSI_	135	192	6	96	48	2
NMTAP	135	224	6
NMTAP	135	256	6
BRSTR	135	288	4
NMSI_	135	288	4	96	48	0
NMTAP	135	320	4
NMTAP	135	352	4
BRTAP	136	0	7
NMTAP	136	32	7
NMTAP	136	64	7
NMTAP	136	96	1
NMTAP	136	96	6
NMTAP	136	168	2
NMTAP	136	168	3
NMTAP	136	240	4
NMTAP	136	240	5
NMTAP	136	288	3
NMTAP	136	288	4
NMTAP	137	0	4
NMTAP	137	24	5
NMTAP	137	48	6
NMTAP	137	72	7
NMTAP	137	96	4
NMTAP	137	120	3
NMTAP	137	144	2
NMTAP	137	168	1
NMTAP	137	192	4
NMTAP	137	216	5
NMTAP	137	240	6
NMTAP	137	264	7
NMTAP	137	288	1
NMTAP	137	312	0
NMTAP	137	336	2
NMTAP	137	360	7
NMTAP	138	0	4
NMTAP	138	24	5
NMTAP	138	48	3
NMTAP	138	72	6
NMTAP	138	96	2
NMTAP	138	120	5
NMTAP	138	144	1
NMTAP	138	168	5
NMTAP	138	192	0
NMTAP	138	216	5
NMTAP	138	240	7
NMTAP	138	264	5
BRTAP	138	288	0
NMTAP	138	312	1
NMTAP	138	336	2
NMTAP	138	360	3
NMTAP	138	360	6
NMTAP	139	0	5
NMTAP	139	24	4
NMTAP	139	48	1
NMTAP	139	48	3
NMTAP	139	72	2
NMTAP	139	96	3
NMTAP	139	120	4
NMTAP	139	120	7
NMTAP	139	144	6
NMTAP	139	168	5
NMHLD	139	192	0	96
NMTAP	139	192	4
BRTAP	139	288	4
NMTAP	139	312	5
NMTAP	139	336	6
NMTAP	139	360	7
NMTAP	140	0	0
NMTAP	140	0	1
NMTAP	140	24	2
NMTAP	140	48	3
NMTAP	140	72	4
EXTAP	140	96	7
NMTAP	140	120	6
NMTAP	140	144	5
NMTAP	140	168	4
NMTAP	140	192	1
NMTAP	140	204	2
NMTAP	140	216	3
NMTAP	140	228	4
NMTAP	140	240	5
NMTAP	140	252	6
NMTAP	140	264	7
NMTAP	140	276	0
BRHLD	140	288	1	1440
BRSTR	140	288	6
NMSCL	140	288	6	96	96	4
CNSI_	141	96	4	0	96	0
CNSCL	141	192	0	0	96	7
CNSI_	141	288	7	0	288	3
NMSTR	142	288	2
BRSCL	142	288	2	96	96	0
CNSI_	143	96	0	0	96	4
CNSCL	143	192	4	0	96	3
CNSI_	143	288	3	0	288	7
BRTAP	144	288	6
EXHLD	145	0	5	24
NMHLD	145	48	5	24
NMHLD	145	96	5	24
EXHLD	145	144	4	24
NMHLD	145	192	4	24
NMHLD	145	240	4	24
EXHLD	145	288	3	24
NMHLD	145	336	3	24
NMHLD	146	0	3	24
EXHLD	146	48	2	24
NMHLD	146	96	2	24
NMHLD	146	144	2	24
NMSTR	146	192	3
NMSCL	146	192	3	96	144	4
NMTAP	146	192	4
CNSXL	147	48	4	0	144	2
NMTAP	147	288	2
NMTAP	147	312	3
NMTAP	147	360	5
NMTAP	148	0	4
NMTAP	148	48	1
NMTAP	148	72	3
NMTAP	148	120	6
NMTAP	148	144	4
BRHLD	148	192	0	96
NMSTR	148	288	3
NMSI_	148	288	3	96	48	7
NMTAP	148	336	4
NMSTR	149	0	1
NMSCR	149	0	1	96	48	4
NMTAP	149	0	3
NMTAP	149	48	0
NMTAP	149	96	1
NMSTR	149	96	6
NMSUL	149	96	6	96	48	2
NMTAP	149	144	5
NMTAP	149	192	6
NMTAP	149	192	7
NMTAP	149	240	0
NMTAP	149	288	1
NMTAP	149	288	7
NMTAP	149	336	2
NMTAP	149	352	3
NMTAP	149	368	2
NMTAP	150	0	3
NMTAP	150	48	5
NMTAP	150	64	4
NMTAP	150	80	5
NMTAP	150	96	4
NMTAP	150	144	3
NMTAP	150	160	2
NMTAP	150	160	4
NMTAP	150	176	1
NMTAP	150	176	5
NMTAP	150	192	0
NMSTR	150	192	6
NMSI_	150	192	6	96	48	4
NMSTR	150	240	7
NMSI_	150	240	7	96	48	3
NMSTR	150	288	6
NMSI_	150	288	6	96	48	2
NMSTR	150	336	7
NMSI_	150	336	7	96	48	1
NMSTR	151	0	6
NMSCL	151	0	6	96	48	3
NMTAP	151	48	7
NMTAP	151	96	6
NMTAP	151	144	0
EXTAP	151	192	1
NMTAP	151	208	5
NMTAP	151	224	1
NMTAP	151	240	5
NMTAP	151	256	1
NMTAP	151	272	5
NMTAP	151	288	1
NMTAP	151	336	2
NMTAP	151	360	3
NMTAP	152	24	5
NMTAP	152	48	4
NMSTR	152	96	2
NMSCL	152	96	2	96	48	7
NMSTR	152	96	6
NMSCL	152	96	6	96	48	3
NMTAP	152	144	3
NMTAP	152	144	7
NMTAP	152	192	2
NMTAP	152	192	6
BRSTR	152	288	0
NMSI_	152	288	0	96	24	4
NMTAP	152	288	4
BRSTR	152	360	5
NMSI_	152	360	5	96	24	1
BRSTR	153	48	2
NMSI_	153	48	2	96	24	7
BRSTR	153	120	6
NMSI_	153	120	6	96	24	2
BRSTR	153	192	0
BRSI_	153	192	0	96	24	4
NMTAP	153	288	0
BRSTR	153	288	7
NMSI_	153	288	7	96	24	3
BRSTR	153	360	2
NMSI_	153	360	2	96	24	6
BRSTR	154	48	5
NMSI_	154	48	5	96	24	0
BRSTR	154	120	1
NMSI_	154	120	1	96	24	5
BRSTR	154	192	7
BRSI_	154	192	7	96	24	3
BRSTR	154	288	0
NMSI_	154	288	0	96	24	4
NMTAP	154	288	7
BRSTR	154	360	5
NMSI_	154	360	5	96	24	1
BRSTR	155	48	2
NMSI_	155	48	2	96	24	7
BRSTR	155	120	6
NMSI_	155	120	6	96	24	2
BRTAP	155	192	0
BRTAP	155	288	0
NMTAP	155	312	1
NMTAP	155	336	2
NMTAP	155	360	3
BRTAP	156	0	6
NMTAP	156	24	7
NMTAP	156	48	0
NMTAP	156	72	1
BRTAP	156	96	4
NMTAP	156	120	5
NMTAP	156	144	6
NMTAP	156	168	7
NMTAP	156	192	0
BRTAP	156	192	4
BRSTR	156	288	0
NMSI_	156	288	0	96	48	2
NMTAP	156	288	5
NMTAP	156	336	7
NMTAP	156	360	6
NMTAP	157	0	0
NMSTR	157	48	5
NMSI_	157	48	5	96	48	7
NMTAP	157	96	4
NMTAP	157	120	3
NMTAP	157	144	5
NMHLD	157	192	2	48
NMTAP	157	240	0
NMTAP	157	264	0
NMTAP	157	288	1
NMTAP	157	288	7
NMSTR	158	0	6
NMSI_	158	0	6	96	24	2
NMSTR	158	48	0
NMSCL	158	48	0	96	48	5
NMTAP	158	96	6
CNSI_	158	120	2	0	24	0
NMTAP	158	144	3
BRTAP	158	192	3
NMTAP	158	288	4
NMSTR	158	288	6
NMSI_	158	288	6	96	48	4
NMTAP	158	336	7
NMTAP	158	360	0
NMTAP	159	0	6
NMSTR	159	48	1
NMSI_	159	48	1	96	48	7
NMTAP	159	96	2
NMTAP	159	120	3
NMTAP	159	144	1
NMTAP	159	192	5
NMTAP	159	240	5
NMTAP	159	264	4
NMSTR	159	288	6
NMSI_	159	288	6	96	48	3
NMSTR	159	336	3
NMSI_	159	336	3	96	48	6
NMSTR	160	0	6
NMSCR	160	0	6	96	96	4
NMTAP	160	48	0
NMTAP	160	96	0
NMTTP	160	192	7	A	0	M1
NMTTP	160	198	0	D	0	M1
NMTTP	160	204	0	A	0	M1
NMTTP	160	210	1	D	0	M1
NMTTP	160	216	1	A	0	M1
NMTTP	160	222	2	D	0	M1
NMTTP	160	228	2	A	0	M1
NMTTP	160	234	3	D	0	M1
NMTTP	160	240	3	A	0	M1
NMSTR	160	288	5
NMSV_	160	288	5	96	48	0
NMTAP	160	336	6
NMTAP	160	360	4
NMTAP	161	0	5
NMSTR	161	48	2
NMSV_	161	48	2	96	48	7
NMTAP	161	96	1
NMTAP	161	120	3
NMTAP	161	144	2
NMTAP	161	192	5
NMTAP	161	240	5
NMHLD	161	288	6	48
NMHLD	161	288	7	48
NMHLD	161	360	0	48
NMHLD	161	360	7	48
NMTAP	162	48	0
NMTAP	162	48	1
NMSTR	162	96	0
NMSI_	162	96	0	96	48	4
NMSTR	162	96	7
NMSI_	162	96	7	96	48	3
NMTAP	162	144	2
NMTAP	162	144	5
NMTAP	162	192	0
NMTAP	162	192	7
NMTAP	162	288	1
NMTAP	162	288	6
BRTAP	163	0	0
NMTAP	163	32	0
NMTAP	163	64	0
BRTAP	163	96	7
NMTAP	163	128	7
NMTAP	163	160	7
EXTAP	163	192	2
EXTAP	163	192	7
NMTAP	163	224	1
NMTAP	163	256	0
EXTAP	163	288	3
EXTAP	163	288	6
NMTAP	163	320	5
NMTAP	163	352	4
EXTAP	164	0	0
EXTAP	164	0	5
NMTAP	164	32	7
NMTAP	164	64	6
EXTAP	164	96	1
EXTAP	164	96	4
NMTAP	164	128	2
NMTAP	164	160	3
BRTAP	164	192	1
BRTAP	164	192	4
BRSTR	164	288	6
NMSCL	164	288	6	96	24	5
NMTAP	164	336	7
NMTAP	164	360	0
NMTAP	165	0	6
CNSI_	165	24	5	0	24	3
BRSTR	165	48	1
NMSCL	165	48	1	96	24	0
NMTAP	165	96	2
NMTAP	165	120	3
NMTAP	165	144	1
CNSI_	165	168	0	0	24	6
NMTAP	165	192	5
NMTAP	165	240	5
NMTAP	165	240	7
BRTAP	165	288	0
NMTAP	165	300	1
NMTAP	165	312	2
NMTAP	165	324	3
BRTAP	165	360	0
NMTAP	165	372	1
NMTAP	166	0	2
NMTAP	166	12	3
BRTAP	166	48	1
NMTAP	166	60	2
NMTAP	166	72	3
NMTAP	166	84	4
BRTAP	166	120	1
NMTAP	166	132	2
NMTAP	166	144	3
NMTAP	166	156	4
NMTAP	166	192	0
NMTAP	166	192	7
BRSTR	166	288	1
NMSI_	166	288	1	96	24	3
NMTAP	166	288	3
NMTAP	166	336	0
NMTAP	166	360	7
NMTAP	167	0	1
CNSCR	167	24	3	0	24	4
NMSTR	167	48	6
NMSI_	167	48	6	96	24	0
NMTAP	167	96	5
NMTAP	167	120	4
NMTAP	167	144	6
CNSCR	167	168	0	0	24	1
NMTAP	167	192	2
NMTAP	167	240	0
NMTAP	167	240	2
BRTAP	167	288	7
NMTAP	167	300	6
NMTAP	167	312	5
NMTAP	167	324	4
BRTAP	167	360	7
NMTAP	167	372	6
NMTAP	168	0	5
NMTAP	168	12	4
BRTAP	168	48	6
NMTAP	168	60	5
NMTAP	168	72	4
NMTAP	168	84	3
BRTAP	168	120	6
NMTAP	168	132	5
NMTAP	168	144	4
NMTAP	168	156	3
NMTAP	168	192	0
NMTAP	168	192	7
BRTAP	168	288	1
NMTAP	168	312	7
NMTAP	168	336	3
NMTAP	168	360	5
NMTAP	169	0	2
NMTAP	169	24	4
NMTAP	169	48	1
NMTAP	169	72	7
NMSTR	169	96	3
NMSI_	169	96	3	96	48	7
NMTAP	169	120	5
NMTAP	169	144	2
NMTAP	169	168	4
NMTAP	169	192	3
BRTAP	169	288	6
NMTAP	169	312	0
NMTAP	169	336	5
NMTAP	169	360	2
NMTAP	170	0	7
NMTAP	170	24	1
NMTAP	170	48	5
NMTAP	170	72	4
NMSTR	170	96	6
NMSCL	170	96	6	96	48	3
NMTAP	170	120	0
NMTAP	170	144	7
NMTAP	170	168	1
NMTAP	170	192	6
NMTAP	170	288	2
NMTAP	170	288	3
NMTAP	170	336	1
NMTAP	170	336	2
NMTAP	171	0	0
NMTAP	171	0	1
NMTAP	171	48	0
NMTAP	171	48	7
NMTAP	171	96	6
NMTAP	171	96	7
NMTAP	171	144	5
NMTAP	171	144	6
NMTAP	171	192	4
NMTAP	171	192	5
NMTAP	171	240	3
NMTAP	171	240	4
BRTAP	171	288	1
NMTAP	171	312	1
NMTAP	171	336	3
NMTAP	171	360	3
NMTAP	172	0	4
NMTAP	172	24	4
NMTAP	172	48	6
NMTAP	172	72	6
BRTAP	172	96	3
NMTAP	172	112	2
NMTAP	172	128	1
NMTAP	172	144	0
NMTAP	172	144	7
NMTAP	172	160	6
NMTAP	172	176	5
BRTAP	172	192	2
NMTAP	172	192	4
NMTAP	172	208	1
NMTAP	172	224	0
NMTAP	172	240	6
NMTAP	172	240	7
NMTAP	172	256	5
NMTAP	172	272	4
NMTHO	172	288	0	2688	C	0	M1
NMTAP	172	288	3
NMTTP	174	288	5	E	0	M1
NMTTP	175	288	6	E	0	M1
NMTTP	176	96	7	B	0	M1
NMTTP	176	192	0	B	0	M1
EXHLD	177	0	7	96
EXHLD	177	144	6	96
EXHLD	177	288	5	96
EXHLD	178	48	4	96
EXHLD	178	192	3	96
EXHLD	179	0	5	96
EXHLD	179	144	6	96
BXTAP	179	288	7
BXTAP	179	336	7
BXTAP	180	0	7
BXTAP	180	48	7
BXTAP	180	96	7
BXTAP	180	144	7
BXTAP	180	192	6
NMTTP	180	204	6	E	1	M1
NMTAP	180	288	1
NMTAP	180	312	0
NMSTR	180	336	1
NMSI_	180	336	1	96	48	4
NMTAP	181	0	2
NMTAP	181	0	3
NMTAP	181	48	1
NMTAP	181	48	4
NMTAP	181	60	5
NMTAP	181	72	6
NMTAP	181	84	7
NMTAP	181	96	0
NMTAP	181	144	0
NMTAP	181	192	0
NMTAP	181	192	4
NMTAP	181	204	3
NMTAP	181	204	7
NMTAP	181	216	2
NMTAP	181	216	6
NMTAP	181	228	1
NMTAP	181	228	5
NMTAP	181	240	0
NMTAP	181	240	4
NMTAP	181	288	1
NMTAP	181	312	3
NMSTR	181	336	2
NMSI_	181	336	2	96	48	7
NMTAP	182	0	0
NMTAP	182	0	1
NMTAP	182	48	2
NMTAP	182	48	7
NMTAP	182	60	6
NMTAP	182	72	5
NMTAP	182	84	4
NMTAP	182	96	3
NMTAP	182	144	3
NMHLD	182	192	0	16
NMHLD	182	192	4	16
NMHLD	182	224	0	16
NMHLD	182	224	4	16
NMHLD	182	256	0	16
NMHLD	182	256	4	16
NMTAP	182	288	6
NMTAP	182	312	7
NMSTR	182	336	6
NMSI_	182	336	6	96	48	3
NMTAP	183	0	4
NMTAP	183	0	5
NMTAP	183	48	3
NMTAP	183	48	6
NMTAP	183	60	2
NMTAP	183	72	1
NMTAP	183	84	0
NMTAP	183	96	7
NMTAP	183	144	7
NMTAP	183	192	3
NMTAP	183	192	7
NMTAP	183	204	0
NMTAP	183	204	4
NMTAP	183	216	1
NMTAP	183	216	5
NMTAP	183	228	2
NMTAP	183	228	6
NMTAP	183	240	3
NMTAP	183	240	7
NMTAP	183	288	6
NMTAP	183	304	4
NMTAP	183	320	6
NMTAP	183	336	4
NMTAP	184	0	0
NMTAP	184	0	7
NMTAP	184	48	1
NMTAP	184	64	3
NMTAP	184	80	1
NMTAP	184	96	3
NMTAP	184	144	0
NMTAP	184	144	7
NMTAP	184	192	6
NMTAP	184	208	4
NMTAP	184	224	5
NMTAP	184	240	3
NMTAP	184	256	4
NMTAP	184	272	2
NMTAP	184	288	3
NMTAP	184	336	2
NMTAP	184	336	3
NMTAP	185	0	0
NMHLD	185	0	1	48
NMTAP	185	16	7
NMTAP	185	32	6
NMTAP	185	48	5
NMTAP	185	64	4
NMTAP	185	80	3
NMSTR	185	96	7
BRSI_	185	96	7	96	48	2
NMTAP	185	112	6
NMTAP	185	128	5
NMTAP	185	144	4
NMTAP	185	160	3
NMTAP	185	176	2
NMTTP	185	192	7	A	1	M1
CNSI_	185	240	2	0	48	7
NMTAP	185	288	1
NMTAP	185	336	4
NMTAP	185	336	5
NMHLD	186	0	6	48
NMTAP	186	0	7
NMTAP	186	16	0
NMTAP	186	32	1
NMTAP	186	48	2
NMTAP	186	64	3
NMTAP	186	80	4
NMSTR	186	96	0
BRSI_	186	96	0	96	48	5
NMTAP	186	112	1
NMTAP	186	128	2
NMTAP	186	144	3
NMTAP	186	160	4
NMTAP	186	176	5
NMTTP	186	192	0	A	1	M1
CNSI_	186	240	5	0	48	0
NMTAP	186	288	7
NMTAP	187	0	0
NMTAP	187	16	6
NMTAP	187	32	0
NMTAP	187	48	6
NMTAP	187	64	0
NMTAP	187	80	6
NMTAP	187	96	1
NMTAP	187	112	5
NMTAP	187	128	1
NMTAP	187	144	5
NMTAP	187	160	1
NMTAP	187	176	5
NMTAP	187	192	2
NMTAP	187	208	6
NMTAP	187	224	2
NMTAP	187	240	6
NMTAP	187	256	2
NMTAP	187	272	6
NMTAP	187	288	3
NMTAP	187	304	7
NMTAP	187	320	3
NMTAP	187	336	7
NMTAP	187	352	3
NMTAP	187	368	7
NMSTR	188	0	4
NMSCL	188	0	4	96	48	1
NMSTR	188	16	0
NMSCL	188	16	0	96	32	5
NMTAP	188	32	4
NMTAP	188	48	0
NMTAP	188	64	4
NMTAP	188	80	0
BRTAP	188	192	2
BRTAP	188	192	6
BRTAP	188	288	0
NMTAP	188	300	1
NMTAP	188	312	2
NMTAP	188	324	3
NMTAP	188	336	4
NMTAP	188	348	5
BRTAP	188	360	6
NMTAP	188	372	7
NMTAP	189	0	0
NMTAP	189	12	1
NMTAP	189	24	2
NMTAP	189	36	3
BRTAP	189	48	4
NMTAP	189	60	5
NMTAP	189	72	6
NMTAP	189	84	7
NMTAP	189	96	0
NMTAP	189	108	1
BRTAP	189	120	2
NMTAP	189	132	3
NMTAP	189	144	4
NMTAP	189	156	5
NMTAP	189	168	6
NMTAP	189	180	7
BRTAP	189	192	0
NMHLD	189	192	4	0
NMTAP	189	204	1
NMTAP	189	216	2
NMTAP	189	228	3
NMTAP	189	240	4
NMTAP	189	252	5
NMHLD	189	264	2	0
BRTAP	189	264	6
NMTAP	189	276	7
NMTAP	189	288	0
NMTAP	189	300	1
NMTAP	189	312	2
NMTAP	189	324	3
NMHLD	189	336	0	0
BRTAP	189	336	4
NMTAP	189	348	5
NMTAP	189	360	6
NMTAP	189	372	7
NMTAP	190	0	0
NMTAP	190	12	1
BRTAP	190	24	2
NMHLD	190	24	6	0
NMTAP	190	36	3
NMTAP	190	48	4
NMTAP	190	60	5
NMTAP	190	72	6
NMTAP	190	84	7
EXTAP	190	96	0
EXTAP	190	112	6
EXTAP	190	128	0
EXTAP	190	144	6
EXTAP	190	160	0
EXTAP	190	176	6
BXHLD	190	192	7	12
BXHLD	190	216	7	12
BXHLD	190	240	7	12
BXHLD	190	264	7	12
BRTAP	190	288	0
NMTTP	190	288	0	E	1	M1
BRTAP	190	288	6
NMTTP	190	288	7	E	0	M1
BRTAP	190	300	1
NMTTP	190	300	1	E	1	M1
BRTAP	190	300	5
NMTTP	190	300	6	E	0	M1
BRTAP	190	312	2
NMTTP	190	312	2	E	1	M1
BRTAP	190	312	4
NMTTP	190	312	5	E	0	M1
BRTAP	190	324	3
NMTTP	190	324	3	E	1	M1
NMTTP	190	324	4	E	0	M1
NMHLD	191	0	0	1440
NMHLD	191	0	4	1440

T_REC_TAP	1375
T_REC_BRK	116
T_REC_XTP	56
T_REC_BXX	9
T_REC_HLD	129
T_REC_XHO	12
T_REC_BHO	31
T_REC_BXH	4
T_REC_STR	122
T_REC_BST	33
T_REC_XST	3
T_REC_XBS	16
T_REC_TTP	93
T_REC_THO	2
T_REC_SLD	168
T_REC_BSL	12
T_REC_ALL	2181
T_NUM_TAP	1649
T_NUM_BRK	221
T_NUM_HLD	143
T_NUM_SLD	168
T_NUM_ALL	2181
T_JUDGE_TAP	1823
T_JUDGE_HLD	373
T_JUDGE_SLD	180
T_JUDGE_ALL	2376
TTM_EACHPAIRS	331
TTM_SCR_TAP	824500
TTM_SCR_BRK	574600
TTM_SCR_HLD	143000
TTM_SCR_SLD	252000
TTM_SCR_ALL	1794100
TTM_SCR_S	1718850
TTM_SCR_SS	1772000
TTM_RAT_ACV	10124

