VERSION	0.00.00	1.05.00
FES_MODE	0
BPM_DEF	120.000	180.000	240.000	120.000
MET_DEF	4	4
RESOLUTION	384
CLK_DEF	384
COMPATIBLE_CODE	MA2

BPM	0	0	120.000
BPM	11	0	130.000
BPM	12	0	140.000
BPM	13	0	150.000
BPM	14	0	160.000
BPM	15	0	170.000
BPM	16	0	180.000
BPM	17	0	190.000
BPM	18	0	200.000
BPM	19	0	210.000
BPM	20	0	220.000
BPM	21	0	230.000
BPM	21	192	240.000
BPM	40	0	180.000
BPM	100	0	187.500
BPM	102	0	195.000
BPM	104	0	202.500
BPM	106	0	210.000
BPM	108	0	217.500
BPM	110	0	225.000
BPM	112	0	232.500
BPM	114	0	240.000
BPM	116	0	180.000
BPM	117	0	170.000
BPM	118	0	160.000
BPM	119	0	140.000
BPM	120	0	180.000
BPM	121	0	180.000
MET	0	0	4	4
SEF	0	0	0
SEF	119	288	1
SEF	120	0	3

NMTAP	1	0	3
NMTAP	1	48	3
NMTAP	1	96	5
NMTAP	1	144	5
NMTAP	1	192	1
NMTAP	1	240	1
NMTAP	1	288	7
NMTAP	1	336	7
BRHLD	2	0	0	768
NMTTP	2	96	0	E	0	M1
NMTTP	2	192	1	E	0	M1
NMTTP	2	288	2	E	0	M1
NMTTP	3	0	3	E	0	M1
NMTTP	3	96	4	E	0	M1
NMTTP	3	192	5	E	0	M1
NMTTP	3	288	6	E	0	M1
NMHLD	4	0	7	768
NMTTP	4	96	0	E	0	M1
NMTTP	4	192	7	E	0	M1
NMTTP	4	288	6	E	0	M1
NMTTP	5	0	5	E	0	M1
NMTTP	5	96	4	E	0	M1
NMTTP	5	192	3	E	0	M1
NMTTP	5	288	2	E	0	M1
NMHLD	6	0	1	384
NMTTP	6	96	3	E	0	M1
NMTTP	6	192	4	E	0	M1
NMTTP	6	288	5	E	0	M1
NMHLD	7	0	6	384
NMTTP	7	96	5	E	0	M1
NMTTP	7	192	4	E	0	M1
NMTTP	7	288	3	E	0	M1
NMHLD	8	0	2	192
NMTTP	8	96	3	A	0	M1
NMHLD	8	192	5	192
NMTTP	8	288	4	A	0	M1
NMSTR	9	0	1
NMSI_	9	0	1	96	96	5
NMSTR	9	192	7
NMSI_	9	192	7	96	96	3
NMTAP	10	0	2
NMTAP	10	72	1
NMTAP	10	72	3
NMTAP	10	144	0
NMTAP	10	144	7
NMHLD	10	216	0	72
NMHLD	10	216	7	72
NMTAP	11	0	5
NMTAP	11	72	4
NMTAP	11	72	6
NMTAP	11	144	0
NMTAP	11	144	7
NMHLD	11	216	0	72
NMHLD	11	216	7	72
NMTAP	12	0	2
NMTAP	12	72	1
NMTAP	12	72	3
NMTAP	12	144	0
NMTAP	12	144	7
NMHLD	12	216	0	72
NMHLD	12	216	7	72
NMTAP	13	0	5
NMTAP	13	72	4
NMTAP	13	72	6
NMTAP	13	144	0
NMTAP	13	144	7
NMHLD	13	216	0	72
NMHLD	13	216	7	72
NMTAP	14	0	1
NMTAP	14	72	3
NMTAP	14	72	5
NMTAP	14	144	3
NMTAP	14	144	5
NMTAP	14	192	6
NMTAP	14	264	2
NMTAP	14	264	4
NMTAP	14	336	2
NMTAP	14	336	4
NMTAP	15	0	1
NMTAP	15	72	3
NMTAP	15	72	5
NMTAP	15	144	3
NMTAP	15	144	5
NMTAP	15	192	6
NMTAP	15	264	2
NMTAP	15	264	4
NMTAP	15	336	2
NMTAP	15	336	4
NMTAP	16	0	1
NMHLD	16	72	0	72
NMHLD	16	72	7	72
NMTAP	16	192	6
NMHLD	16	264	0	72
NMHLD	16	264	7	72
NMTAP	17	0	1
NMTAP	17	72	0
NMTAP	17	72	7
NMTAP	17	144	0
NMTAP	17	144	7
NMTAP	17	192	6
NMTAP	17	264	0
NMTAP	17	264	7
NMTAP	17	336	0
NMTAP	17	336	7
NMSTR	18	0	1
NMSI_	18	0	1	96	48	5
NMSTR	18	192	6
NMSI_	18	192	6	96	48	2
NMSTR	19	0	0
NMSI_	19	0	0	96	48	4
NMSTR	19	192	7
NMSI_	19	192	7	96	48	3
NMSTR	20	0	1
NMSI_	20	0	1	96	48	4
NMSTR	20	192	6
NMSI_	20	192	6	96	48	3
NMSTR	21	0	0
NMSCR	21	0	0	96	48	3
NMSTR	21	192	7
NMSCL	21	192	7	96	48	4
NMHLD	22	0	2	384
NMTAP	23	0	7
NMTAP	23	48	7
NMTAP	23	96	7
NMTAP	23	144	7
NMSTR	23	192	7
NMSI_	23	192	7	96	48	3
NMHLD	24	0	1	192
NMHLD	24	192	3	192
NMHLD	25	0	4	192
NMTAP	25	192	6
NMTAP	25	288	6
NMHLD	26	0	5	192
NMHLD	26	192	7	192
NMHLD	27	0	0	192
NMTAP	27	192	2
NMTAP	27	288	2
NMHLD	28	0	6	192
NMHLD	28	192	4	192
NMHLD	29	0	3	192
NMTAP	29	192	1
NMTAP	29	288	1
NMHLD	30	0	2	192
NMHLD	30	192	0	192
NMHLD	31	0	7	192
NMTAP	31	192	5
NMTAP	31	288	5
NMHLD	32	0	6	96
NMTAP	32	96	4
NMTAP	32	144	4
NMTAP	32	192	5
NMTAP	32	288	3
NMTAP	32	288	4
NMHLD	33	0	1	96
NMTAP	33	96	3
NMTAP	33	144	3
NMTAP	33	192	2
NMTAP	33	288	1
NMTAP	33	288	4
NMHLD	34	0	5	96
NMTAP	34	96	7
NMTAP	34	144	7
NMTAP	34	192	6
NMTAP	34	288	0
NMTAP	34	288	7
NMHLD	35	0	2	96
NMTAP	35	96	0
NMTAP	35	144	0
NMTAP	35	192	1
NMTAP	35	288	2
NMTAP	35	288	7
NMHLD	36	0	1	96
NMTAP	36	96	3
NMTAP	36	144	3
NMTAP	36	192	2
NMTAP	36	288	3
NMTAP	36	288	4
NMSTR	37	0	6
NMSXL	37	0	6	96	192	3
EXTAP	38	0	2
EXTAP	38	128	0
EXTAP	38	128	1
EXTAP	38	256	6
EXTAP	38	256	7
EXTAP	39	0	4
EXTAP	39	0	5
EXTAP	39	128	2
EXTAP	39	128	3
EXTAP	39	256	0
EXTAP	39	256	1
BRTAP	40	0	2
BRTAP	40	0	7
NMTAP	40	96	4
NMTAP	40	96	5
NMTAP	40	192	6
NMTAP	40	240	6
NMTAP	40	288	3
NMTAP	40	336	4
NMTAP	41	0	1
NMTAP	41	48	1
NMTAP	41	96	3
NMSTR	41	192	0
NMSI_	41	192	0	96	48	4
NMSTR	41	192	1
NMSI_	41	192	1	96	48	4
NMTAP	42	0	6
NMTAP	42	48	6
NMTAP	42	96	3
NMTAP	42	144	4
NMTAP	42	192	1
NMTAP	42	240	1
NMSTR	42	288	3
NMSI_	42	288	3	96	96	0
CNSI_	43	96	0	0	96	4
CNSI_	43	192	4	0	96	7
NMTAP	44	0	6
NMTAP	44	48	6
NMTAP	44	96	7
NMTAP	44	144	4
NMTAP	44	192	2
NMTAP	44	240	2
NMTAP	44	288	3
NMTAP	45	0	1
NMTAP	45	48	1
NMTAP	45	96	0
NMTAP	45	192	4
NMTAP	45	192	5
NMTAP	45	288	2
NMTAP	45	288	3
NMTAP	46	0	1
NMTAP	46	48	1
NMTAP	46	96	0
NMTAP	46	144	3
NMTAP	46	192	5
NMTAP	46	240	5
NMTAP	46	288	4
NMSTR	47	0	6
NMSSR	47	0	6	96	144	2
NMTAP	48	0	1
NMTAP	48	48	1
NMTAP	48	96	6
NMTAP	48	144	4
NMTAP	48	192	7
NMTAP	48	240	7
NMTAP	48	288	0
NMTAP	49	0	6
NMTAP	49	48	6
NMTAP	49	96	1
NMTAP	49	144	3
NMTAP	49	192	0
NMTAP	49	240	0
NMTAP	49	288	7
NMTAP	50	0	1
NMTAP	50	48	1
NMTAP	50	96	6
NMTAP	50	144	4
NMTAP	50	192	7
NMTAP	50	240	7
NMTAP	50	288	0
NMTAP	51	0	6
NMTAP	51	48	6
NMTAP	51	96	1
NMTAP	51	144	3
NMHLD	51	192	0	96
NMTAP	51	288	2
NMTAP	52	0	5
NMTAP	52	48	5
NMTAP	52	96	1
NMTAP	52	144	7
NMTAP	52	192	4
NMTAP	52	240	4
NMHLD	52	288	0	96
NMTAP	53	0	2
NMTAP	53	48	2
NMTAP	53	96	6
NMTAP	53	144	0
NMTAP	53	192	3
NMTAP	53	240	3
NMHLD	53	288	7	96
NMTAP	54	0	5
NMTAP	54	48	5
NMTAP	54	96	1
NMTAP	54	144	7
NMTAP	54	192	4
NMTAP	54	240	4
NMHLD	54	288	0	96
NMSTR	55	0	3
NMSCL	55	0	3	96	96	0
NMSTR	55	192	4
NMSCR	55	192	4	96	96	7
BRTAP	56	0	2
NMTAP	56	96	0
NMTAP	56	96	4
NMHLD	56	192	1	24
NMHLD	56	192	3	24
NMHLD	56	240	1	24
NMHLD	56	240	3	24
NMHLD	56	288	0	24
NMHLD	56	288	4	24
NMHLD	56	336	0	24
NMHLD	56	336	4	24
NMTAP	57	0	1
NMTAP	57	0	3
NMTAP	57	96	0
NMTAP	57	144	3
NMTAP	57	192	2
NMTAP	57	240	6
NMTAP	57	288	4
NMTAP	57	336	7
BRTAP	58	0	3
NMTAP	58	96	6
NMTAP	58	96	7
NMHLD	58	192	5	24
NMHLD	58	192	7	24
NMHLD	58	240	5	24
NMHLD	58	240	7	24
NMHLD	58	288	0	24
NMHLD	58	288	4	24
NMHLD	58	336	0	24
NMHLD	58	336	4	24
NMTAP	59	0	5
NMSTR	59	0	7
NMSCR	59	0	7	96	48	2
CNSI_	59	144	2	0	48	6
CNSCL	59	192	6	0	96	3
EXTAP	60	0	7
NMTAP	60	96	1
NMTAP	60	96	5
NMHLD	60	192	2	24
NMHLD	60	192	4	24
NMHLD	60	240	2	24
NMHLD	60	240	4	24
NMHLD	60	288	1	24
NMHLD	60	288	5	24
NMHLD	60	336	1	24
NMHLD	60	336	5	24
NMTAP	61	0	2
NMSTR	61	0	4
NMSCL	61	0	4	96	96	1
CNSUL	61	192	1	0	144	7
EXTAP	62	0	0
NMTAP	62	96	2
NMTAP	62	96	4
NMHLD	62	192	0	24
NMHLD	62	192	6	24
NMHLD	62	240	0	24
NMHLD	62	240	6	24
NMHLD	62	288	1	24
NMHLD	62	288	5	24
NMHLD	62	336	1	24
NMHLD	62	336	5	24
NMTAP	63	0	2
NMTAP	63	48	2
NMTAP	63	96	3
NMTAP	63	144	0
NMTAP	63	192	5
NMTAP	63	240	5
NMTAP	63	288	2
NMTAP	63	336	6
NMSTR	64	0	1
NMSI_	64	0	1	96	144	6
NMHLD	64	0	7	1440
CNSI_	64	240	6	0	144	3
CNSI_	65	0	3	0	144	7
CNSI_	65	144	7	0	144	4
NMSTR	66	0	3
NMSI_	66	0	3	96	144	7
CNSI_	66	240	7	0	144	4
CNSI_	67	0	4	0	144	0
NMHLD	67	288	0	1536
NMSTR	68	0	6
NMSI_	68	0	6	96	144	1
CNSI_	68	240	1	0	144	4
CNSI_	69	0	4	0	144	0
CNSI_	69	144	0	0	144	3
NMSTR	70	0	4
NMSI_	70	0	4	96	144	0
CNSI_	70	240	0	0	144	3
CNSUL	71	0	3	0	144	7
NMTAP	71	288	7
NMHLD	72	0	6	96
NMTAP	72	96	4
NMHLD	72	144	4	96
NMTAP	72	240	3
NMHLD	72	288	3	96
NMTAP	73	0	1
NMHLD	73	48	1	96
NMTAP	73	144	7
NMTAP	73	192	7
NMTAP	73	288	2
NMTAP	73	288	6
NMHLD	74	0	1	96
NMTAP	74	96	3
NMHLD	74	144	3	96
NMTAP	74	240	4
NMHLD	74	288	4	96
NMTAP	75	0	6
NMHLD	75	48	6	96
NMTAP	75	144	0
NMTAP	75	192	0
NMTAP	75	288	1
NMTAP	75	288	5
NMHLD	76	0	2	288
NMHLD	76	0	4	288
NMTAP	76	336	3
NMTAP	76	336	5
NMHLD	77	0	3	288
NMHLD	77	0	5	288
NMTAP	78	0	2
NMTAP	78	48	2
NMTAP	78	96	1
NMTAP	78	96	3
NMTAP	78	192	0
NMTAP	78	192	1
NMTAP	78	240	0
NMTAP	78	240	1
NMTAP	78	336	6
NMTAP	78	336	7
NMTAP	79	0	6
NMTAP	79	0	7
NMTAP	79	96	4
NMTAP	79	96	5
NMTTP	79	192	0	C	1	M1
NMSTR	80	0	0
NMSI_	80	0	0	96	48	4
NMSTR	80	0	1
NMSI_	80	0	1	96	48	3
NMTAP	80	192	6
NMHLD	80	240	6	96
NMTAP	80	336	4
NMTAP	81	0	4
NMTAP	81	96	1
NMTAP	81	96	3
NMTAP	81	192	0
NMTAP	81	240	7
NMTAP	81	288	4
NMTAP	81	288	6
NMSTR	82	0	6
NMSI_	82	0	6	96	48	4
NMSTR	82	0	7
NMSI_	82	0	7	96	48	3
NMTAP	82	192	1
NMHLD	82	240	1	96
NMTAP	82	336	3
NMTAP	83	0	3
NMTAP	83	96	4
NMTAP	83	96	6
NMTAP	83	192	7
NMTAP	83	240	0
NMTAP	83	288	1
NMTAP	83	288	3
NMSTR	84	0	0
NMSI_	84	0	0	96	48	5
NMSTR	84	0	1
NMSI_	84	0	1	96	48	4
NMTAP	84	192	6
NMTAP	84	240	6
NMTAP	84	288	4
NMTAP	84	336	5
NMTAP	85	0	1
NMTAP	85	48	1
NMTAP	85	96	3
NMTAP	85	192	0
NMTAP	85	240	7
NMTAP	85	288	4
NMTAP	85	288	6
NMSTR	86	0	6
NMSI_	86	0	6	96	48	3
NMSTR	86	0	7
NMSI_	86	0	7	96	48	2
NMTAP	86	192	1
NMTAP	86	240	1
NMTAP	86	288	3
NMTAP	86	336	2
EXTAP	87	0	1
EXTAP	87	0	4
EXTAP	87	72	2
EXTAP	87	72	5
EXTAP	87	144	3
EXTAP	87	144	6
EXTAP	87	192	3
EXTAP	87	192	6
NMTAP	87	288	0
NMTAP	87	288	7
NMTAP	88	0	3
NMTAP	88	0	6
NMTAP	88	48	5
NMTAP	88	72	4
NMTAP	88	96	5
NMTAP	88	144	2
NMTAP	88	168	3
NMTAP	88	192	2
NMTAP	88	240	1
NMTAP	88	288	0
NMTAP	88	288	6
NMTAP	89	0	1
NMTAP	89	0	4
NMTAP	89	48	2
NMTAP	89	72	3
NMTAP	89	96	2
NMTAP	89	144	5
NMTAP	89	168	4
NMTAP	89	192	5
NMTAP	89	240	6
NMTAP	89	288	0
NMTAP	89	288	7
NMTAP	90	0	3
NMTAP	90	0	6
NMTAP	90	48	5
NMTAP	90	72	4
NMTAP	90	96	5
NMTAP	90	144	2
NMTAP	90	168	3
NMTAP	90	192	2
NMTAP	90	240	1
NMTAP	90	288	0
NMTAP	90	288	6
NMTAP	91	0	1
NMTAP	91	0	4
NMTAP	91	48	2
NMTAP	91	72	3
NMTAP	91	96	2
NMTAP	91	144	5
NMTAP	91	168	4
NMTAP	91	192	5
NMTAP	91	240	6
NMTAP	91	288	0
NMTAP	91	288	7
NMTAP	92	0	3
NMTAP	92	0	6
NMTAP	92	48	3
NMTAP	92	48	6
NMTAP	92	96	2
NMTAP	92	96	5
NMTAP	92	144	2
NMTAP	92	144	5
NMTAP	92	192	1
NMTAP	92	192	4
NMTAP	92	240	1
NMTAP	92	240	4
NMTAP	92	288	2
NMTAP	92	288	3
NMTAP	93	0	1
NMTAP	93	0	4
NMTAP	93	48	1
NMTAP	93	48	4
NMTAP	93	96	2
NMTAP	93	96	5
NMTAP	93	144	2
NMTAP	93	144	5
NMTAP	93	192	3
NMTAP	93	192	6
NMTAP	93	240	3
NMTAP	93	240	6
NMTAP	93	288	4
NMTAP	93	288	5
NMTAP	94	0	1
NMTAP	94	48	1
NMTAP	94	96	3
NMTAP	94	144	3
NMTAP	94	192	0
NMTAP	94	240	0
NMSTR	94	288	2
NMSCR	94	288	2	96	288	0
BRTAP	96	96	2
BRTAP	96	96	6
NMTAP	96	288	1
NMTAP	96	312	3
NMTAP	96	336	1
NMTAP	96	360	3
NMSTR	97	0	1
NMSI_	97	0	1	96	48	5
NMSTR	97	192	7
NMSI_	97	192	7	96	48	3
NMSTR	98	0	0
NMSXL	98	0	0	96	384	3
NMSXR	98	0	0	96	384	5
NMTAP	100	0	1
NMTAP	100	48	3
NMTAP	100	96	2
NMTAP	100	144	6
NMTAP	100	192	4
NMTAP	100	240	5
NMTAP	100	288	2
NMTAP	100	336	3
NMTAP	101	0	1
NMTAP	101	48	5
NMTAP	101	96	4
NMTAP	101	144	6
NMTAP	101	192	1
NMTAP	101	240	3
NMTAP	101	288	2
NMTAP	101	336	2
NMTAP	102	0	6
NMTAP	102	48	4
NMTAP	102	96	5
NMTAP	102	144	1
NMTAP	102	192	3
NMTAP	102	240	2
NMTAP	102	288	5
NMTAP	102	336	4
NMTAP	103	0	6
NMTAP	103	48	2
NMTAP	103	96	3
NMTAP	103	144	1
NMTAP	103	192	5
NMTAP	103	240	4
NMTAP	103	288	6
NMTAP	103	336	6
NMTAP	104	0	1
NMTAP	104	48	3
NMTAP	104	96	2
NMTAP	104	144	6
NMTAP	104	192	4
NMTAP	104	240	5
NMTAP	104	288	2
NMTAP	104	336	3
NMTAP	105	0	1
NMTAP	105	48	5
NMTAP	105	96	4
NMTAP	105	144	6
NMTAP	105	192	2
NMTAP	105	240	3
NMTAP	105	288	1
NMTAP	105	336	1
NMTAP	106	0	6
NMTAP	106	48	4
NMTAP	106	96	6
NMTAP	106	144	1
NMTAP	106	192	3
NMTAP	106	240	1
NMTAP	106	288	5
NMTAP	106	336	4
NMTAP	107	0	5
NMTAP	107	48	2
NMTAP	107	96	3
NMTAP	107	144	2
NMTAP	107	192	5
NMTAP	107	240	4
NMTAP	107	288	6
NMTAP	107	336	6
NMSTR	108	0	1
NMSI_	108	0	1	96	48	3
NMTAP	108	48	1
NMSTR	108	96	7
NMSI_	108	96	7	96	48	5
NMTAP	108	144	7
NMSTR	108	192	0
NMSI_	108	192	0	96	48	4
NMTAP	108	240	0
NMSTR	108	288	7
NMSI_	108	288	7	96	48	3
NMTAP	108	336	7
NMTAP	109	0	1
NMTAP	109	48	1
NMTAP	109	96	4
NMTAP	109	144	4
NMTAP	109	192	2
NMTAP	109	216	3
NMTAP	109	240	2
NMTAP	109	264	3
NMTAP	109	288	1
NMSTR	110	0	6
NMSI_	110	0	6	96	48	4
NMTAP	110	48	6
NMSTR	110	96	0
NMSI_	110	96	0	96	48	2
NMTAP	110	144	0
NMSTR	110	192	7
NMSI_	110	192	7	96	48	3
NMTAP	110	240	7
NMSTR	110	288	0
NMSI_	110	288	0	96	48	4
NMTAP	110	336	0
NMTAP	111	0	6
NMTAP	111	48	6
NMTAP	111	96	3
NMTAP	111	144	3
NMTAP	111	192	5
NMTAP	111	216	4
NMTAP	111	240	5
NMTAP	111	264	4
NMTAP	111	288	6
NMTAP	112	0	1
NMTAP	112	48	1
NMTAP	112	96	3
NMTAP	112	144	3
NMTAP	112	192	2
NMTAP	112	240	2
NMTAP	112	288	7
NMTAP	112	336	0
NMTAP	113	0	6
NMTAP	113	48	6
NMTAP	113	96	4
NMTAP	113	144	5
NMTAP	113	192	2
NMTAP	113	216	1
NMTAP	113	240	0
NMTAP	113	264	7
NMTAP	113	288	6
NMTAP	113	312	5
NMTAP	113	336	4
NMTAP	113	360	3
BXHLD	114	0	2	144
BXHLD	114	144	0	144
BXHLD	114	288	7	144
NMTAP	115	48	5
NMTAP	115	144	3
NMTAP	115	144	5
NMTAP	115	192	3
NMTAP	115	192	5
NMHLD	115	288	2	96
NMHLD	115	288	6	96
NMTTP	116	96	0	C	1	M1
NMTTP	116	96	1	B	0	M1
NMTTP	116	96	1	A	0	M1
NMTTP	116	96	5	B	0	M1
NMTTP	116	96	5	A	0	M1
EXSTR	118	0	7
NMSCL	118	0	7	96	480	0
BXHLD	120	240	0	48
BXHLD	120	240	7	48
NMTAP	121	0	0
NMTAP	121	0	1
NMTAP	121	72	2
NMTAP	121	72	3
NMTAP	121	144	4
NMTAP	121	144	5
NMTAP	121	216	6
NMTAP	121	216	7
NMSTR	121	288	0
NMSI_	121	288	0	96	48	4
NMSTR	121	288	1
NMSI_	121	288	1	96	48	3
NMSTR	122	96	0
NMSI_	122	96	0	96	48	4
NMSTR	122	96	7
NMSI_	122	96	7	96	48	5
NMTAP	122	288	6
NMTAP	122	288	7
NMTAP	123	0	6
NMTAP	123	0	7
NMTAP	123	72	4
NMTAP	123	72	5
NMTAP	123	144	2
NMTAP	123	144	3
NMTAP	123	216	0
NMTAP	123	216	1
NMSTR	123	288	6
NMSI_	123	288	6	96	48	4
NMSTR	123	288	7
NMSI_	123	288	7	96	48	3
NMSTR	124	96	0
NMSI_	124	96	0	96	48	2
NMSTR	124	96	7
NMSI_	124	96	7	96	48	3
NMTAP	124	288	1
NMTAP	124	288	4
NMTAP	125	0	2
NMTAP	125	0	3
NMTAP	125	72	0
NMTAP	125	72	1
NMTAP	125	144	6
NMTAP	125	144	7
NMTAP	125	216	4
NMTAP	125	216	5
NMSTR	125	288	2
NMSI_	125	288	2	96	48	0
NMSTR	125	288	3
NMSI_	125	288	3	96	48	7
NMSTR	126	96	3
NMSI_	126	96	3	96	48	7
NMSTR	126	96	4
NMSI_	126	96	4	96	48	6
NMTAP	126	288	4
NMTAP	126	288	5
NMTAP	127	0	4
NMTAP	127	0	5
NMTAP	127	72	6
NMTAP	127	72	7
NMTAP	127	144	0
NMTAP	127	144	1
NMTAP	127	216	2
NMTAP	127	216	3
NMSTR	127	288	4
NMSI_	127	288	4	96	48	0
NMSTR	127	288	5
NMSI_	127	288	5	96	48	7
NMSTR	128	96	3
NMSI_	128	96	3	96	48	1
NMSTR	128	96	4
NMSI_	128	96	4	96	48	0
NMTAP	128	288	2
NMTAP	128	288	3
NMTAP	129	0	1
NMHLD	129	48	1	72
NMHLD	129	120	0	72
NMHLD	129	192	7	72
NMHLD	129	264	6	72
NMHLD	129	336	5	72
NMHLD	130	24	4	72
NMHLD	130	96	3	72
NMHLD	130	168	2	72
NMTAP	130	240	1
NMTAP	130	288	1
NMHLD	131	0	0	96
NMSTR	131	0	1
NMSCR	131	0	1	96	48	4
NMSTR	131	192	6
NMSCL	131	192	6	96	48	3
NMHLD	131	192	7	96
NMHLD	132	0	0	96
NMSTR	132	0	1
NMSCR	132	0	1	96	48	4
NMTAP	132	192	6
NMTAP	132	192	7
NMTAP	132	288	6
NMTAP	132	288	7
NMTAP	133	0	4
NMSTR	133	0	5
NMSI_	133	0	5	96	48	0
NMTAP	133	96	4
NMSTR	133	192	2
NMSI_	133	192	2	96	48	7
NMTAP	133	192	3
NMTAP	133	288	3
NMTAP	134	0	4
NMSTR	134	0	5
NMSI_	134	0	5	96	48	0
NMTAP	134	96	4
NMTAP	134	192	2
NMTAP	134	192	3
NMTAP	134	288	2
NMTAP	134	288	3
NMTAP	135	0	1
NMTAP	135	24	3
NMTAP	135	48	1
NMTAP	135	72	3
NMTAP	135	96	1
NMTAP	135	192	6
NMTAP	135	216	4
NMTAP	135	240	6
NMTAP	135	264	4
NMTAP	135	288	6
NMTAP	136	0	1
NMTAP	136	24	3
NMTAP	136	48	1
NMTAP	136	72	3
NMTAP	136	96	2
NMTAP	136	192	6
NMTAP	136	216	4
NMTAP	136	240	6
NMTAP	136	264	4
NMTAP	136	288	5
NMTAP	137	0	1
NMTAP	137	0	3
NMTAP	137	96	4
NMTAP	137	120	5
NMTAP	137	144	6
NMTAP	137	168	7
NMTAP	137	192	0
NMTAP	137	216	1
NMTAP	137	240	2
NMTAP	137	264	3
NMTAP	137	288	4
NMTAP	137	312	5
NMTAP	137	336	6
NMTAP	137	360	7
NMTAP	138	0	0
NMTAP	138	24	1
NMTAP	138	48	2
NMTAP	138	72	3
NMTAP	138	96	4
NMTAP	138	120	5
NMTAP	138	144	6
NMTAP	138	168	7
NMTAP	138	192	0
NMTAP	138	216	1
NMTAP	138	240	2
NMTAP	138	264	3
NMTAP	138	288	4
NMTAP	138	312	5
NMTAP	138	336	6
NMTAP	138	360	7
BRSTR	139	0	0
NMSSL	139	0	0	96	192	4
CNSCL	139	288	4	0	48	3
CNSSR	139	336	3	0	240	7
NMTTP	141	96	3	A	0	M1
NMTTP	141	96	4	B	0	M1
NMTTP	141	96	4	E	0	M1
NMTTP	141	96	5	B	0	M1
NMTTP	141	240	5	A	0	M1
NMTTP	141	240	6	B	0	M1
NMTTP	141	240	6	E	0	M1
NMTTP	141	240	7	B	0	M1
NMTTP	142	0	0	B	0	M1
NMTTP	142	0	0	E	0	M1
NMTTP	142	0	1	B	0	M1
NMTTP	142	0	7	A	0	M1
NMTTP	142	144	1	A	0	M1
NMTTP	142	144	2	B	0	M1
NMTTP	142	144	2	E	0	M1
NMTTP	142	144	3	B	0	M1
NMTTP	142	288	3	A	0	M1
NMTTP	142	288	4	B	0	M1
NMTTP	142	288	4	E	0	M1
NMTTP	142	288	5	B	0	M1
NMTTP	143	96	1	B	0	M1
NMTTP	143	96	2	B	0	M1
NMTTP	143	96	3	E	0	M1
NMTTP	143	96	3	A	0	M1
NMTTP	143	240	0	B	0	M1
NMTTP	143	240	1	E	0	M1
NMTTP	143	240	1	A	0	M1
NMTTP	143	240	7	B	0	M1
NMTTP	144	0	5	B	0	M1
NMTTP	144	0	6	B	0	M1
NMTTP	144	0	7	E	0	M1
NMTTP	144	0	7	A	0	M1
NMTTP	144	144	3	B	0	M1
NMTTP	144	144	4	B	0	M1
NMTTP	144	144	5	E	0	M1
NMTTP	144	144	5	A	0	M1
NMTTP	144	288	1	B	0	M1
NMTTP	144	288	2	B	0	M1
NMTTP	144	288	3	E	0	M1
NMTTP	144	288	3	A	0	M1
EXTAP	145	0	0
NMTAP	145	96	0
NMTAP	145	120	7
NMTAP	145	144	0
NMTAP	145	168	7
NMTAP	145	192	0
NMTAP	145	216	7
NMTAP	145	240	0
NMTAP	145	264	7
NMTAP	145	288	0
NMTAP	145	312	7
NMTAP	145	336	0
NMTAP	145	360	7
NMTAP	146	0	0
NMTAP	146	24	7
NMTAP	146	48	0
NMTAP	146	72	7
NMTAP	146	96	0
NMTAP	146	120	7
NMTAP	146	144	0
NMTAP	146	168	7
NMTAP	146	192	0
NMTAP	146	216	7
NMTAP	146	240	0
NMTAP	146	264	7
NMTAP	146	288	0
NMTAP	146	312	7
NMTAP	146	336	0
NMTAP	146	360	7
NMSTR	147	0	0
NMSI_	147	0	0	96	48	4
NMTAP	147	144	5
NMSTR	147	192	6
NMSI_	147	192	6	96	48	2
NMTAP	147	336	1
NMSTR	148	0	0
NMSI_	148	0	0	96	48	4
NMSTR	148	96	7
NMSI_	148	96	7	96	48	3
BRTAP	148	192	2
NMTAP	149	0	1
NMTAP	149	0	4
NMTAP	149	48	2
NMTAP	149	72	3
NMTAP	149	96	2
NMTAP	149	144	5
NMTAP	149	168	4
NMTAP	149	192	5
NMTAP	149	240	2
NMTAP	149	264	3
NMTAP	149	288	2
NMTAP	149	336	5
NMTAP	149	360	4
NMTAP	150	0	5
NMTAP	150	48	2
NMTAP	150	72	3
NMTAP	150	96	2
NMTAP	150	144	1
NMTAP	150	192	1
NMTAP	150	240	2
NMTAP	150	240	7
NMTAP	150	288	2
NMTAP	150	288	7
NMTAP	151	0	3
NMTAP	151	0	6
NMTAP	151	48	5
NMTAP	151	72	4
NMTAP	151	96	5
NMTAP	151	144	2
NMTAP	151	168	3
NMTAP	151	192	2
NMTAP	151	240	5
NMTAP	151	264	4
NMTAP	151	288	5
NMTAP	151	336	2
NMTAP	151	360	3
NMTAP	152	0	2
NMTAP	152	48	5
NMTAP	152	72	4
NMTAP	152	96	5
NMTAP	152	144	6
NMTAP	152	192	6
NMTAP	152	240	0
NMTAP	152	240	5
NMTAP	152	288	0
NMTAP	152	288	5
BRTAP	153	0	2
BRTAP	153	0	3
BRTAP	153	72	0
BRTAP	153	72	1
BRTAP	153	144	0
BRTAP	153	144	7
BRTAP	153	216	6
BRTAP	153	216	7
BRTAP	153	288	4
BRTAP	153	288	5
BRTAP	154	0	4
BRTAP	154	0	5
BRTAP	154	72	6
BRTAP	154	72	7
BRTAP	154	144	0
BRTAP	154	144	7
BRTAP	154	216	0
BRTAP	154	216	1
BRTAP	154	288	2
BRTAP	154	288	3
BRTAP	155	0	2
BRTAP	155	0	3
BRTAP	155	72	0
BRTAP	155	72	1
BRTAP	155	144	4
BRTAP	155	144	5
BRTAP	155	216	6
BRTAP	155	216	7
BRTAP	155	288	2
BRSTR	155	288	3
BRSCL	155	288	3	96	240	4
NMSTR	157	0	1
NMSI_	157	0	1	96	48	4
NMSTR	157	0	5
NMSI_	157	0	5	96	48	0
NMSTR	157	192	2
NMSI_	157	192	2	96	48	7
NMSTR	157	192	6
NMSI_	157	192	6	96	48	3
NMTAP	158	0	1
NMTAP	158	0	5
NMTAP	158	96	4
NMTAP	158	144	3
NMTAP	158	144	5
NMTAP	158	240	1
NMTAP	158	240	7
NMTAP	158	288	1
NMTAP	158	288	7
NMSTR	159	0	2
NMSI_	159	0	2	96	48	7
NMSTR	159	0	6
NMSI_	159	0	6	96	48	3
NMSTR	159	192	1
NMSI_	159	192	1	96	48	4
NMSTR	159	192	5
NMSI_	159	192	5	96	48	0
NMSTR	160	0	2
NMSXL	160	0	2	96	192	7
NMTAP	160	0	6
EXSTR	161	0	0
NMSI_	161	0	0	96	48	3
EXSTR	161	0	4
NMSI_	161	0	4	96	48	7
EXSTR	161	192	3
NMSI_	161	192	3	96	48	0
EXSTR	161	192	7
NMSI_	161	192	7	96	48	4
EXSTR	162	0	0
NMSI_	162	0	0	96	48	3
EXSTR	162	0	4
NMSI_	162	0	4	96	48	7
EXTAP	162	192	3
EXTAP	162	192	7
BRTAP	162	288	6
NMTAP	162	320	6
NMTAP	162	352	6
BRTAP	163	0	5
NMTAP	163	32	5
NMTAP	163	64	5
BRTAP	163	96	4
NMTAP	163	128	4
NMTAP	163	160	4
BRTAP	163	192	3
NMTAP	163	224	3
NMTAP	163	256	3
BRTAP	163	288	2
NMTAP	163	320	2
NMTAP	163	352	2
BRTAP	164	0	1
NMTAP	164	32	1
NMTAP	164	64	1
BRTAP	164	96	0
NMTAP	164	128	0
NMTAP	164	160	0
BRTAP	164	192	7
NMTAP	164	224	7
NMTAP	164	256	7
BRTAP	164	288	6
NMTAP	165	0	2
NMTAP	165	0	4
NMTAP	165	48	1
NMTAP	165	72	3
NMTAP	165	96	1
NMTAP	165	144	6
NMTAP	165	168	4
NMTAP	165	192	6
NMTAP	165	240	1
NMTAP	165	264	3
NMTAP	165	288	1
NMTAP	165	336	6
NMTAP	165	360	4
NMTAP	166	0	6
NMTAP	166	48	1
NMTAP	166	72	3
NMTAP	166	96	1
NMTAP	166	144	0
NMTAP	166	192	0
NMTAP	166	240	1
NMTAP	166	240	4
NMTAP	166	288	1
NMTAP	166	288	4
NMTAP	167	0	3
NMTAP	167	0	5
NMTAP	167	48	6
NMTAP	167	72	4
NMTAP	167	96	6
NMTAP	167	144	1
NMTAP	167	168	3
NMTAP	167	192	1
NMTAP	167	240	6
NMTAP	167	264	4
NMTAP	167	288	6
NMTAP	167	336	1
NMTAP	167	360	3
NMTAP	168	0	1
NMTAP	168	48	6
NMTAP	168	72	4
NMTAP	168	96	6
NMTAP	168	144	7
NMTAP	168	192	7
NMTAP	168	240	3
NMTAP	168	240	6
NMTAP	168	288	3
NMTAP	168	288	6
NMTAP	169	0	1
NMTAP	169	24	3
NMTAP	169	48	1
NMTAP	169	72	3
NMTAP	169	96	1
NMTAP	169	120	3
NMTAP	169	144	1
NMTAP	169	168	3
NMTAP	169	192	1
NMTAP	169	216	3
NMTAP	169	240	1
NMTAP	169	264	3
NMTAP	169	288	2
NMTAP	170	0	6
NMTAP	170	24	4
NMTAP	170	48	6
NMTAP	170	72	4
NMTAP	170	96	6
NMTAP	170	120	4
NMTAP	170	144	6
NMTAP	170	168	4
NMTAP	170	192	6
NMTAP	170	216	4
NMTAP	170	240	6
NMTAP	170	264	4
NMTAP	170	288	5
NMTAP	171	0	1
NMTAP	171	24	3
NMTAP	171	48	1
NMTAP	171	72	3
NMTAP	171	96	1
NMTAP	171	120	3
NMTAP	171	144	1
NMTAP	171	168	3
NMTAP	171	192	2
NMTAP	171	216	4
NMTAP	171	240	2
NMTAP	171	264	4
NMTAP	171	288	2
NMTAP	171	312	4
NMTAP	171	336	2
NMTAP	171	360	4
NMTAP	172	0	1
NMTAP	172	24	5
NMTAP	172	48	1
NMTAP	172	72	5
NMTAP	172	96	1
NMTAP	172	120	5
NMTAP	172	144	1
NMTAP	172	168	5
NMTAP	172	192	0
NMTAP	172	216	6
NMTAP	172	240	0
NMTAP	172	264	6
NMTAP	172	288	0
NMTAP	172	312	6
NMTAP	172	336	0
NMTAP	172	360	6
BRSTR	173	0	7
NMSCR	173	0	7	96	1056	6
NMHLD	177	0	6	96
NMTAP	177	96	4
NMTAP	177	240	3
NMTAP	177	288	2
NMTAP	177	288	4
NMHLD	178	0	1	96
NMTAP	178	96	3
NMTAP	178	240	4
NMTAP	178	288	3
NMTAP	178	288	5
NMTAP	179	0	2
NMTAP	179	48	2
NMTAP	179	96	4
NMTAP	179	144	4
NMTAP	179	192	1
NMTAP	179	240	1
NMTAP	179	288	7
NMTAP	179	336	7
NMTTP	180	0	1	E	1	M1
NMTTP	180	48	2	E	1	M1
NMTTP	180	96	3	E	1	M1
NMTTP	180	144	4	E	1	M1
NMTTP	180	192	5	E	1	M1
NMTTP	180	240	6	E	1	M1
NMTTP	180	288	7	E	1	M1
NMTAP	181	0	0
NMTAP	181	0	1
NMTAP	181	48	0
NMTAP	181	48	1
NMTAP	181	96	4
NMTAP	181	96	6
NMTAP	181	144	4
NMTAP	181	144	6
NMTAP	181	192	4
NMTAP	181	192	6
NMTAP	181	240	2
NMTAP	181	240	3
NMTAP	181	288	2
NMTAP	181	288	3
NMTAP	181	336	1
NMTAP	182	0	6
NMTAP	182	0	7
NMTAP	182	48	6
NMTAP	182	48	7
NMTAP	182	96	1
NMTAP	182	96	3
NMTAP	182	144	1
NMTAP	182	144	3
NMTAP	182	192	1
NMTAP	182	192	3
NMTAP	182	240	4
NMTAP	182	240	5
BXTAP	182	288	6
BXTAP	182	320	6
BXTAP	182	352	6
BXTAP	183	0	6
NMTAP	183	48	0
NMTAP	183	48	7
NMTAP	183	96	1
NMTAP	183	96	3
NMTAP	183	144	1
NMTAP	183	144	3
NMTAP	183	192	3
NMTAP	183	192	4
NMTAP	183	240	4
NMTAP	183	240	6
NMTAP	183	288	4
NMTAP	183	288	6
NMTAP	183	336	7
NMTAP	184	0	0
NMTAP	184	0	1
NMTAP	184	48	0
NMTAP	184	48	1
NMTAP	184	96	6
NMTAP	184	120	4
NMTAP	184	144	6
NMTAP	184	168	4
NMTAP	184	192	6
NMTAP	184	240	2
NMTAP	184	240	3
NMTAP	184	288	1
NMTAP	184	312	3
NMTAP	184	336	1
NMTAP	184	360	3
NMTAP	185	0	1
NMTAP	185	48	5
NMTAP	185	72	4
NMTAP	185	120	6
NMTAP	185	144	7
NMTAP	185	192	1
NMTAP	185	216	0
NMTAP	185	264	2
BRTAP	185	288	3
NMTAP	186	0	1
NMTAP	186	0	3
NMTAP	186	48	1
NMTAP	186	72	0
NMTAP	186	120	2
NMTAP	186	144	3
NMTAP	186	192	5
NMTAP	186	216	4
NMTAP	186	264	6
BRTAP	186	288	7
NMTAP	187	0	1
NMTAP	187	24	0
NMTAP	187	48	1
NMTAP	187	72	0
NMTAP	187	96	1
NMTAP	187	120	0
NMTAP	187	144	1
NMTAP	187	168	0
NMTAP	187	192	2
NMTAP	187	216	7
NMTAP	187	240	2
NMTAP	187	264	7
NMTAP	187	288	2
NMTAP	187	312	7
NMTAP	187	336	2
NMTAP	187	360	7
NMTAP	188	0	3
NMTAP	188	24	6
NMTAP	188	48	3
NMTAP	188	72	6
NMSTR	188	96	3
BRSI_	188	96	3	96	96	0
NMTAP	188	120	6
NMTAP	188	144	3
NMTAP	188	168	6
BRTAP	189	0	7
NMTAP	189	24	0
BRTAP	189	72	2
NMTAP	189	96	1
BRTAP	189	144	4
NMTAP	189	168	3
BRTAP	189	216	6
NMTAP	189	240	5
BRTAP	189	288	0
NMTAP	189	312	7
BRTAP	189	360	5
NMTAP	190	0	6
BRTAP	190	48	3
NMTAP	190	72	4
BRTAP	190	120	1
NMTAP	190	144	2
BRTAP	190	192	6
NMTAP	190	216	5
NMTAP	190	240	4
NMTAP	190	264	3
NMTAP	190	288	2
NMTAP	190	312	1
NMTAP	190	336	0
NMTAP	190	360	7
NMSTR	191	0	6
NMSI_	191	0	6	96	48	2
NMHLD	191	96	0	1440
BRTAP	191	96	6

T_REC_TAP	905
T_REC_BRK	57
T_REC_XTP	24
T_REC_BXX	4
T_REC_HLD	103
T_REC_XHO	0
T_REC_BHO	1
T_REC_BXH	5
T_REC_STR	81
T_REC_BST	3
T_REC_XST	7
T_REC_XBS	0
T_REC_TTP	75
T_REC_THO	0
T_REC_SLD	90
T_REC_BSL	2
T_REC_ALL	1357
T_NUM_TAP	1092
T_NUM_BRK	72
T_NUM_HLD	103
T_NUM_SLD	90
T_NUM_ALL	1357
T_JUDGE_TAP	1156
T_JUDGE_HLD	325
T_JUDGE_SLD	92
T_JUDGE_ALL	1573
TTM_EACHPAIRS	222
TTM_SCR_TAP	546000
TTM_SCR_BRK	187200
TTM_SCR_HLD	103000
TTM_SCR_SLD	135000
TTM_SCR_ALL	971200
TTM_SCR_S	935100
TTM_SCR_SS	964000
TTM_RAT_ACV	10074

