VERSION	0.00.00	1.05.00
FES_MODE	0
BPM_DEF	120.000	180.000	240.000	120.000
MET_DEF	4	4
RESOLUTION	384
CLK_DEF	384
COMPATIBLE_CODE	MA2

BPM	0	0	120.000
BPM	11	0	130.000
BPM	12	0	140.000
BPM	13	0	150.000
BPM	14	0	160.000
BPM	15	0	170.000
BPM	16	0	180.000
BPM	17	0	190.000
BPM	18	0	200.000
BPM	19	0	210.000
BPM	20	0	220.000
BPM	21	0	230.000
BPM	21	192	240.000
BPM	40	0	180.000
BPM	100	0	187.500
BPM	102	0	195.000
BPM	104	0	202.500
BPM	106	0	210.000
BPM	108	0	217.500
BPM	110	0	225.000
BPM	112	0	232.500
BPM	114	0	240.000
BPM	116	0	180.000
BPM	117	0	170.000
BPM	118	0	160.000
BPM	119	0	140.000
BPM	120	0	180.000
BPM	121	0	180.000
MET	0	0	4	4
MET	120	0	4	4
SEF	0	0	0
SEF	119	288	1
SEF	120	0	3

NMHLD	2	0	2	192
NMHLD	2	192	3	192
NMHLD	3	0	4	192
NMTAP	3	192	5
NMHLD	4	0	5	192
NMHLD	4	192	4	192
NMHLD	5	0	3	192
NMTAP	5	192	2
NMHLD	6	0	1	192
NMHLD	6	192	0	192
NMHLD	7	0	7	192
NMTAP	7	192	6
NMHLD	8	0	6	192
NMHLD	8	192	7	192
NMHLD	9	0	0	192
NMTAP	9	192	1
NMTAP	10	0	0
NMTAP	10	0	1
NMTAP	10	192	0
NMTAP	10	192	1
NMTAP	11	0	2
NMTAP	11	0	3
NMTAP	11	192	2
NMTAP	11	192	3
NMTAP	12	0	4
NMTAP	12	0	5
NMTAP	12	192	4
NMTAP	12	192	5
NMTAP	13	0	6
NMTAP	13	0	7
NMTAP	13	192	6
NMTAP	13	192	7
NMTAP	14	0	6
NMTAP	14	96	6
NMTAP	14	192	5
NMTAP	14	288	5
NMTAP	15	0	4
NMTAP	15	96	4
NMTAP	15	192	2
NMTAP	15	192	3
NMTAP	16	0	1
NMTAP	16	96	1
NMTAP	16	192	2
NMTAP	16	288	2
NMTAP	17	0	3
NMTAP	17	96	3
NMTAP	17	192	4
NMTAP	17	192	5
NMTAP	18	0	6
NMTAP	18	96	6
NMTAP	18	192	5
NMTAP	18	288	5
NMTAP	19	0	4
NMTAP	19	96	4
NMTAP	19	192	3
NMTAP	19	288	3
NMTAP	20	0	2
NMTAP	20	96	2
NMTAP	20	192	1
NMTAP	20	288	1
NMHLD	21	0	0	192
NMHLD	21	0	7	192
NMSTR	22	0	0
NMSCR	22	0	0	96	480	3
NMSTR	22	0	7
NMSCL	22	0	7	96	480	4
NMTAP	24	0	5
NMTAP	24	96	5
NMTAP	24	192	5
NMTAP	24	288	5
NMTAP	25	0	6
NMTAP	25	96	6
NMTAP	25	192	6
NMTAP	25	288	6
NMTAP	26	0	7
NMTAP	26	96	7
NMTAP	26	192	7
NMTAP	26	288	7
NMTAP	27	0	0
NMTAP	27	0	1
NMTAP	27	96	0
NMTAP	27	96	1
NMTAP	27	192	0
NMTAP	27	192	1
NMTAP	28	0	2
NMTAP	28	96	2
NMTAP	28	192	2
NMTAP	28	288	2
NMTAP	29	0	1
NMTAP	29	96	1
NMTAP	29	192	1
NMTAP	29	288	1
NMTAP	30	0	0
NMTAP	30	96	0
NMTAP	30	192	0
NMTAP	30	288	0
NMTAP	31	0	6
NMTAP	31	0	7
NMTAP	31	96	6
NMTAP	31	96	7
NMTAP	31	192	6
NMTAP	31	192	7
NMTAP	32	0	5
NMTAP	32	96	5
NMTAP	32	192	5
NMTAP	32	288	4
NMTAP	32	288	5
NMTAP	33	0	6
NMTAP	33	96	6
NMTAP	33	192	6
NMTAP	33	288	6
NMTAP	33	288	7
NMTAP	34	0	0
NMTAP	34	96	0
NMTAP	34	192	0
NMTAP	34	288	0
NMTAP	34	288	1
NMTAP	35	0	2
NMTAP	35	0	3
NMTAP	35	96	2
NMTAP	35	96	3
NMTAP	35	192	2
NMTAP	35	192	3
NMTAP	36	0	3
NMTAP	36	96	2
NMTAP	36	192	1
NMTAP	36	288	0
NMTAP	37	0	7
NMTAP	37	96	6
NMTAP	37	192	5
NMTAP	37	288	4
NMHLD	38	0	3	384
NMHLD	38	0	4	384
NMSTR	40	0	5
NMSI_	40	0	5	96	192	2
NMSTR	41	0	1
NMSI_	41	0	1	96	192	4
NMSTR	42	0	6
NMSI_	42	0	6	96	192	2
NMSTR	43	0	0
NMSI_	43	0	0	96	192	4
NMSTR	44	0	5
NMSCR	44	0	5	96	192	0
NMSTR	45	0	1
NMSCR	45	0	1	96	192	4
NMSTR	46	0	6
NMSUL	46	0	6	96	480	3
NMTAP	48	0	2
NMTAP	48	96	2
NMTAP	48	192	2
NMTAP	48	192	3
NMTAP	48	288	2
NMTAP	48	288	3
NMTAP	49	0	1
NMTAP	49	96	1
NMTAP	49	192	0
NMTAP	49	192	1
NMTAP	49	288	0
NMTAP	49	288	1
NMTAP	50	0	7
NMTAP	50	96	7
NMTAP	50	192	6
NMTAP	50	192	7
NMTAP	50	288	6
NMTAP	50	288	7
NMTAP	51	0	4
NMTAP	51	0	5
NMTAP	51	96	4
NMTAP	51	96	5
NMTAP	51	192	3
NMTAP	51	192	6
NMTAP	52	0	5
NMTAP	52	96	5
NMTAP	52	192	4
NMTAP	52	192	5
NMTAP	52	288	4
NMTAP	52	288	5
NMTAP	53	0	6
NMTAP	53	96	6
NMTAP	53	192	6
NMTAP	53	192	7
NMTAP	53	288	6
NMTAP	53	288	7
NMTAP	54	0	0
NMTAP	54	96	0
NMTAP	54	192	0
NMTAP	54	192	1
NMTAP	54	288	0
NMTAP	54	288	1
NMTAP	55	0	2
NMTAP	55	0	3
NMTAP	55	96	2
NMTAP	55	96	3
NMTAP	55	192	1
NMTAP	55	192	4
NMTAP	56	0	2
NMTAP	56	48	2
NMTAP	56	96	2
NMTAP	56	192	0
NMTAP	56	192	1
NMTAP	56	288	0
NMTAP	56	288	1
NMTAP	57	0	7
NMTAP	57	48	7
NMTAP	57	96	7
NMTAP	57	192	6
NMTAP	57	192	7
NMTAP	58	0	5
NMTAP	58	48	5
NMTAP	58	96	5
NMTAP	58	192	6
NMTAP	58	192	7
NMTAP	58	288	6
NMTAP	58	288	7
NMTAP	59	0	0
NMTAP	59	48	0
NMTAP	59	96	0
NMTAP	59	192	0
NMTAP	59	192	1
NMTAP	60	0	1
NMTAP	60	48	1
NMTAP	60	96	1
NMTAP	60	192	2
NMTAP	60	192	3
NMTAP	60	288	2
NMTAP	60	288	3
NMTAP	61	0	4
NMTAP	61	48	4
NMTAP	61	96	4
NMTAP	61	192	4
NMTAP	61	192	5
NMTAP	62	0	6
NMTAP	62	48	6
NMTAP	62	96	6
NMTAP	62	192	4
NMTAP	62	192	5
NMTAP	62	288	4
NMTAP	62	288	5
NMTAP	63	0	3
NMTAP	63	48	3
NMTAP	63	96	3
NMTAP	63	192	3
NMTAP	63	192	4
NMHLD	64	0	5	192
NMTAP	64	192	4
NMHLD	65	0	6	192
NMTAP	65	192	7
NMHLD	66	0	1	192
NMTAP	66	192	0
NMHLD	67	0	2	192
NMTAP	67	192	3
NMHLD	68	0	2	192
NMTAP	68	192	3
NMHLD	69	0	1	192
NMTAP	69	192	0
NMHLD	70	0	6	192
NMTAP	70	192	7
NMHLD	71	0	5	192
NMTAP	71	192	4
NMTTP	72	0	7	B	0	L1
NMTTP	72	96	6	B	0	L1
NMTTP	72	192	4	B	0	L1
NMTTP	72	192	5	B	0	L1
NMTTP	73	0	0	B	0	L1
NMTTP	73	96	1	B	0	L1
NMTTP	73	192	2	B	0	L1
NMTTP	73	192	3	B	0	L1
NMTTP	74	0	6	B	0	L1
NMTTP	74	96	5	B	0	L1
NMTTP	74	192	4	B	0	L1
NMTTP	74	288	3	B	0	L1
NMTTP	75	0	2	B	0	L1
NMTTP	75	96	1	B	0	L1
NMTTP	75	192	0	C	0	L1
NMTTP	76	0	1	E	0	L1
NMTTP	76	96	2	E	0	L1
NMTTP	76	192	3	B	0	L1
NMTTP	76	192	3	E	0	L1
NMTTP	77	0	7	E	0	L1
NMTTP	77	96	6	E	0	L1
NMTTP	77	192	4	B	0	L1
NMTTP	77	192	5	E	0	L1
NMTTP	78	0	2	E	0	L1
NMTTP	78	96	3	E	0	L1
NMTTP	78	192	4	E	0	L1
NMTTP	78	288	5	E	0	L1
NMTTP	79	0	0	C	1	L1
NMTAP	80	0	6
NMTAP	80	48	6
NMTAP	80	96	6
NMTAP	80	192	7
NMTAP	80	240	7
NMTAP	80	288	7
NMTAP	81	0	0
NMTAP	81	48	0
NMTAP	81	96	0
NMTAP	81	192	0
NMTAP	81	192	1
NMTAP	82	0	2
NMTAP	82	48	2
NMTAP	82	96	2
NMTAP	82	192	1
NMTAP	82	240	1
NMTAP	82	288	1
NMTAP	83	0	0
NMTAP	83	48	0
NMTAP	83	96	0
NMTAP	83	192	6
NMTAP	83	192	7
NMTAP	84	0	6
NMTAP	84	48	6
NMTAP	84	96	6
NMTAP	84	192	5
NMTAP	84	240	5
NMTAP	84	288	5
NMTAP	85	0	4
NMTAP	85	48	4
NMTAP	85	96	4
NMTAP	85	192	2
NMTAP	85	192	3
NMTAP	86	0	1
NMTAP	86	48	1
NMTAP	86	96	1
NMTAP	86	192	2
NMTAP	86	240	2
NMTAP	86	288	2
NMTAP	87	0	3
NMTAP	87	48	3
NMTAP	87	96	3
NMTAP	87	192	4
NMTAP	87	192	5
NMTAP	88	0	5
NMTAP	88	48	5
NMTAP	88	96	5
NMTAP	88	192	6
NMTAP	88	192	7
NMTAP	88	240	6
NMTAP	88	240	7
NMTAP	88	288	6
NMTAP	88	288	7
NMTAP	89	0	0
NMTAP	89	48	0
NMTAP	89	96	0
NMTAP	89	192	0
NMTAP	89	192	1
NMTAP	90	0	2
NMTAP	90	48	2
NMTAP	90	96	2
NMTAP	90	192	0
NMTAP	90	192	1
NMTAP	90	240	0
NMTAP	90	240	1
NMTAP	90	288	0
NMTAP	90	288	1
NMTAP	91	0	7
NMTAP	91	48	7
NMTAP	91	96	7
NMTAP	91	192	6
NMTAP	91	192	7
NMTAP	92	0	6
NMTAP	92	48	6
NMTAP	92	96	6
NMTAP	92	192	4
NMTAP	92	192	5
NMTAP	92	240	4
NMTAP	92	240	5
NMTAP	92	288	4
NMTAP	92	288	5
NMTAP	93	0	3
NMTAP	93	48	3
NMTAP	93	96	3
NMTAP	93	192	2
NMTAP	93	192	3
NMTAP	94	0	1
NMTAP	94	48	1
NMTAP	94	96	1
NMTAP	94	192	2
NMTAP	94	192	3
NMTAP	94	240	2
NMTAP	94	240	3
NMTAP	94	288	2
NMTAP	94	288	3
NMTAP	95	0	4
NMTAP	95	48	4
NMTAP	95	96	4
NMTAP	95	192	4
NMTAP	95	192	5
NMTAP	96	0	4
NMTAP	96	0	6
NMTAP	96	96	4
NMTAP	96	96	6
NMTAP	96	192	4
NMTAP	96	192	6
NMTAP	97	0	1
NMTAP	97	0	3
NMTAP	97	96	1
NMTAP	97	96	3
NMTAP	97	192	1
NMTAP	97	192	3
NMTHO	98	0	0	384	C	0	L1
EXHLD	100	0	0	192
NMHLD	100	192	1	192
NMHLD	101	0	2	192
NMHLD	101	192	3	192
NMHLD	102	0	4	192
NMHLD	102	192	5	192
NMHLD	103	0	6	192
NMTAP	103	192	7
EXHLD	104	0	7	192
NMHLD	104	192	6	192
NMHLD	105	0	5	192
NMHLD	105	192	4	192
NMHLD	106	0	3	192
NMHLD	106	192	2	192
NMHLD	107	0	1	192
NMTAP	107	192	0
NMTAP	108	0	0
NMTAP	108	0	1
NMTAP	108	48	0
NMTAP	108	48	1
NMTAP	108	96	0
NMTAP	108	96	1
NMTAP	108	192	2
NMTAP	108	192	7
NMTAP	108	288	2
NMTAP	108	288	7
NMTAP	109	0	3
NMTAP	109	0	6
NMTAP	109	96	3
NMTAP	109	96	6
NMTAP	109	192	4
NMTAP	109	192	5
NMTAP	110	0	6
NMTAP	110	0	7
NMTAP	110	48	6
NMTAP	110	48	7
NMTAP	110	96	6
NMTAP	110	96	7
NMTAP	110	192	0
NMTAP	110	192	5
NMTAP	110	288	0
NMTAP	110	288	5
NMTAP	111	0	1
NMTAP	111	0	4
NMTAP	111	96	1
NMTAP	111	96	4
NMTAP	111	192	2
NMTAP	111	192	3
NMTAP	112	0	0
NMTAP	112	0	1
NMTAP	112	48	0
NMTAP	112	48	1
NMTAP	112	96	0
NMTAP	112	96	1
NMTAP	112	192	2
NMTAP	112	192	7
NMTAP	112	240	2
NMTAP	112	240	7
NMTAP	112	288	2
NMTAP	112	288	7
NMTAP	113	0	3
NMTAP	113	0	6
NMTAP	113	48	3
NMTAP	113	48	6
NMTAP	113	96	3
NMTAP	113	96	6
NMTAP	113	192	4
NMTAP	113	192	5
NMTAP	113	240	4
NMTAP	113	240	5
NMTAP	113	288	4
NMTAP	113	288	5
NMTAP	114	0	6
NMTAP	114	0	7
NMTAP	114	48	6
NMTAP	114	48	7
NMTAP	114	96	6
NMTAP	114	96	7
NMTAP	114	192	0
NMTAP	114	192	5
NMTAP	114	240	0
NMTAP	114	240	5
NMTAP	114	288	0
NMTAP	114	288	5
NMTAP	115	0	1
NMTAP	115	0	4
NMTAP	115	48	1
NMTAP	115	48	4
NMTAP	115	96	1
NMTAP	115	96	4
NMTAP	115	192	2
NMTAP	115	192	3
NMTAP	115	240	2
NMTAP	115	240	3
NMTAP	115	288	2
NMTAP	115	288	3
EXHLD	116	96	3	480
EXHLD	116	96	4	480
NMSTR	118	0	3
NMSXR	118	0	3	96	480	0
NMSTR	118	0	4
NMSXL	118	0	4	96	480	7
NMTAP	121	0	1
NMTAP	121	48	1
NMTAP	121	96	1
NMTAP	121	192	2
NMTAP	121	240	2
NMTAP	121	288	2
NMTAP	122	0	3
NMTAP	122	48	3
NMTAP	122	96	3
NMTAP	122	192	4
NMTAP	122	192	5
NMTAP	122	288	4
NMTAP	122	288	5
NMTAP	123	0	6
NMTAP	123	48	6
NMTAP	123	96	6
NMTAP	123	192	5
NMTAP	123	240	5
NMTAP	123	288	5
NMTAP	124	0	4
NMTAP	124	48	4
NMTAP	124	96	4
NMTAP	124	192	2
NMTAP	124	192	3
NMTAP	125	0	2
NMTAP	125	48	2
NMTAP	125	96	2
NMTAP	125	192	1
NMTAP	125	240	1
NMTAP	125	288	1
NMTAP	126	0	0
NMTAP	126	48	0
NMTAP	126	96	0
NMTAP	126	192	6
NMTAP	126	192	7
NMTAP	126	288	6
NMTAP	126	288	7
NMTAP	127	0	5
NMTAP	127	48	5
NMTAP	127	96	5
NMTAP	127	192	6
NMTAP	127	240	6
NMTAP	127	288	6
NMTAP	128	0	7
NMTAP	128	48	7
NMTAP	128	96	7
NMTAP	128	192	0
NMTAP	128	192	1
NMTAP	129	0	1
NMTAP	129	48	1
NMTAP	129	96	0
NMTAP	129	96	1
NMTAP	129	192	2
NMTAP	129	240	2
NMTAP	129	288	2
NMTAP	129	288	3
NMTAP	130	0	5
NMTAP	130	48	5
NMTAP	130	96	4
NMTAP	130	96	5
NMTAP	130	192	6
NMTAP	130	192	7
NMTAP	130	240	6
NMTAP	130	240	7
NMTAP	130	288	6
NMTAP	130	288	7
NMTAP	131	0	6
NMTAP	131	48	6
NMTAP	131	96	6
NMTAP	131	96	7
NMTAP	131	192	5
NMTAP	131	240	5
NMTAP	131	288	4
NMTAP	131	288	5
NMTAP	132	0	2
NMTAP	132	48	2
NMTAP	132	96	2
NMTAP	132	96	3
NMTAP	132	192	0
NMTAP	132	192	1
NMTAP	132	240	0
NMTAP	132	240	1
NMTAP	132	288	0
NMTAP	132	288	1
NMTAP	133	0	2
NMTAP	133	0	3
NMTAP	133	48	2
NMTAP	133	48	3
NMTAP	133	96	2
NMTAP	133	96	3
NMTAP	133	192	1
NMTAP	133	192	4
NMTAP	134	0	0
NMTAP	134	0	1
NMTAP	134	48	0
NMTAP	134	48	1
NMTAP	134	96	0
NMTAP	134	96	1
NMTAP	134	192	2
NMTAP	134	192	7
NMTAP	135	0	6
NMTAP	135	0	7
NMTAP	135	48	6
NMTAP	135	48	7
NMTAP	135	96	6
NMTAP	135	96	7
NMTAP	135	192	0
NMTAP	135	192	5
NMTAP	136	0	4
NMTAP	136	0	5
NMTAP	136	48	4
NMTAP	136	48	5
NMTAP	136	96	4
NMTAP	136	96	5
NMTAP	136	192	3
NMTAP	136	192	6
NMTAP	137	0	4
NMTAP	137	0	5
NMTAP	137	48	4
NMTAP	137	48	5
NMTAP	137	96	4
NMTAP	137	96	5
NMTAP	137	192	3
NMTAP	137	192	6
NMTAP	138	0	6
NMTAP	138	0	7
NMTAP	138	48	6
NMTAP	138	48	7
NMTAP	138	96	6
NMTAP	138	96	7
NMTAP	138	192	0
NMTAP	138	192	5
NMTAP	139	0	0
NMTAP	139	0	1
NMTAP	139	48	0
NMTAP	139	48	1
NMTAP	139	96	0
NMTAP	139	96	1
NMTAP	139	192	2
NMTAP	139	192	7
NMTAP	140	0	2
NMTAP	140	0	3
NMTAP	140	48	2
NMTAP	140	48	3
NMTAP	140	96	2
NMTAP	140	96	3
NMTAP	140	192	1
NMTAP	140	192	4
NMTTP	141	0	2	B	0	L1
NMTTP	141	0	3	B	0	L1
NMTTP	141	192	0	B	0	L1
NMTTP	141	192	1	B	0	L1
NMTTP	142	0	6	B	0	L1
NMTTP	142	0	7	B	0	L1
NMTTP	142	192	4	B	0	L1
NMTTP	142	192	5	B	0	L1
NMTTP	143	0	2	E	0	L1
NMTTP	143	0	3	E	0	L1
NMTTP	143	192	0	E	0	L1
NMTTP	143	192	1	E	0	L1
NMTTP	144	0	6	E	0	L1
NMTTP	144	0	7	E	0	L1
NMTTP	144	192	4	E	0	L1
NMTTP	144	192	5	E	0	L1
NMTTP	145	0	2	B	0	L1
NMTTP	145	96	1	B	0	L1
NMTTP	145	192	0	B	0	L1
NMTTP	145	288	7	B	0	L1
NMTTP	146	0	6	B	0	L1
NMTTP	146	96	5	B	0	L1
NMTTP	146	192	3	B	0	L1
NMTTP	146	192	4	B	0	L1
NMTTP	147	0	6	E	0	L1
NMTTP	147	96	7	E	0	L1
NMTTP	147	192	0	E	0	L1
NMTTP	147	288	1	E	0	L1
NMTTP	148	0	2	E	0	L1
NMTTP	148	96	3	E	0	L1
NMTTP	148	192	4	E	0	L1
NMTTP	148	192	5	E	0	L1
EXHLD	149	0	6	192
NMHLD	149	192	5	192
NMHLD	150	0	4	192
NMTAP	150	192	3
NMHLD	151	0	1	192
NMHLD	151	192	2	192
NMHLD	152	0	3	192
NMTAP	152	192	4
EXTAP	153	0	3
EXTAP	153	0	5
EXTAP	153	72	3
EXTAP	153	72	5
EXTAP	153	144	3
EXTAP	153	144	5
EXTAP	153	216	3
EXTAP	153	216	5
BRTAP	153	288	3
BRTAP	153	288	5
EXTAP	154	0	2
EXTAP	154	0	4
EXTAP	154	72	2
EXTAP	154	72	4
EXTAP	154	144	2
EXTAP	154	144	4
EXTAP	154	216	2
EXTAP	154	216	4
BRTAP	154	288	2
BRTAP	154	288	4
EXTAP	155	0	3
EXTAP	155	0	4
EXTAP	155	72	3
EXTAP	155	72	4
EXTAP	155	144	3
EXTAP	155	144	4
EXTAP	155	216	3
EXTAP	155	216	4
NMSTR	155	288	3
NMSI_	155	288	3	96	192	0
NMSTR	155	288	4
NMSI_	155	288	4	96	192	7
NMTAP	157	0	7
NMTAP	157	48	7
NMTAP	157	96	6
NMTAP	157	144	6
NMTAP	157	192	5
NMTAP	157	240	5
NMTAP	157	288	3
NMTAP	157	288	4
NMTAP	158	0	3
NMTAP	158	48	3
NMTAP	158	96	2
NMTAP	158	144	2
NMTAP	158	192	1
NMTAP	158	240	1
NMTAP	158	288	0
NMTAP	158	288	7
NMTAP	159	0	1
NMTAP	159	48	1
NMTAP	159	96	2
NMTAP	159	144	2
NMTAP	159	192	3
NMTAP	159	240	3
NMTAP	159	288	4
NMTAP	159	288	5
NMTAP	160	0	6
NMTAP	160	48	6
NMTAP	160	96	5
NMTAP	160	144	5
NMTAP	160	192	4
NMTAP	160	240	4
NMTAP	160	288	2
NMTAP	160	288	3
NMTAP	161	0	2
NMTAP	161	48	2
NMTAP	161	96	1
NMTAP	161	144	1
NMTAP	161	192	0
NMTAP	161	240	0
NMTAP	161	288	6
NMTAP	161	288	7
NMTAP	162	0	5
NMTAP	162	48	5
NMTAP	162	96	6
NMTAP	162	144	6
NMTAP	162	192	7
NMTAP	162	240	7
NMTAP	162	288	0
NMTAP	162	288	1
NMTAP	163	0	1
NMTAP	163	48	1
NMTAP	163	96	2
NMTAP	163	144	2
NMTAP	163	192	3
NMTAP	163	240	3
NMTAP	163	288	4
NMTAP	163	336	4
NMTAP	164	0	5
NMTAP	164	48	5
NMTAP	164	96	6
NMTAP	164	144	6
NMHLD	164	192	0	96
NMHLD	164	192	7	96
EXTAP	165	0	1
EXTAP	165	48	1
NMTAP	165	96	0
NMTAP	165	96	1
NMTAP	165	144	0
NMTAP	165	144	1
NMTAP	165	192	7
NMTAP	165	240	7
NMTAP	165	288	6
NMTAP	165	288	7
NMTAP	166	0	5
NMTAP	166	48	5
NMTAP	166	96	6
NMTAP	166	96	7
NMTAP	166	144	6
NMTAP	166	144	7
NMTAP	166	192	0
NMTAP	166	240	0
NMTAP	166	288	0
NMTAP	166	288	1
NMTAP	167	0	1
NMTAP	167	48	1
NMTAP	167	96	2
NMTAP	167	96	3
NMTAP	167	144	2
NMTAP	167	144	3
NMTAP	167	192	4
NMTAP	167	240	4
NMTAP	167	288	4
NMTAP	167	288	5
NMTAP	168	0	6
NMTAP	168	48	6
NMTAP	168	96	4
NMTAP	168	96	5
NMTAP	168	144	4
NMTAP	168	144	5
NMTAP	168	192	3
NMTAP	168	240	3
NMTAP	168	288	2
NMTAP	168	288	3
NMTAP	169	0	2
NMTAP	169	48	2
NMTAP	169	96	2
NMTAP	169	96	3
NMTAP	169	144	2
NMTAP	169	144	3
NMTAP	169	192	1
NMTAP	169	240	1
NMTAP	169	288	0
NMTAP	169	288	1
NMTAP	170	0	6
NMTAP	170	48	6
NMTAP	170	96	6
NMTAP	170	96	7
NMTAP	170	144	6
NMTAP	170	144	7
NMTAP	170	192	5
NMTAP	170	240	5
NMTAP	170	288	4
NMTAP	170	288	5
NMTAP	171	0	5
NMTAP	171	48	5
NMTAP	171	96	4
NMTAP	171	96	5
NMTAP	171	144	4
NMTAP	171	144	5
NMTAP	171	192	6
NMTAP	171	240	6
NMTAP	171	288	6
NMTAP	171	288	7
NMTAP	172	0	1
NMTAP	172	48	1
NMTAP	172	96	0
NMTAP	172	96	1
NMTAP	172	144	0
NMTAP	172	144	1
NMTAP	172	192	2
NMTAP	172	240	2
NMTAP	172	288	2
NMTAP	172	288	3
NMSTR	173	0	0
NMSI_	173	0	0	96	288	5
NMSTR	173	0	1
NMSI_	173	0	1	96	288	4
EXTAP	174	192	4
EXTAP	174	192	5
NMSTR	175	0	6
NMSI_	175	0	6	96	288	3
NMSTR	175	0	7
NMSI_	175	0	7	96	288	2
EXTAP	176	192	2
EXTAP	176	192	3
NMSTR	177	0	1
NMSI_	177	0	1	96	192	4
NMSTR	178	0	6
NMSI_	178	0	6	96	192	3
NMSTR	179	0	1
NMSI_	179	0	1	96	192	4
NMTAP	180	0	3
NMTAP	180	0	4
NMTAP	180	48	3
NMTAP	180	48	4
NMTAP	180	96	3
NMTAP	180	96	4
NMTAP	180	144	3
NMTAP	180	144	4
NMTAP	180	192	3
NMTAP	180	192	4
NMTAP	180	240	3
NMTAP	180	240	4
NMTAP	180	288	3
NMTAP	180	288	4
NMTAP	181	0	2
NMTAP	181	0	3
NMTAP	181	48	2
NMTAP	181	48	3
NMTAP	181	96	1
NMTAP	181	144	0
NMTAP	181	192	7
NMTAP	181	240	6
NMTAP	181	288	4
NMTAP	181	288	5
NMTAP	182	0	4
NMTAP	182	0	5
NMTAP	182	48	4
NMTAP	182	48	5
NMTAP	182	96	6
NMTAP	182	144	7
NMTAP	182	192	0
NMTAP	182	240	1
NMTAP	182	288	2
NMTAP	182	288	3
NMTAP	183	0	0
NMTAP	183	0	1
NMTAP	183	48	0
NMTAP	183	48	1
NMTAP	183	96	2
NMTAP	183	144	3
NMTAP	183	192	4
NMTAP	183	240	5
NMTAP	183	288	6
NMTAP	183	288	7
NMTAP	184	0	6
NMTAP	184	0	7
NMTAP	184	48	6
NMTAP	184	48	7
NMTAP	184	96	5
NMTAP	184	144	4
NMTAP	184	192	3
NMTAP	184	240	2
NMTAP	184	288	0
NMTAP	184	288	1
NMTAP	185	0	0
NMTAP	185	48	1
NMTAP	185	96	2
NMTAP	185	144	3
NMTAP	185	192	4
NMTAP	185	240	5
NMTAP	185	288	6
NMTAP	185	288	7
NMTAP	186	0	7
NMTAP	186	48	6
NMTAP	186	96	5
NMTAP	186	144	4
NMTAP	186	192	3
NMTAP	186	240	2
NMTAP	186	288	0
NMTAP	186	288	1
NMTAP	187	0	7
NMTAP	187	48	0
NMTAP	187	96	1
NMTAP	187	144	2
NMTAP	187	192	3
NMTAP	187	240	4
NMTAP	187	288	5
NMTAP	187	336	6
NMTAP	188	0	7
NMTAP	188	48	0
NMTAP	188	96	1
NMTAP	188	144	2
NMTAP	188	192	3
NMTAP	188	192	4
NMTAP	188	240	3
NMTAP	188	240	4
NMTAP	188	288	3
NMTAP	188	288	4
NMTAP	189	0	3
NMTAP	189	0	4
NMTAP	189	48	2
NMTAP	189	96	0
NMTAP	189	96	1
NMTAP	189	144	2
NMTAP	189	192	3
NMTAP	189	192	4
NMTAP	189	240	5
NMTAP	189	288	6
NMTAP	189	288	7
NMTAP	189	336	5
NMTAP	190	0	3
NMTAP	190	0	4
NMTAP	190	48	2
NMTAP	190	96	0
NMTAP	190	96	1
NMTAP	190	144	2
NMTAP	190	192	3
NMTAP	190	192	4
NMTAP	190	240	3
NMTAP	190	240	4
NMTAP	190	288	2
NMTAP	190	288	5
NMTAP	190	336	1
NMTAP	190	336	6
NMTAP	191	0	0
NMTAP	191	0	7
NMHLD	191	96	1	1440
NMHLD	191	96	6	1440

T_REC_TAP	815
T_REC_BRK	4
T_REC_XTP	30
T_REC_BXX	0
T_REC_HLD	45
T_REC_XHO	5
T_REC_BHO	0
T_REC_BXH	0
T_REC_STR	20
T_REC_BST	0
T_REC_XST	0
T_REC_XBS	0
T_REC_TTP	60
T_REC_THO	1
T_REC_SLD	20
T_REC_BSL	0
T_REC_ALL	1000
T_NUM_TAP	925
T_NUM_BRK	4
T_NUM_HLD	51
T_NUM_SLD	20
T_NUM_ALL	1000
T_JUDGE_TAP	929
T_JUDGE_HLD	268
T_JUDGE_SLD	20
T_JUDGE_ALL	1217
TTM_EACHPAIRS	259
TTM_SCR_TAP	462500
TTM_SCR_BRK	10400
TTM_SCR_HLD	51000
TTM_SCR_SLD	30000
TTM_SCR_ALL	553900
TTM_SCR_S	536900
TTM_SCR_SS	553500
TTM_RAT_ACV	10007

