VERSION	0.00.00	1.05.00
FES_MODE	0
BPM_DEF	120.000	180.000	240.000	120.000
MET_DEF	4	4
RESOLUTION	384
CLK_DEF	384
COMPATIBLE_CODE	MA2

BPM	0	0	120.000
BPM	11	0	130.000
BPM	12	0	140.000
BPM	13	0	150.000
BPM	14	0	160.000
BPM	15	0	170.000
BPM	16	0	180.000
BPM	17	0	190.000
BPM	18	0	200.000
BPM	19	0	210.000
BPM	20	0	220.000
BPM	21	0	230.000
BPM	21	192	240.000
BPM	40	0	180.000
BPM	100	0	187.500
BPM	102	0	195.000
BPM	104	0	202.500
BPM	106	0	210.000
BPM	108	0	217.500
BPM	110	0	225.000
BPM	112	0	232.500
BPM	114	0	240.000
BPM	116	0	180.000
BPM	117	0	170.000
BPM	118	0	160.000
BPM	119	0	140.000
BPM	120	0	180.000
BPM	121	0	180.000
MET	0	0	4	4
SEF	119	288	1
SEF	120	0	3
SEF	0	0	0

NMTAP	2	0	0
NMTAP	2	192	0
NMTAP	3	0	1
NMTAP	3	192	1
NMTAP	4	0	2
NMTAP	4	192	2
NMTAP	5	0	3
NMTAP	5	192	3
NMTAP	6	0	4
NMTAP	6	192	4
NMTAP	7	0	5
NMTAP	7	192	5
NMTAP	8	0	6
NMTAP	8	192	6
NMTAP	9	0	0
NMTAP	9	0	7
NMTTP	10	0	7	B	0	L1
NMTTP	11	0	0	B	0	L1
NMTTP	12	0	6	B	0	L1
NMTTP	13	0	1	B	0	L1
NMTTP	14	0	5	B	0	L1
NMTTP	15	0	2	B	0	L1
NMTTP	16	0	4	B	0	L1
NMTTP	17	0	3	B	0	L1
NMTTP	18	0	4	E	0	L1
NMTTP	19	0	3	B	0	L1
NMTTP	19	0	4	B	0	L1
NMTHO	20	0	0	768	C	1	L1
NMTAP	24	0	7
NMTAP	24	192	7
NMTAP	25	0	6
NMTAP	25	192	6
NMTAP	26	0	5
NMTAP	26	192	5
NMTAP	27	0	4
NMTAP	27	0	5
NMTAP	28	0	3
NMTAP	28	192	3
NMTAP	29	0	2
NMTAP	29	192	2
NMTAP	30	0	1
NMTAP	30	192	1
NMTAP	31	0	0
NMTAP	31	0	1
NMTAP	32	0	0
NMTAP	32	192	0
NMTAP	33	0	1
NMTAP	33	192	1
NMTAP	34	0	2
NMTAP	34	192	2
NMTAP	35	0	3
NMTAP	35	0	4
NMTAP	35	192	3
NMTAP	35	192	4
NMTAP	36	0	5
NMTAP	36	192	5
NMTAP	37	0	6
NMTAP	37	192	6
NMHLD	38	0	0	384
NMHLD	38	0	7	384
BXTAP	40	0	7
EXTAP	40	96	7
EXTAP	40	192	7
NMTAP	41	0	6
NMTAP	41	96	6
NMTAP	41	192	6
NMTAP	42	0	5
NMTAP	42	96	5
NMTAP	42	192	5
NMTAP	43	0	4
NMTAP	43	0	5
NMTAP	43	192	4
NMTAP	43	192	5
NMTAP	44	0	3
NMTAP	44	96	3
NMTAP	44	192	3
NMTAP	45	0	2
NMTAP	45	96	2
NMTAP	45	192	2
NMTAP	46	0	1
NMTAP	46	96	1
NMTAP	46	192	1
NMTAP	47	0	0
NMTAP	47	0	1
NMTAP	47	192	0
NMTAP	47	192	1
NMTAP	48	0	0
NMTAP	48	96	0
NMTAP	48	192	0
NMTAP	49	0	1
NMTAP	49	96	1
NMTAP	49	192	1
NMTAP	50	0	2
NMTAP	50	96	2
NMTAP	50	192	2
NMTAP	51	0	2
NMTAP	51	0	3
NMTAP	51	192	2
NMTAP	51	192	3
NMTAP	52	0	4
NMTAP	52	96	4
NMTAP	52	192	4
NMTAP	53	0	5
NMTAP	53	96	5
NMTAP	53	192	5
NMTAP	54	0	6
NMTAP	54	96	6
NMTAP	54	192	6
NMTAP	55	0	6
NMTAP	55	0	7
NMTAP	55	192	6
NMTAP	55	192	7
BRTAP	56	0	7
NMTAP	56	96	7
NMTAP	56	192	7
NMTAP	56	288	7
NMTAP	57	0	6
NMTAP	57	96	6
NMTAP	57	192	6
NMTAP	57	192	7
NMTAP	58	0	5
NMTAP	58	96	5
NMTAP	58	192	5
NMTAP	58	288	5
NMTAP	59	0	4
NMTAP	59	96	4
NMTAP	59	192	3
NMTAP	59	192	4
NMTAP	60	0	3
NMTAP	60	96	3
NMTAP	60	192	3
NMTAP	60	288	3
NMTAP	61	0	2
NMTAP	61	96	2
NMTAP	61	192	2
NMTAP	61	192	3
NMTAP	62	0	1
NMTAP	62	96	1
NMTAP	62	192	1
NMTAP	62	288	1
BRTAP	63	0	0
BRTAP	63	0	7
NMHLD	64	0	0	384
NMHLD	64	0	1	384
NMHLD	66	0	2	384
NMHLD	66	0	3	384
NMHLD	68	0	4	384
NMHLD	68	0	5	384
NMHLD	70	0	6	384
NMHLD	70	0	7	384
NMSTR	72	0	5
NMSI_	72	0	5	96	288	2
NMSTR	74	0	1
NMSI_	74	0	1	96	288	4
NMSTR	76	0	5
NMSI_	76	0	5	96	288	0
NMSTR	78	0	1
NMSI_	78	0	1	96	288	5
BRTAP	80	0	7
NMTAP	80	96	7
NMTAP	80	192	6
NMTAP	80	288	6
NMTAP	81	0	5
NMTAP	81	96	5
NMTAP	81	192	4
NMTAP	81	192	5
NMTAP	82	0	3
NMTAP	82	96	3
NMTAP	82	192	2
NMTAP	82	288	2
NMTAP	83	0	1
NMTAP	83	96	1
NMTAP	83	192	0
NMTAP	83	192	1
NMTAP	84	0	0
NMTAP	84	96	0
NMTAP	84	192	1
NMTAP	84	288	1
NMTAP	85	0	2
NMTAP	85	96	2
NMTAP	85	192	2
NMTAP	85	192	3
NMTAP	86	0	4
NMTAP	86	96	4
NMTAP	86	192	5
NMTAP	86	288	5
NMTAP	87	0	6
NMTAP	87	96	6
NMTAP	87	192	6
NMTAP	87	192	7
NMTAP	88	0	7
NMTAP	88	96	7
NMTAP	88	192	6
NMTAP	88	288	6
NMTAP	89	0	5
NMTAP	89	96	5
NMTAP	89	192	4
NMTAP	89	288	4
NMTAP	90	0	3
NMTAP	90	96	3
NMTAP	90	192	2
NMTAP	90	288	2
NMTAP	91	0	0
NMTAP	91	0	1
NMTAP	91	96	0
NMTAP	91	96	1
NMTAP	91	192	0
NMTAP	91	192	1
NMTAP	92	0	1
NMTAP	92	96	1
NMTAP	92	192	2
NMTAP	92	288	2
NMTAP	93	0	3
NMTAP	93	96	3
NMTAP	93	192	4
NMTAP	93	288	4
NMTAP	94	0	5
NMTAP	94	96	5
NMTAP	94	192	6
NMTAP	94	288	6
NMTAP	95	0	0
NMTAP	95	0	7
NMTAP	95	96	0
NMTAP	95	96	7
NMTAP	95	192	0
NMTAP	95	192	7
EXSTR	96	0	0
NMSI_	96	0	0	96	288	3
EXSTR	96	0	7
NMSI_	96	0	7	96	288	4
NMTTP	98	0	4	E	0	L1
NMTTP	99	0	3	E	0	L1
NMTTP	100	0	2	E	0	L1
NMTTP	101	0	1	E	0	L1
NMTTP	102	0	0	E	0	L1
NMTTP	103	0	7	E	0	L1
NMTTP	104	0	6	E	0	L1
NMTTP	105	0	5	E	0	L1
NMTTP	106	0	0	C	1	L1
NMTAP	108	0	7
NMTAP	108	48	7
NMTAP	108	96	7
NMTAP	108	192	6
NMTAP	108	288	6
NMTAP	109	0	4
NMTAP	109	0	5
NMTAP	109	96	4
NMTAP	109	96	5
NMTAP	109	192	4
NMTAP	109	192	5
NMTAP	110	0	3
NMTAP	110	48	3
NMTAP	110	96	3
NMTAP	110	192	2
NMTAP	110	288	2
NMTAP	111	0	0
NMTAP	111	0	1
NMTAP	111	96	0
NMTAP	111	96	1
NMTAP	111	192	0
NMTAP	111	192	1
NMTAP	112	0	0
NMTAP	112	48	0
NMTAP	112	96	0
NMTAP	112	192	1
NMTAP	112	288	1
NMTAP	113	0	2
NMTAP	113	0	3
NMTAP	113	96	2
NMTAP	113	96	3
NMTAP	113	192	2
NMTAP	113	192	3
NMTAP	114	0	3
NMTAP	114	0	4
NMTAP	114	96	3
NMTAP	114	96	4
NMTAP	114	192	2
NMTAP	114	192	5
NMTAP	114	288	2
NMTAP	114	288	5
NMTAP	115	0	1
NMTAP	115	0	6
NMTAP	115	96	1
NMTAP	115	96	6
NMTAP	115	192	0
NMTAP	115	192	7
NMTAP	115	288	0
NMTAP	115	288	7
NMTAP	116	0	0
NMTAP	116	0	7
EXHLD	116	96	1	672
EXHLD	116	96	6	1344
NMTAP	121	0	0
NMTAP	121	96	0
NMTAP	121	192	1
NMTAP	121	288	1
NMTAP	122	0	2
NMTAP	122	96	2
NMTAP	122	192	2
NMTAP	122	192	3
NMTAP	123	0	4
NMTAP	123	96	4
NMTAP	123	192	5
NMTAP	123	288	5
NMTAP	124	0	6
NMTAP	124	96	6
NMTAP	124	192	6
NMTAP	124	192	7
NMTAP	125	0	7
NMTAP	125	96	7
NMTAP	125	192	6
NMTAP	125	288	6
NMTAP	126	0	5
NMTAP	126	96	5
NMTAP	126	192	4
NMTAP	126	192	5
NMTAP	127	0	3
NMTAP	127	96	3
NMTAP	127	192	2
NMTAP	127	288	2
NMTAP	128	0	1
NMTAP	128	96	1
NMTAP	128	192	0
NMTAP	128	192	1
NMTAP	129	0	0
NMTAP	129	48	0
NMTAP	129	96	0
NMTAP	129	192	1
NMTAP	129	288	1
NMTAP	130	0	0
NMTAP	130	0	1
NMTAP	130	96	0
NMTAP	130	96	1
NMTAP	130	192	0
NMTAP	130	192	1
NMTAP	131	0	2
NMTAP	131	48	2
NMTAP	131	96	2
NMTAP	131	192	3
NMTAP	131	288	3
NMTAP	132	0	3
NMTAP	132	0	4
NMTAP	132	96	3
NMTAP	132	96	4
NMTAP	132	192	3
NMTAP	132	192	4
NMTAP	133	0	4
NMTAP	133	48	4
NMTAP	133	96	4
NMTAP	133	192	5
NMTAP	133	288	5
NMTAP	134	0	4
NMTAP	134	0	5
NMTAP	134	96	4
NMTAP	134	96	5
NMTAP	134	192	4
NMTAP	134	192	5
NMTAP	135	0	6
NMTAP	135	48	6
NMTAP	135	96	6
NMTAP	135	192	7
NMTAP	135	288	7
NMTAP	136	0	0
NMTAP	136	0	7
NMTAP	136	96	0
NMTAP	136	96	7
NMTAP	136	192	0
NMTAP	136	192	7
NMTAP	137	0	0
NMTAP	137	0	7
NMTAP	137	96	0
NMTAP	137	96	7
NMTAP	137	192	1
NMTAP	137	192	6
NMTAP	137	288	1
NMTAP	137	288	6
NMTAP	138	0	2
NMTAP	138	0	5
NMTAP	138	96	2
NMTAP	138	96	5
NMTAP	138	192	3
NMTAP	138	192	4
NMTAP	138	288	3
NMTAP	138	288	4
NMSTR	139	0	3
NMSI_	139	0	3	96	288	0
NMSTR	139	0	4
NMSI_	139	0	4	96	288	7
NMHLD	141	0	7	192
NMHLD	142	0	6	192
NMHLD	143	0	5	192
NMHLD	144	0	4	192
NMHLD	145	0	3	192
NMHLD	146	0	2	192
NMHLD	147	0	1	192
NMHLD	148	0	0	192
NMSTR	149	0	1
NMSCR	149	0	1	96	288	4
NMSTR	151	0	5
NMSCR	151	0	5	96	288	0
NMSTR	153	0	2
NMSCL	153	0	2	96	288	7
NMSTR	155	0	6
NMSCL	155	0	6	96	288	3
BRTAP	157	0	0
NMTAP	157	48	0
NMTAP	157	96	0
NMTAP	157	192	1
NMTAP	157	288	1
NMTAP	158	0	2
NMTAP	158	48	2
NMTAP	158	96	2
NMTAP	158	192	2
NMTAP	158	192	3
NMTAP	159	0	4
NMTAP	159	48	4
NMTAP	159	96	4
NMTAP	159	192	5
NMTAP	159	288	5
NMTAP	160	0	6
NMTAP	160	48	6
NMTAP	160	96	6
NMTAP	160	192	6
NMTAP	160	192	7
NMTAP	161	0	7
NMTAP	161	48	7
NMTAP	161	96	7
NMTAP	161	192	6
NMTAP	161	288	6
NMTAP	162	0	5
NMTAP	162	48	5
NMTAP	162	96	5
NMTAP	162	192	4
NMTAP	162	192	5
NMTAP	163	0	3
NMTAP	163	48	3
NMTAP	163	96	3
NMTAP	163	192	2
NMTAP	163	288	2
NMTAP	164	0	1
NMTAP	164	48	1
NMTAP	164	96	1
NMTAP	164	192	0
NMTAP	164	192	1
NMTAP	165	0	0
NMTAP	165	48	0
NMTAP	165	96	0
NMTAP	165	192	1
NMTAP	165	240	1
NMTAP	165	288	1
NMTAP	166	0	2
NMTAP	166	48	2
NMTAP	166	96	2
NMTAP	166	192	2
NMTAP	166	192	3
NMTAP	166	288	2
NMTAP	166	288	3
NMTAP	167	0	4
NMTAP	167	48	4
NMTAP	167	96	4
NMTAP	167	192	5
NMTAP	167	240	5
NMTAP	167	288	5
NMTAP	168	0	6
NMTAP	168	48	6
NMTAP	168	96	6
NMTAP	168	192	6
NMTAP	168	192	7
NMTAP	168	288	6
NMTAP	168	288	7
NMTAP	169	0	7
NMTAP	169	48	7
NMTAP	169	96	7
NMTAP	169	192	6
NMTAP	169	240	6
NMTAP	169	288	6
NMTAP	170	0	5
NMTAP	170	48	5
NMTAP	170	96	5
NMTAP	170	192	3
NMTAP	170	192	4
NMTAP	170	288	3
NMTAP	170	288	4
NMTAP	171	0	2
NMTAP	171	48	2
NMTAP	171	96	2
NMTAP	171	192	1
NMTAP	171	240	1
NMTAP	171	288	1
BRTAP	172	0	0
BRTAP	172	0	7
NMTTP	173	0	0	B	0	L1
NMTTP	173	0	1	B	0	L1
NMTTP	174	0	2	B	0	L1
NMTTP	174	0	3	B	0	L1
NMTTP	175	0	4	B	0	L1
NMTTP	175	0	5	B	0	L1
NMTTP	176	0	6	B	0	L1
NMTTP	176	0	7	B	0	L1
NMTTP	177	0	5	B	0	L1
NMTTP	177	0	5	E	0	L1
NMTTP	177	0	6	E	0	L1
NMTTP	178	0	2	B	0	L1
NMTTP	178	0	2	E	0	L1
NMTTP	178	0	3	E	0	L1
NMTHO	179	0	0	384	C	1	L1
NMTTP	179	0	3	B	0	L1
NMTTP	179	0	4	B	0	L1
BRTAP	181	0	7
NMTAP	181	48	7
NMTAP	181	96	7
NMTAP	181	192	6
NMTAP	181	192	7
NMTAP	181	240	6
NMTAP	181	240	7
NMTAP	181	288	6
NMTAP	181	288	7
NMTAP	182	0	5
NMTAP	182	48	5
NMTAP	182	96	5
NMTAP	182	192	4
NMTAP	182	192	5
NMTAP	182	240	4
NMTAP	182	240	5
NMTAP	182	288	4
NMTAP	182	288	5
NMTAP	183	0	3
NMTAP	183	48	3
NMTAP	183	96	3
NMTAP	183	192	2
NMTAP	183	192	3
NMTAP	183	240	2
NMTAP	183	240	3
NMTAP	183	288	2
NMTAP	183	288	3
NMTAP	184	0	1
NMTAP	184	48	1
NMTAP	184	96	1
NMTAP	184	192	0
NMTAP	184	192	1
NMTAP	184	240	0
NMTAP	184	240	1
NMTAP	184	288	0
NMTAP	184	288	1
NMTAP	185	0	7
NMTAP	185	48	7
NMTAP	185	96	7
NMTAP	185	192	0
NMTAP	185	192	6
NMTAP	185	240	0
NMTAP	185	240	6
NMTAP	185	288	0
NMTAP	185	288	6
NMTAP	186	0	0
NMTAP	186	48	0
NMTAP	186	96	0
NMTAP	186	192	1
NMTAP	186	192	7
NMTAP	186	240	1
NMTAP	186	240	7
NMTAP	186	288	1
NMTAP	186	288	7
NMTAP	187	0	0
NMTAP	187	48	0
NMTAP	187	96	0
NMTAP	187	192	6
NMTAP	187	240	6
NMTAP	187	288	6
NMTAP	188	0	4
NMTAP	188	48	4
NMTAP	188	96	4
NMTAP	188	192	2
NMTAP	188	240	2
NMTAP	188	288	2
NMTAP	189	0	0
NMTAP	189	0	1
NMTAP	189	48	0
NMTAP	189	48	1
NMTAP	189	96	0
NMTAP	189	96	1
NMTAP	189	192	2
NMTAP	189	192	3
NMTAP	189	240	2
NMTAP	189	240	3
NMTAP	189	288	2
NMTAP	189	288	3
NMTAP	190	0	4
NMTAP	190	0	5
NMTAP	190	48	4
NMTAP	190	48	5
NMTAP	190	96	4
NMTAP	190	96	5
NMTAP	190	192	6
NMTAP	190	192	7
NMTAP	190	240	6
NMTAP	190	240	7
NMHLD	190	288	6	96
NMHLD	190	288	7	96
NMHLD	191	96	0	1440
NMHLD	191	96	5	1440

T_REC_TAP	503
T_REC_BRK	8
T_REC_XTP	2
T_REC_BXX	1
T_REC_HLD	22
T_REC_XHO	2
T_REC_BHO	0
T_REC_BXH	0
T_REC_STR	10
T_REC_BST	0
T_REC_XST	2
T_REC_XBS	0
T_REC_TTP	36
T_REC_THO	2
T_REC_SLD	12
T_REC_BSL	0
T_REC_ALL	600
T_NUM_TAP	553
T_NUM_BRK	9
T_NUM_HLD	26
T_NUM_SLD	12
T_NUM_ALL	600
T_JUDGE_TAP	562
T_JUDGE_HLD	232
T_JUDGE_SLD	12
T_JUDGE_ALL	806
TTM_EACHPAIRS	119
TTM_SCR_TAP	276500
TTM_SCR_BRK	23400
TTM_SCR_HLD	26000
TTM_SCR_SLD	18000
TTM_SCR_ALL	343900
TTM_SCR_S	332750
TTM_SCR_SS	343000
TTM_RAT_ACV	10026

