VERSION	0.00.00	1.04.00
FES_MODE	0
BPM_DEF	205.000	244.000	266.000	 22.000
MET_DEF	4	4
RESOLUTION	384
CLK_DEF	384
COMPATIBLE_CODE	MA2

BPM	0	0	205.000
BPM	7	0	180.000
BPM	7	192	166.000
BPM	8	0	159.000
BPM	8	192	132.000
BPM	9	0	111.000
BPM	9	192	 77.000
BPM	9	288	 22.000
BPM	10	0	244.000
BPM	106	0	225.000
BPM	107	0	214.000
BPM	108	0	205.000
BPM	114	192	215.000
BPM	115	0	200.000
BPM	116	0	181.000
BPM	117	0	123.000
BPM	117	288	 78.000
BPM	118	0	266.000
BPM	146	0	246.000
BPM	148	0	205.000
MET	0	0	4	4

NMHLD	1	0	3	192
NMTAP	1	0	4
NMTAP	1	192	5
NMTAP	1	240	4
NMTAP	1	288	3
NMTAP	1	336	2
BRSTR	2	0	1
NMSCL	2	0	1	96	96	0
CNSCL	2	192	0	0	96	7
NMTTP	2	192	3	E	0	M1
NMTTP	2	256	3	B	0	M1
CNSCL	2	288	7	0	96	6
NMTTP	2	320	4	B	0	M1
NMTTP	3	0	5	E	0	M1
CNSCL	3	0	6	0	96	5
CNSCL	3	96	5	0	96	4
NMTTP	3	192	0	C	0	M1
CNSCL	3	192	4	0	96	3
CNSCL	3	288	3	0	96	2
BRSTR	4	0	6
BRSCR	4	0	6	96	96	7
NMTTP	4	192	5	E	0	M1
CNSCR	4	192	7	0	96	0
NMTTP	4	256	4	B	0	M1
CNSCR	4	288	0	0	96	1
NMTTP	4	320	3	B	0	M1
CNSCR	5	0	1	0	96	2
NMTTP	5	0	3	E	0	M1
CNSCR	5	96	2	0	96	3
NMTTP	5	192	0	C	0	M1
CNSCR	5	192	3	0	96	4
CNSCR	5	288	4	0	96	5
NMHLD	6	0	7	192
NMTAP	6	192	0
NMTAP	6	288	1
NMTAP	6	288	6
NMTAP	7	0	1
NMTAP	7	32	3
NMTAP	7	64	2
NMTAP	7	96	4
NMTAP	7	128	3
NMTAP	7	160	5
NMTAP	7	192	2
NMTAP	7	224	4
NMTAP	7	256	3
NMTAP	7	288	5
NMTAP	7	320	4
NMTAP	7	352	6
NMTAP	8	0	3
NMTAP	8	32	5
NMTAP	8	64	4
NMTAP	8	96	6
NMTAP	8	128	3
NMTAP	8	160	5
NMTAP	8	192	2
NMTAP	8	224	3
NMTAP	8	256	2
NMSTR	8	288	4
NMSSL	8	288	4	96	288	0
NMTAP	8	320	3
NMTAP	8	352	5
BRTAP	9	0	4
NMTHO	9	288	0	72	C	0	M1
BRSTR	10	0	0
NMSI_	10	0	0	96	48	4
BRTAP	10	0	7
NMTAP	10	96	6
NMSTR	10	144	6
NMSCR	10	144	6	96	48	1
NMHLD	10	240	2	96
NMTAP	10	336	4
NMSTR	11	0	5
NMSI_	11	0	5	96	48	0
NMTAP	11	96	2
NMSTR	11	144	1
NMSI_	11	144	1	96	48	5
NMHLD	11	240	6	96
NMTAP	11	336	7
NMSTR	12	0	0
NMSCR	12	0	0	96	48	3
NMTAP	12	96	4
NMSTR	12	144	5
NMSI_	12	144	5	96	48	1
NMTAP	12	240	4
NMTAP	12	288	3
NMHLD	12	336	2	96
NMTAP	13	48	7
NMTAP	13	96	7
NMTAP	13	192	0
NMTAP	13	192	6
NMTAP	13	240	0
NMTAP	13	240	6
BRSTR	13	336	1
NMSI_	13	336	1	96	48	5
BRTAP	13	336	5
NMTAP	14	48	7
NMHLD	14	96	7	96
NMTAP	14	192	5
NMTAP	14	240	3
NMTAP	14	288	1
NMSTR	14	336	6
NMSI_	14	336	6	96	48	2
NMTAP	15	48	0
NMHLD	15	96	0	96
NMTAP	15	192	2
NMTAP	15	240	4
NMTAP	15	288	6
NMHLD	15	336	1	96
NMTAP	16	48	7
NMTAP	16	96	5
NMTAP	16	144	3
NMTAP	16	192	1
NMTAP	16	192	5
NMTAP	16	216	0
NMTAP	16	240	7
NMTAP	16	264	6
NMTAP	16	288	5
NMTAP	16	312	4
NMTAP	16	336	0
NMHLD	16	336	3	96
NMTAP	17	48	7
NMTAP	17	96	7
NMTAP	17	144	7
NMTTP	17	192	1	B	0	M1
NMTTP	17	192	1	E	0	M1
NMTTP	17	240	5	B	0	M1
NMTTP	17	240	6	E	0	M1
NMTTP	17	288	3	B	0	M1
NMTTP	17	288	3	A	0	M1
NMTAP	18	0	6
NMTAP	18	24	4
NMTAP	18	48	6
NMHLD	18	72	4	72
NMHLD	18	96	6	48
NMTAP	18	192	1
NMTAP	18	216	3
NMTAP	18	240	1
NMHLD	18	264	3	72
NMHLD	18	288	1	48
NMTAP	19	0	6
NMTAP	19	24	7
NMTAP	19	48	6
NMHLD	19	72	7	72
NMHLD	19	96	6	48
NMTAP	19	192	1
NMTAP	19	216	0
NMTAP	19	240	1
NMHLD	19	264	0	72
NMHLD	19	288	1	48
NMTAP	20	0	0
NMTAP	20	0	7
NMTAP	20	48	0
NMTAP	20	48	7
NMTAP	20	72	6
NMTAP	20	96	5
NMTAP	20	120	4
NMTAP	20	144	3
NMTAP	20	192	0
NMTAP	20	192	1
NMTAP	20	216	2
NMTAP	20	240	3
NMTAP	20	264	4
NMTAP	20	288	5
NMHLD	20	336	7	96
NMTAP	21	48	0
NMTAP	21	72	6
NMTAP	21	96	0
NMTAP	21	120	6
NMTAP	21	144	0
NMTAP	21	168	6
NMTAP	21	192	0
NMTAP	21	216	1
NMTAP	21	240	2
NMTAP	21	264	3
NMTAP	21	288	5
NMTAP	21	312	4
NMHLD	21	336	2	144
NMTAP	21	336	3
NMSTR	22	96	1
NMSI_	22	96	1	96	48	4
NMSTR	22	144	7
NMSI_	22	144	7	96	48	5
NMTAP	22	192	1
NMTAP	22	240	7
NMTAP	22	336	3
NMTAP	22	336	6
NMTAP	23	48	5
NMTAP	23	96	4
NMTAP	23	144	3
NMTAP	23	192	2
NMTAP	23	192	4
NMTAP	23	240	2
NMTAP	23	240	4
NMTAP	23	336	1
NMTAP	23	336	5
NMSTR	24	48	7
NMSI_	24	48	7	96	48	5
NMSTR	24	96	0
NMSI_	24	96	0	96	48	4
NMSTR	24	144	7
NMSI_	24	144	7	96	48	3
NMSTR	24	192	0
NMSI_	24	192	0	96	48	2
NMTAP	24	240	7
NMSTR	24	288	0
NMSF_	24	288	0	96	192	4
NMSTR	26	0	2
NMSLL	26	0	2	96	384	6
NMHLD	26	0	3	288
NMHLD	27	0	3	288
CNSI_	27	96	6	0	192	4
CNSCR	27	288	4	0	48	5
CNSCR	27	336	5	0	96	6
NMHLD	28	0	3	288
CNSCR	28	48	6	0	120	7
CNSCR	28	168	7	0	72	0
CNSCR	28	240	0	0	48	1
CNSCR	28	288	1	0	96	2
NMHLD	29	0	3	192
NMHLD	29	192	2	96
NMTAP	30	0	1
NMTAP	30	0	3
NMTAP	30	96	2
NMTAP	30	96	4
NMTAP	30	192	3
NMTAP	30	192	5
NMTAP	30	288	4
NMTAP	30	288	6
NMTAP	31	0	7
NMTAP	31	48	7
NMTAP	31	96	0
NMTAP	31	144	0
NMHLD	31	192	1	24
NMHLD	31	192	7	24
NMHLD	31	240	1	24
NMHLD	31	240	7	24
NMHLD	31	288	2	24
NMHLD	31	288	6	24
NMHLD	31	336	2	24
NMHLD	31	336	6	24
NMTTP	32	0	3	E	0	M1
NMTTP	32	24	3	B	0	M1
NMTTP	32	48	4	B	0	M1
NMTTP	32	72	5	E	0	M1
NMTHO	33	0	0	288	C	0	M1
NMTAP	34	0	1
NMTAP	34	0	7
NMTAP	34	48	0
NMTAP	34	72	0
NMTAP	34	96	0
NMTAP	34	120	0
NMTAP	34	144	0
NMTAP	34	168	0
NMTAP	34	192	0
NMTAP	34	216	0
NMTAP	34	240	0
NMTAP	34	264	0
NMTAP	34	288	0
NMTAP	34	312	0
NMTAP	34	336	0
BRTAP	35	0	1
BRTAP	35	0	7
BRTAP	35	48	2
BRTAP	35	48	6
BRTAP	35	96	3
BRTAP	35	96	5
BRTAP	36	0	2
BRTAP	36	0	7
NMSTR	36	48	1
NMSCR	36	48	1	96	48	3
NMTAP	36	96	0
NMSTR	36	144	1
NMSI_	36	144	1	96	48	5
NMSTR	36	144	7
NMSI_	36	144	7	96	48	1
NMTAP	36	240	1
NMSTR	36	240	7
BRSCL	36	240	7	96	48	4
NMTAP	36	336	3
NMTAP	37	0	3
NMSTR	37	96	1
NMSV_	37	96	1	96	48	4
NMSTR	37	96	5
NMSI_	37	96	5	96	48	7
NMTAP	37	192	1
NMTAP	37	192	5
NMTAP	37	288	3
NMTAP	37	288	6
BRTAP	38	0	0
BRTAP	38	0	5
NMSTR	38	48	6
NMSI_	38	48	6	96	48	4
NMTAP	38	96	7
NMSTR	38	144	0
NMSI_	38	144	0	96	48	6
NMSTR	38	144	6
NMSI_	38	144	6	96	48	2
NMSTR	38	240	0
BRSCR	38	240	0	96	48	3
NMTAP	38	240	6
NMTAP	38	336	4
NMTAP	39	0	4
NMSTR	39	96	3
NMSI_	39	96	3	96	48	0
NMSTR	39	96	7
NMSI_	39	96	7	96	48	4
NMTAP	39	192	3
NMTAP	39	192	7
NMTAP	39	288	1
NMTAP	39	288	5
NMSTR	40	0	6
NMSI_	40	0	6	96	48	2
NMSTR	40	48	0
NMSCL	40	48	0	96	24	7
NMTAP	40	96	6
NMTAP	40	144	0
CNSI_	40	168	7	0	60	5
CNSCL	40	228	5	0	60	3
NMTAP	40	240	0
NMTAP	40	336	2
NMSTR	41	0	1
NMSI_	41	0	1	96	48	5
NMSTR	41	48	7
NMSCR	41	48	7	96	48	0
NMTAP	41	96	1
NMTAP	41	144	7
CNSI_	41	192	0	0	48	2
CNSCR	41	240	2	0	48	5
NMTAP	41	240	7
NMTAP	41	336	1
NMSTR	42	0	0
NMSI_	42	0	0	96	48	4
NMTAP	42	48	4
BRTAP	42	96	0
NMSTR	42	192	6
NMSI_	42	192	6	96	48	2
NMTAP	42	240	2
BRTAP	42	288	6
NMHLD	43	0	0	384
NMTTP	43	192	3	B	0	M1
NMTTP	43	192	4	B	0	M1
NMTTP	43	192	4	E	0	M1
NMTAP	44	0	6
NMTAP	44	96	1
NMTAP	44	96	5
NMSTR	44	144	1
NMSI_	44	144	1	96	48	7
NMSTR	44	144	5
NMSI_	44	144	5	96	48	7
NMSTR	44	240	1
NMSI_	44	240	1	96	48	3
NMSTR	44	240	5
NMSI_	44	240	5	96	48	3
NMTAP	44	336	1
NMTAP	44	336	5
NMTAP	45	48	0
NMSTR	45	96	0
NMSV_	45	96	0	96	48	3
NMSV_	45	96	0	96	48	5
NMTAP	45	192	0
NMTAP	45	288	1
NMTAP	45	288	7
BRHLD	46	48	0	48
BRTAP	46	48	1
NMTAP	46	60	2
NMTAP	46	72	3
NMTAP	46	84	4
NMTAP	46	96	5
BRTAP	46	192	6
BRHLD	46	192	7	48
NMTAP	46	204	5
NMTAP	46	216	4
NMTAP	46	228	3
NMTAP	46	240	2
NMTAP	46	288	0
BRSTR	46	336	1
BRSXR	46	336	1	96	336	4
BRSTR	46	336	5
NMSXR	46	336	5	96	336	0
NMTAP	48	192	3
NMTAP	48	192	7
NMTAP	48	256	3
NMTAP	48	256	7
NMTAP	48	320	2
NMTAP	48	320	6
NMHLD	49	0	1	96
NMTAP	49	0	5
NMHLD	49	96	6	96
NMTAP	49	192	4
NMTAP	49	240	2
NMTAP	49	288	0
NMTAP	49	288	4
NMTAP	50	0	1
NMTAP	50	48	1
NMTAP	50	96	3
NMTAP	50	144	3
NMTAP	50	192	2
NMTAP	50	240	2
NMTAP	50	288	7
NMTAP	50	336	7
NMTAP	51	0	0
NMTAP	51	24	1
NMTAP	51	48	2
NMTAP	51	72	3
NMTAP	51	96	4
NMTAP	51	120	5
NMTAP	51	144	6
NMTAP	51	168	7
NMTAP	51	192	0
NMTAP	51	216	1
NMTAP	51	240	2
NMTAP	51	264	3
NMTAP	51	288	4
NMTAP	51	312	5
NMTAP	51	336	6
NMTAP	51	360	7
NMHLD	52	0	0	32
NMHLD	52	0	5	32
NMHLD	52	64	0	32
NMHLD	52	64	4	32
NMHLD	52	128	0	32
NMHLD	52	128	3	32
NMHLD	52	192	0	32
NMHLD	52	192	2	32
NMHLD	52	256	0	32
NMHLD	52	256	1	32
NMHLD	52	320	0	32
NMHLD	52	320	7	32
BRSTR	53	0	0
NMSI_	53	0	0	96	48	5
BRSTR	53	1	7
BRSI_	53	1	7	96	47	4
CNSI_	53	144	4	0	48	1
CNSI_	53	144	5	0	48	2
CNSI_	53	192	1	0	48	6
CNSI_	53	192	2	0	48	7
CNSI_	53	240	6	0	48	3
CNSI_	53	240	7	0	48	4
CNSI_	53	288	3	0	48	0
CNSI_	53	288	4	0	48	1
CNSI_	53	336	0	0	48	5
CNSI_	53	336	1	0	48	6
CNSI_	54	0	5	0	960	2
CNSI_	54	0	6	0	960	3
NMTAP	57	0	1
NMTAP	57	32	4
NMTAP	57	64	2
NMSTR	57	96	3
NMSCR	57	96	3	96	96	7
NMTAP	58	0	6
NMTAP	58	32	3
NMTAP	58	64	5
NMSTR	58	96	4
NMSCL	58	96	4	96	96	0
NMTAP	59	0	1
NMTAP	59	32	3
NMTAP	59	64	2
NMTAP	59	96	6
NMTAP	59	128	4
NMTAP	59	160	5
NMTAP	59	192	1
NMTAP	59	224	3
NMTAP	59	256	2
NMSTR	59	288	0
NMSCL	59	288	0	96	192	4
BRTAP	60	0	3
CNSV_	60	192	4	0	144	2
NMHLD	61	0	0	384
NMHLD	62	0	1	384
NMHLD	63	0	2	384
NMHLD	64	0	3	24
NMTAP	64	288	1
NMTAP	64	288	5
NMTAP	65	0	0
NMTAP	65	24	4
NMTAP	65	48	0
NMTAP	65	72	4
NMTAP	65	96	0
NMTAP	65	120	4
NMTAP	65	144	0
NMTAP	65	168	4
NMTAP	65	192	0
NMTAP	65	216	4
NMTAP	65	240	0
NMTAP	65	264	4
NMTAP	65	288	0
NMTAP	66	0	1
NMTAP	66	24	5
NMTAP	66	48	1
NMTAP	66	72	5
NMTAP	66	96	1
NMTAP	66	120	5
NMTAP	66	144	1
NMTAP	66	168	5
NMTAP	66	192	1
NMTAP	66	216	5
NMTAP	66	240	1
NMTAP	66	264	5
NMSTR	66	288	1
BRSI_	66	288	1	96	48	6
NMSTR	66	312	5
NMSI_	66	312	5	96	48	2
NMTAP	66	336	1
NMTAP	66	360	5
NMTHO	68	0	0	192	C	0	M1
NMTTP	68	0	2	B	0	M1
NMTTP	68	0	2	E	0	M1
NMTAP	68	192	0
NMTAP	68	240	0
NMSTR	68	288	0
BRSF_	68	288	0	96	48	4
BRTAP	69	0	0
NMTAP	69	96	1
NMTAP	69	96	7
NMTAP	69	168	6
NMSTR	69	192	4
NMSCL	69	192	4	96	48	1
NMTAP	69	240	4
NMSTR	69	288	7
NMSI_	69	288	7	96	48	3
NMTAP	69	336	7
NMTAP	70	0	0
NMTAP	70	48	0
NMTAP	70	96	1
NMTAP	70	144	2
NMTAP	70	192	1
NMTAP	70	192	3
NMTAP	70	240	4
NMTAP	70	288	4
NMHLD	70	336	3	96
NMTAP	70	336	5
NMTAP	71	48	5
NMTAP	71	72	4
NMTAP	71	96	3
NMTAP	71	120	2
NMTAP	71	144	1
NMTAP	71	168	0
NMTAP	71	192	2
NMTAP	71	192	7
NMTAP	71	216	3
NMTAP	71	240	4
NMTAP	71	264	5
NMTAP	71	288	6
NMTAP	71	312	7
NMHLD	71	336	0	96
NMTAP	72	48	7
NMTAP	72	96	7
NMTAP	72	144	0
NMTAP	72	144	6
NMTAP	72	192	0
NMTAP	72	192	6
NMTAP	72	240	1
NMTAP	72	240	5
NMTAP	72	288	2
NMTAP	72	288	4
NMTAP	73	0	6
NMTAP	73	48	6
NMTAP	73	72	4
NMTAP	73	96	5
NMTAP	73	144	5
NMTAP	73	192	1
NMTAP	73	240	1
NMTAP	73	264	3
NMTAP	73	288	2
NMTAP	73	336	2
NMTAP	74	0	3
NMTAP	74	0	5
NMTAP	74	48	5
NMTAP	74	96	4
NMTAP	74	96	6
NMTAP	74	144	4
NMSTR	74	192	7
NMSI_	74	192	7	96	48	3
NMTAP	74	288	0
BRTAP	75	0	2
BRTAP	75	0	4
NMTAP	75	96	1
NMTAP	75	120	5
NMTAP	75	144	1
NMTAP	75	168	5
NMTAP	75	192	1
NMTAP	75	216	5
NMTAP	75	240	1
NMTAP	75	264	5
NMTAP	75	288	2
NMTAP	75	312	4
NMTAP	75	336	2
NMTAP	75	360	4
NMTAP	76	0	3
NMTAP	76	24	3
NMTAP	76	48	3
NMTAP	76	72	3
NMTAP	76	96	3
NMTAP	76	120	3
NMTAP	76	144	3
NMTAP	76	168	3
NMHLD	76	192	3	0
NMHLD	76	216	3	0
NMHLD	76	240	3	0
NMHLD	76	264	3	0
NMHLD	76	288	3	0
NMHLD	76	312	3	0
NMHLD	76	336	3	0
NMHLD	76	360	3	0
BRSTR	77	0	3
BRSF_	77	0	3	384	48	7
NMTAP	78	192	0
NMTAP	78	192	7
NMTAP	78	240	0
NMTAP	78	240	7
NMSTR	78	288	1
NMSI_	78	288	1	96	48	4
NMSTR	78	288	6
NMSI_	78	288	6	96	48	3
BRTAP	79	0	1
NMSTR	79	0	6
NMSI_	79	0	6	96	48	0
NMSTR	79	96	1
NMSI_	79	96	1	96	48	5
NMTAP	79	96	6
NMTAP	79	192	1
NMSTR	79	192	7
NMSI_	79	192	7	96	48	4
NMSTR	79	288	1
NMSI_	79	288	1	96	48	7
NMTAP	79	288	7
NMSTR	80	0	1
NMSI_	80	0	1	96	48	3
NMSTR	80	0	6
NMSI_	80	0	6	96	48	3
NMTAP	80	96	1
NMTAP	80	96	6
NMTAP	80	192	0
NMTAP	80	192	1
NMTAP	80	240	2
NMTAP	80	240	7
NMTAP	80	288	3
NMSTR	80	288	6
NMSI_	80	288	6	96	48	3
NMSTR	81	0	1
NMSI_	81	0	1	96	48	7
NMTAP	81	0	6
NMTAP	81	96	1
NMSTR	81	96	6
NMSI_	81	96	6	96	48	2
NMSTR	81	192	0
NMSI_	81	192	0	96	48	3
NMTAP	81	192	6
NMTAP	81	288	0
NMSTR	81	288	6
NMSI_	81	288	6	96	48	0
NMSTR	82	0	1
NMSI_	82	0	1	96	48	4
NMSTR	82	0	6
NMSI_	82	0	6	96	48	4
NMTAP	82	96	1
NMTAP	82	96	6
NMTAP	82	192	2
NMTAP	82	192	7
NMSTR	82	240	2
BRSI_	82	240	2	96	48	5
NMSTR	82	240	7
BRSI_	82	240	7	96	48	4
BRTAP	82	336	2
BRTAP	82	336	7
NMTAP	83	96	3
NMTAP	83	96	4
NMTAP	83	144	2
NMTAP	83	168	3
NMHLD	83	192	1	48
NMTAP	83	240	7
NMTAP	83	264	0
NMHLD	83	288	6	48
NMTAP	83	336	4
NMTAP	83	360	5
NMHLD	84	0	3	48
NMTAP	84	48	5
NMTAP	84	72	4
NMHLD	84	96	6	48
NMTAP	84	144	0
NMTAP	84	168	7
NMTAP	84	192	1
NMSTR	84	288	5
NMSI_	84	288	5	96	48	1
NMSI_	84	288	5	96	48	7
NMTAP	85	0	5
NMTAP	85	96	0
BRHLD	85	144	0	96
NMTAP	85	240	2
NMTAP	85	264	3
NMTAP	85	288	4
NMTAP	85	312	5
NMTAP	85	336	6
NMTAP	85	360	7
BRTAP	86	0	0
BRTAP	86	0	3
NMTAP	86	288	1
NMSTR	86	288	5
NMSI_	86	288	5	96	48	3
BRSTR	87	0	1
BRSI_	87	0	1	96	48	5
BRTAP	87	0	5
NMSTR	87	96	1
NMSI_	87	96	1	96	48	3
NMSTR	87	96	7
NMSI_	87	96	7	96	48	3
NMSTR	87	192	1
NMSI_	87	192	1	96	48	7
NMTAP	87	192	7
NMTAP	87	288	1
NMSTR	87	288	6
BRSI_	87	288	6	96	48	3
NMSTR	88	0	0
NMSI_	88	0	0	96	48	4
NMSI_	88	0	0	96	48	5
NMTAP	88	0	6
NMTAP	88	96	0
NMTAP	88	192	6
NMTAP	88	192	7
NMTAP	88	240	6
NMTAP	88	240	7
NMSTR	88	288	0
NMSV_	88	288	0	96	48	2
NMTAP	88	288	5
NMSTR	89	0	0
NMSV_	89	0	0	96	48	6
NMSTR	89	96	0
BRSI_	89	96	0	96	48	4
NMTTP	89	192	0	A	0	M1
NMTAP	89	288	7
NMTAP	89	312	6
NMTAP	89	336	5
NMTAP	89	360	4
BRTAP	90	0	3
BRSTR	90	0	7
BRSI_	90	0	7	96	48	2
BRSI_	90	0	7	96	48	3
BRTAP	90	96	7
NMTAP	90	192	1
NMTAP	90	192	4
NMSTR	90	240	0
NMSV_	90	240	0	96	48	3
NMSTR	90	240	5
NMSCR	90	240	5	96	48	0
BRTAP	90	336	0
BRTAP	90	336	5
NMHLD	91	96	2	48
NMHLD	91	96	7	48
NMHLD	91	192	3	48
NMHLD	91	192	6	48
NMHLD	91	288	4	48
NMHLD	91	288	5	48
NMTAP	92	0	3
NMTAP	92	0	4
NMTAP	92	48	2
NMTAP	92	48	3
NMTAP	92	96	1
NMTAP	92	96	2
NMTAP	92	144	0
NMTAP	92	144	1
NMTAP	92	192	0
NMTAP	92	192	7
NMTAP	92	288	0
NMTAP	92	312	7
NMTAP	92	336	0
NMTAP	92	360	7
NMTAP	93	0	1
NMTAP	93	24	0
NMTAP	93	48	2
NMTAP	93	72	7
NMTAP	93	96	3
NMTAP	93	120	6
NMTAP	93	144	4
NMTAP	93	168	5
NMTAP	93	192	3
NMTAP	93	216	4
NMTAP	93	240	2
NMTAP	93	264	3
NMTAP	93	288	2
NMTAP	93	312	3
BRTAP	94	0	0
BRTAP	94	0	5
BRTAP	94	48	0
BRTAP	94	48	5
BRSTR	94	96	0
NMSCR	94	96	0	96	48	3
BRSTR	94	96	5
NMSCR	94	96	5	96	48	0
BRTAP	94	288	2
BRTAP	94	288	7
NMSTR	95	0	1
NMSI_	95	0	1	96	48	4
NMSTR	95	48	7
BRSI_	95	48	7	96	48	1
NMTAP	95	96	1
NMTAP	95	144	7
CNSCR	95	192	1	0	48	3
CNSI_	95	240	3	0	48	5
NMSTR	95	240	6
NMSF_	95	240	6	96	48	2
NMTAP	95	336	6
NMSTR	96	96	0
NMSCR	96	96	0	96	48	3
NMSTR	96	96	4
NMSCR	96	96	4	96	48	7
NMSTR	96	192	0
NMSI_	96	192	0	96	48	4
NMTAP	96	192	4
NMTAP	96	288	0
NMSTR	97	0	6
NMSI_	97	0	6	96	48	3
NMSTR	97	48	0
BRSI_	97	48	0	96	48	6
NMTAP	97	96	6
NMTAP	97	144	0
CNSCL	97	192	6	0	48	4
NMSTR	97	240	1
NMSF_	97	240	1	96	48	5
CNSI_	97	240	4	0	48	2
NMTAP	97	336	1
NMTAP	98	96	3
NMTAP	98	96	7
NMHLD	98	192	2	48
NMHLD	98	192	4	48
NMHLD	98	288	1	48
NMHLD	98	288	3	48
NMTAP	99	0	0
NMTAP	99	24	4
NMSTR	99	48	0
NMSCL	99	48	0	96	72	2
NMTAP	99	72	4
NMTAP	99	96	0
NMTTP	99	240	0	A	0	M1
NMTTP	99	256	0	D	0	M1
NMTTP	99	272	7	A	0	M1
NMTTP	99	288	7	D	0	M1
NMTTP	99	304	6	A	0	M1
NMTTP	99	320	6	D	0	M1
NMTTP	99	336	5	A	0	M1
NMTAP	100	0	0
NMTAP	100	24	4
NMSTR	100	48	0
BRSCL	100	48	0	96	96	2
NMTAP	100	72	4
NMTAP	100	96	0
NMTTP	100	240	0	A	0	M1
NMTTP	100	256	0	D	0	M1
NMTTP	100	272	7	A	0	M1
NMTTP	100	288	7	D	0	M1
NMTTP	100	304	6	A	0	M1
NMTTP	100	320	6	D	0	M1
NMTTP	100	336	5	A	0	M1
BRSTR	101	0	1
NMSI_	101	0	1	96	48	5
BRTAP	101	96	1
BRTAP	101	96	3
BRSTR	101	192	6
NMSI_	101	192	6	96	48	2
BRSTR	101	288	4
NMSCR	101	288	4	96	192	3
BRTAP	101	288	6
BRTAP	102	192	4
NMTAP	103	0	2
NMSTR	103	0	7
NMSI_	103	0	7	96	72	3
NMTAP	103	96	1
NMSTR	103	144	1
NMSI_	103	144	1	96	96	5
CNSCL	103	168	3	0	72	1
NMSTR	103	240	5
NMSCR	103	240	5	96	48	7
NMTAP	103	336	0
NMTAP	104	48	1
NMSTR	104	96	1
NMSI_	104	96	1	96	48	3
NMSI_	104	96	1	96	48	4
NMSTR	104	192	1
NMSI_	104	192	1	96	48	6
NMSI_	104	192	1	96	48	7
NMTAP	104	288	1
NMTAP	105	0	4
NMTAP	105	0	5
NMTAP	105	96	6
NMTAP	105	96	7
NMTAP	105	144	0
NMTAP	105	144	5
NMTAP	105	240	2
NMTAP	105	240	3
BRHLD	105	336	3	816
BRTAP	105	336	7
NMTAP	106	72	7
NMTAP	106	120	6
NMTAP	106	168	5
NMTAP	106	216	4
NMTAP	106	264	2
NMTAP	106	312	1
NMTAP	106	360	0
NMTAP	107	0	7
NMTAP	107	16	6
NMTAP	107	32	5
NMTAP	107	48	4
NMTAP	107	80	2
NMTAP	107	96	1
NMTAP	107	112	0
NMTAP	107	128	7
NMTAP	107	144	6
NMTAP	107	160	5
NMTAP	107	176	4
NMTAP	107	208	2
NMTAP	107	224	1
NMTAP	107	240	0
NMTAP	107	256	7
NMTAP	107	272	6
NMTAP	107	288	5
NMTAP	107	300	4
NMTAP	107	324	2
NMTAP	107	336	1
NMTAP	107	348	0
NMTAP	107	360	7
NMTAP	107	372	6
BRTAP	108	0	5
NMSTR	110	0	1
NMSCR	110	0	1	96	96	2
CNSCR	110	192	2	0	96	3
CNSCR	110	288	3	0	96	4
CNSCR	111	0	4	0	96	5
CNSCR	111	96	5	0	96	6
CNSCR	111	192	6	0	96	7
CNSCR	111	288	7	0	96	0
NMSTR	112	0	5
BRSCL	112	0	5	96	96	4
CNSCL	112	192	4	0	96	3
CNSCL	112	288	3	0	96	2
CNSCL	113	0	2	0	96	1
CNSCL	113	96	1	0	96	0
CNSCL	113	192	0	0	96	7
CNSCL	113	288	7	0	96	6
NMHLD	114	0	0	192
NMTAP	114	192	7
NMTAP	114	288	1
NMTAP	114	288	6
NMTAP	115	0	1
NMTAP	115	32	1
NMTAP	115	64	3
NMTAP	115	96	2
NMTAP	115	128	4
NMTAP	115	160	3
NMTAP	115	192	5
NMTAP	115	224	5
NMTAP	115	256	3
NMTAP	115	288	4
NMTAP	115	320	2
NMTAP	115	352	3
NMTAP	116	0	1
NMTAP	116	32	1
NMTAP	116	64	3
NMTAP	116	96	2
NMTAP	116	128	4
NMTAP	116	160	3
NMTAP	116	192	6
NMTAP	116	224	6
NMTAP	116	256	3
NMSTR	116	288	4
NMSI_	116	288	4	96	32	7
NMTAP	116	320	3
NMTAP	116	352	5
BRSTR	117	0	4
NMSUL	117	0	4	96	192	0
NMSUR	117	0	4	96	240	7
BRSTR	118	0	1
NMSI_	118	0	1	96	48	4
BRTAP	118	0	7
NMSTR	118	96	6
NMSCL	118	96	6	96	48	3
NMTAP	118	192	3
NMTAP	118	216	2
NMTAP	118	240	1
NMTAP	118	264	0
NMTAP	118	288	7
NMTAP	118	312	6
NMTAP	118	336	5
NMTAP	118	360	4
BRSTR	119	0	6
NMSI_	119	0	6	96	48	3
NMSTR	119	96	1
NMSCR	119	96	1	96	48	4
NMTAP	119	192	4
NMTAP	119	216	5
NMTAP	119	240	6
NMTAP	119	264	7
NMTAP	119	288	0
NMTAP	119	312	1
NMTAP	119	336	2
NMTAP	119	360	3
NMHLD	120	0	4	48
NMTAP	120	48	7
NMTAP	120	72	0
NMTAP	120	96	1
NMTAP	120	120	2
NMTAP	120	144	3
NMTAP	120	168	4
NMTAP	120	192	0
NMTAP	120	216	1
NMTAP	120	240	2
NMTAP	120	264	3
NMTAP	120	288	0
NMTAP	120	312	7
NMHLD	120	336	6	96
NMTAP	121	48	7
NMTAP	121	96	7
NMTAP	121	192	2
NMTAP	121	192	4
NMTAP	121	240	2
NMTAP	121	240	4
BRSTR	121	336	1
NMSI_	121	336	1	96	48	5
BRTAP	121	336	5
NMTAP	122	48	7
NMHLD	122	96	7	96
NMTAP	122	192	5
NMTAP	122	216	4
NMTAP	122	240	3
NMTAP	122	264	2
NMTAP	122	288	1
NMTAP	122	312	0
NMSTR	122	336	6
NMSI_	122	336	6	96	48	2
NMTAP	122	336	7
NMTAP	123	48	0
NMHLD	123	96	0	96
NMTAP	123	192	2
NMTAP	123	216	3
NMTAP	123	240	4
NMTAP	123	264	5
NMTAP	123	288	6
NMTAP	123	312	7
NMTAP	123	336	0
NMHLD	123	336	1	96
NMTAP	124	48	7
NMTAP	124	72	6
NMTAP	124	96	5
NMTAP	124	120	4
NMTAP	124	144	3
NMTAP	124	168	2
NMTAP	124	192	1
NMTAP	124	216	0
NMTAP	124	240	3
NMTAP	124	240	7
NMTAP	124	264	2
NMTAP	124	264	6
NMTAP	124	288	1
NMTAP	124	288	5
NMTAP	124	312	0
NMTAP	124	312	4
NMHLD	124	336	3	96
NMTAP	124	336	7
NMTAP	125	48	0
NMSTR	125	96	0
NMSUR	125	96	0	96	96	5
NMSLR	125	96	0	96	96	5
NMTAP	125	144	0
NMTAP	126	0	6
NMTAP	126	24	4
NMTAP	126	48	6
NMTAP	126	96	3
NMTAP	126	144	2
NMTAP	126	192	1
NMTAP	126	216	3
NMTAP	126	240	1
NMTAP	126	288	4
NMTAP	126	336	5
NMTAP	127	0	6
NMTAP	127	24	7
NMTAP	127	48	6
NMTAP	127	72	7
NMTAP	127	96	5
NMTAP	127	144	5
NMTAP	127	192	1
NMTAP	127	216	0
NMTAP	127	240	1
NMTAP	127	264	0
BRTAP	127	288	2
BRTAP	127	336	2
NMTAP	128	48	1
NMTAP	128	72	3
NMTAP	128	96	1
NMTAP	128	120	3
NMTAP	128	144	1
NMTAP	128	192	6
NMTAP	128	216	4
NMTAP	128	240	6
NMTAP	128	264	4
NMTAP	128	288	6
NMHLD	128	336	3	96
NMTAP	128	336	7
NMTTP	129	48	7	A	0	M1
NMTTP	129	72	7	E	0	M1
NMTTP	129	96	6	E	0	M1
NMTTP	129	120	5	A	0	M1
NMTTP	129	144	0	A	0	M1
NMTTP	129	168	0	B	0	M1
NMTTP	129	192	0	C	0	M1
NMTTP	129	216	4	B	0	M1
NMTTP	129	240	1	A	0	M1
NMTTP	129	264	2	E	0	M1
NMTTP	129	288	3	E	0	M1
NMTTP	129	312	3	A	0	M1
NMHLD	129	336	5	144
BRSTR	130	96	6
NMSI_	130	96	6	96	48	3
NMSTR	130	144	0
NMSI_	130	144	0	96	48	2
NMTAP	130	192	6
NMTAP	130	240	0
NMTAP	130	336	1
NMTAP	130	336	4
NMTAP	131	48	6
NMTAP	131	72	4
NMTAP	131	96	5
NMTAP	131	144	4
NMTAP	131	144	5
NMTAP	131	192	3
NMTAP	131	192	6
NMSTR	131	240	3
NMSCL	131	240	3	96	48	0
NMHLD	131	240	6	96
BRTAP	131	336	3
NMTAP	132	48	7
NMSTR	132	96	7
NMSI_	132	96	7	96	48	5
NMSTR	132	144	7
NMSI_	132	144	7	96	48	1
NMSTR	132	192	7
NMSI_	132	192	7	96	48	4
NMSTR	132	240	7
NMSI_	132	240	7	96	48	2
NMSTR	132	288	7
NMSF_	132	288	7	96	192	3
NMTAP	133	288	1
NMTAP	133	288	6
NMSTR	134	0	0
BRSI_	134	0	0	96	48	6
NMSTR	134	96	5
BRSI_	134	96	5	96	48	1
NMHLD	134	192	4	48
NMTAP	134	288	0
NMTAP	134	288	4
NMTAP	134	312	3
NMTAP	134	312	7
NMTAP	134	336	2
NMTAP	134	336	6
NMTAP	134	360	1
NMTAP	134	360	5
NMTAP	135	0	0
NMSTR	135	0	4
BRSI_	135	0	4	96	48	0
NMSTR	135	96	2
BRSI_	135	96	2	96	48	6
NMHLD	135	192	3	48
NMTAP	135	288	3
NMTAP	135	288	7
NMTAP	135	312	0
NMTAP	135	312	4
NMTAP	135	336	1
NMTAP	135	336	5
NMTAP	135	360	2
NMTAP	135	360	6
NMTAP	136	0	3
NMSTR	136	0	7
BRSI_	136	0	7	96	48	3
NMTAP	136	96	2
NMTAP	136	192	1
NMTAP	136	192	5
NMTAP	136	240	1
NMTAP	136	240	5
NMTAP	136	288	0
NMTAP	136	288	6
BRTAP	137	0	6
BRTAP	137	0	7
NMTAP	137	16	0
NMTAP	137	16	5
NMTAP	137	32	1
NMTAP	137	32	4
NMHLD	137	48	2	48
NMHLD	137	48	3	48
BRTAP	137	144	0
BRTAP	137	144	1
NMTAP	137	160	2
NMTAP	137	160	7
NMTAP	137	176	3
NMTAP	137	176	6
NMHLD	137	192	4	48
NMHLD	137	192	5	48
NMTAP	137	288	3
NMTAP	137	288	6
BRTAP	138	0	0
BRTAP	138	0	7
BRTAP	138	96	0
NMTAP	138	120	1
NMTAP	138	144	2
NMTAP	138	168	3
NMTAP	138	192	6
NMTAP	138	216	7
NMTAP	138	240	0
NMTAP	138	264	1
NMTAP	138	288	4
NMTAP	138	312	5
NMTAP	138	336	6
NMTAP	138	360	7
NMTAP	139	0	2
NMTAP	139	24	3
NMTAP	139	48	4
NMTAP	139	72	5
NMTAP	139	96	0
NMTAP	139	120	1
NMTAP	139	144	2
NMTAP	139	168	3
NMTAP	139	192	7
NMTAP	139	288	1
NMTAP	139	288	5
BRHLD	140	0	2	12
NMHLD	140	24	4	12
NMHLD	140	48	2	12
NMHLD	140	72	4	12
NMHLD	140	96	3	12
NMHLD	140	120	5	12
NMHLD	140	144	3	12
NMHLD	140	168	5	12
NMHLD	140	192	2	12
NMHLD	140	216	6	12
NMHLD	140	240	2	12
NMHLD	140	264	6	12
NMHLD	140	288	1	12
NMHLD	140	312	7	12
NMHLD	140	336	1	12
NMHLD	140	360	7	12
NMTTP	141	0	2	B	1	M1
NMTTP	141	0	2	E	0	M1
NMTTP	141	0	3	E	0	M1
NMTAP	141	192	6
NMTAP	141	240	7
NMTAP	141	288	0
BRTAP	142	0	1
BRTAP	142	0	3
NMTAP	142	48	4
NMTAP	142	96	4
BRTAP	142	144	3
BRTAP	142	144	5
NMTAP	142	192	2
NMTAP	142	240	2
BRTAP	142	288	1
BRTAP	142	288	3
NMTAP	142	336	0
NMTAP	143	0	0
BRTAP	143	48	5
BRTAP	143	48	7
NMTAP	143	96	6
NMTAP	143	144	6
BRTAP	143	192	0
BRTAP	143	192	7
BRTAP	143	288	2
BRTAP	143	288	5
NMTAP	144	0	1
BRHLD	144	0	6	0
NMTAP	144	24	2
NMTAP	144	48	3
NMHLD	144	48	6	0
NMTAP	144	72	4
NMTAP	144	96	5
NMTAP	144	120	6
BRHLD	144	144	4	0
NMTAP	144	144	7
NMTAP	144	168	0
NMTAP	144	192	1
NMHLD	144	192	4	0
NMTAP	144	216	2
NMTAP	144	240	3
NMTAP	144	264	4
BRHLD	144	288	2	0
NMTAP	144	288	5
NMTAP	144	312	6
NMHLD	144	336	2	0
NMTAP	144	336	7
NMTAP	144	360	0
NMTAP	145	0	1
NMTAP	145	24	2
NMTAP	145	48	3
BRHLD	145	48	7	0
NMHLD	145	96	3	96
NMHLD	145	96	7	0
NMTTP	145	192	6	D	0	M1
NMTTP	145	204	5	E	0	M1
NMTTP	145	204	5	D	0	M1
NMTTP	145	216	4	E	0	M1
NMTTP	145	216	4	D	0	M1
NMTTP	145	228	3	E	0	M1
NMTTP	145	228	3	D	0	M1
NMTTP	145	240	2	E	0	M1
NMTTP	145	240	2	D	0	M1
NMTTP	145	252	1	E	0	M1
NMTTP	145	252	1	D	0	M1
NMTTP	145	264	0	E	0	M1
NMTTP	145	264	0	D	0	M1
NMTTP	145	276	7	E	0	M1
NMTTP	145	276	7	D	0	M1
NMTTP	145	288	5	A	0	M1
NMTTP	145	288	6	E	0	M1
NMTTP	145	300	4	A	0	M1
NMTTP	145	300	5	E	0	M1
NMTTP	145	312	3	A	0	M1
NMTTP	145	312	4	E	0	M1
NMTTP	145	324	2	A	0	M1
NMTTP	145	324	3	E	0	M1
NMTTP	145	336	1	A	0	M1
NMTTP	145	336	2	E	0	M1
NMTTP	145	348	0	A	0	M1
NMTTP	145	348	1	E	0	M1
NMTTP	145	360	0	E	0	M1
NMTTP	145	360	7	A	0	M1
NMTTP	145	372	6	A	0	M1
NMTTP	145	372	7	E	0	M1
NMTTP	146	0	0	C	1	M1
NMTTP	146	0	5	E	0	M1
NMTTP	146	0	5	A	0	M1
NMTTP	146	0	5	D	0	M1
NMTTP	146	0	6	E	0	M1
NMTTP	146	0	6	D	0	M1
NMHLD	146	192	6	32
NMHLD	146	192	7	32
NMHLD	146	256	6	32
NMHLD	146	256	7	32
NMHLD	146	320	6	32
NMHLD	146	320	7	32
NMHLD	147	0	0	32
NMHLD	147	0	5	32
NMHLD	147	64	1	32
NMHLD	147	64	4	32
NMHLD	147	128	2	32
NMHLD	147	128	3	32
NMHLD	147	192	1	32
NMHLD	147	192	2	32
NMHLD	147	256	0	32
NMHLD	147	256	1	32
NMHLD	147	320	0	32
NMHLD	147	320	7	32
BRHLD	148	0	0	0
BRTAP	148	0	7
NMTTP	148	16	0	B	0	M1
NMTTP	148	32	0	C	0	M1
NMTTP	148	48	4	B	0	M1
EXHLD	148	64	4	320
NMHLD	149	0	3	384
NMHLD	150	0	7	1524
NMTTP	151	288	4	A	0	M1
NMTTP	151	300	4	D	0	M1
NMTTP	151	312	3	A	0	M1
NMTTP	151	324	3	D	0	M1
NMTTP	151	336	2	A	0	M1
NMTTP	151	348	2	D	0	M1
NMTTP	151	360	1	A	0	M1
NMTTP	151	372	1	D	0	M1
EXHLD	152	0	0	744
NMTHO	154	0	0	0	C	0	M1
NMTTP	154	0	1	B	0	M1
NMTTP	154	0	1	A	0	M1
NMTTP	154	0	2	B	0	M1
NMTTP	154	0	2	E	0	M1
NMTTP	154	0	2	A	0	M1
NMTTP	154	0	2	D	0	M1
NMTTP	154	0	5	B	0	M1
NMTTP	154	0	5	A	0	M1
NMTTP	154	0	6	B	0	M1
NMTTP	154	0	6	E	0	M1
NMTTP	154	0	6	A	0	M1
NMTTP	154	0	6	D	0	M1

T_REC_TAP	720
T_REC_BRK	68
T_REC_XTP	0
T_REC_BXX	0
T_REC_HLD	131
T_REC_XHO	2
T_REC_BHO	10
T_REC_BXH	0
T_REC_STR	111
T_REC_BST	21
T_REC_XST	0
T_REC_XBS	0
T_REC_TTP	115
T_REC_THO	4
T_REC_SLD	116
T_REC_BSL	24
T_REC_ALL	1322
T_NUM_TAP	946
T_NUM_BRK	123
T_NUM_HLD	137
T_NUM_SLD	116
T_NUM_ALL	1322
T_JUDGE_TAP	1035
T_JUDGE_HLD	265
T_JUDGE_SLD	140
T_JUDGE_ALL	1440
TTM_EACHPAIRS	199
TTM_SCR_TAP	473000
TTM_SCR_BRK	319800
TTM_SCR_HLD	137000
TTM_SCR_SLD	174000
TTM_SCR_ALL	1103800
TTM_SCR_S	1058800
TTM_SCR_SS	1091500
TTM_RAT_ACV	10112

