VERSION	0.00.00	1.05.00
FES_MODE	0
BPM_DEF	205.000	244.000	266.000	 22.000
MET_DEF	4	4
RESOLUTION	384
CLK_DEF	384
COMPATIBLE_CODE	MA2

BPM	0	0	205.000
BPM	7	0	180.000
BPM	7	192	166.000
BPM	8	0	159.000
BPM	8	192	132.000
BPM	9	0	111.000
BPM	9	192	 77.000
BPM	9	288	 22.000
BPM	10	0	244.000
BPM	106	0	225.000
BPM	107	0	214.000
BPM	108	0	205.000
BPM	114	192	215.000
BPM	115	0	200.000
BPM	116	0	181.000
BPM	117	0	123.000
BPM	117	288	 78.000
BPM	118	0	266.000
BPM	146	0	246.000
BPM	148	0	205.000
MET	0	0	4	4

NMTAP	1	192	2
NMTAP	1	240	2
NMTAP	1	288	3
NMTAP	2	0	1
NMTAP	2	0	4
NMTTP	2	192	1	E	0	M1
NMTTP	2	256	2	E	0	M1
NMTTP	2	320	3	E	0	M1
NMTTP	3	0	4	E	0	M1
NMTAP	3	192	5
NMTAP	3	240	5
NMTAP	3	288	4
NMTAP	4	0	3
NMTAP	4	0	6
NMTTP	4	192	7	E	0	M1
NMTTP	4	256	6	E	0	M1
NMTTP	4	320	5	E	0	M1
NMTTP	5	0	4	E	0	M1
NMTAP	5	192	3
NMTAP	5	192	4
NMTAP	6	0	2
NMSTR	6	0	5
NMSUL	6	0	5	96	288	3
CNSCL	7	0	3	0	672	4
NMTHO	9	0	0	288	C	0	M1
NMHLD	9	288	7	96
BXTAP	10	0	0
NMTAP	10	96	0
NMTAP	10	96	7
NMTAP	10	192	1
NMTAP	10	240	1
NMTAP	10	336	2
NMTAP	10	336	3
NMTAP	11	48	1
NMTAP	11	144	0
NMTAP	11	144	7
NMTAP	11	240	6
NMTAP	11	336	4
NMTAP	11	336	5
NMTAP	12	48	3
NMTAP	12	96	3
NMTAP	12	192	6
NMTAP	12	240	6
NMTAP	12	336	4
NMTAP	12	336	5
NMTAP	13	48	3
NMTAP	13	48	4
NMTAP	13	144	2
NMSTR	13	144	3
NMSI_	13	144	3	96	96	7
NMTAP	13	336	0
NMTAP	14	48	6
NMHLD	14	96	6	96
NMTAP	14	192	7
NMTAP	14	240	7
NMTAP	14	336	0
NMTAP	14	336	7
NMTAP	15	48	1
NMHLD	15	96	1	96
NMTAP	15	192	0
NMTAP	15	240	0
NMTAP	15	336	0
NMTAP	15	336	7
NMTAP	16	48	6
NMHLD	16	96	6	96
NMTAP	16	192	7
NMTAP	16	240	7
NMTAP	16	336	0
NMTAP	16	336	7
NMTAP	17	48	6
EXSTR	17	96	6
NMSV_	17	96	6	96	96	0
NMTAP	18	0	1
NMTAP	18	48	1
NMTAP	18	96	0
NMTAP	18	192	2
NMTAP	18	240	2
NMTAP	18	288	3
NMTAP	19	0	5
NMTAP	19	48	5
NMTAP	19	96	4
NMTAP	19	192	6
NMTAP	19	192	7
NMTAP	19	288	5
EXHLD	19	336	5	96
NMTAP	20	48	7
NMTAP	20	96	7
NMTAP	20	192	0
NMTAP	20	240	0
EXTAP	20	336	1
EXTAP	20	336	6
EXTAP	21	48	0
EXTAP	21	48	7
EXTAP	21	144	6
EXTAP	21	144	7
EXTAP	21	240	0
EXTAP	21	240	7
BXTAP	21	336	0
BXTAP	21	336	1
NMTAP	22	96	1
NMTAP	22	144	1
NMTAP	22	192	0
NMSTR	22	240	2
NMSCL	22	240	2	96	96	7
NMTAP	23	192	5
NMTAP	23	240	5
NMTAP	23	336	6
NMTAP	23	336	7
NMTAP	24	48	5
NMTAP	24	96	5
NMTAP	24	192	6
NMTAP	24	192	7
NMTAP	24	288	6
NMTAP	24	288	7
NMTAP	25	0	0
NMTAP	25	0	1
NMTAP	25	96	0
NMTAP	25	96	1
NMTAP	25	192	2
NMTAP	25	192	6
NMHLD	26	0	1	576
NMTTP	26	192	3	E	0	M1
NMTTP	27	0	2	E	0	M1
NMTTP	27	192	1	E	0	M1
NMHLD	28	0	6	576
NMTTP	28	192	7	E	0	M1
NMTTP	29	0	6	E	0	M1
NMTTP	29	192	5	E	0	M1
NMTAP	30	0	3
NMTAP	30	96	2
NMTAP	30	192	4
NMTAP	30	288	5
NMTAP	31	0	1
NMTAP	31	96	0
NMTAP	31	192	6
NMTAP	31	288	7
NMSTR	32	0	1
NMSXL	32	0	1	96	480	0
NMSTR	32	0	6
NMSXR	32	0	6	96	480	7
NMHLD	34	0	1	96
NMTAP	34	96	3
NMHLD	34	192	6	96
NMTAP	34	288	4
NMTAP	35	0	0
NMTAP	35	0	7
BRTAP	35	96	0
BRTAP	35	96	7
BRTAP	36	0	2
BRTAP	36	0	4
NMTAP	36	96	6
NMTAP	36	96	7
NMTAP	36	144	6
NMTAP	36	144	7
NMTAP	36	240	3
NMTAP	36	240	5
NMTAP	36	336	0
NMTAP	36	336	1
NMTAP	37	48	3
NMTAP	37	96	3
NMTAP	37	192	2
NMTAP	37	192	4
NMTAP	37	288	2
NMTAP	37	288	4
BRTAP	38	0	3
BRTAP	38	0	5
NMTAP	38	96	0
NMTAP	38	96	1
NMTAP	38	144	0
NMTAP	38	144	1
NMTAP	38	240	2
NMTAP	38	240	4
NMTAP	38	336	6
NMTAP	38	336	7
NMTAP	39	48	4
NMTAP	39	96	4
BXTAP	39	192	3
BXTAP	39	192	5
NMHLD	40	0	2	96
NMTAP	40	96	0
NMHLD	40	144	0	96
NMTAP	40	240	7
NMTAP	40	288	7
NMHLD	41	0	5	96
NMTAP	41	96	7
NMHLD	41	144	7	96
NMTAP	41	240	0
NMTAP	41	288	0
NMTAP	42	0	1
NMTAP	42	48	1
NMTAP	42	96	0
NMTAP	42	96	2
NMTAP	42	192	6
NMTAP	42	240	6
NMTAP	42	288	5
NMTAP	42	288	7
BXHLD	43	0	0	96
BXHLD	43	0	4	96
BXHLD	43	192	2	96
BXHLD	43	192	6	96
NMTAP	44	0	3
NMTAP	44	0	5
NMTAP	44	96	4
NMTAP	44	144	4
NMHLD	44	240	5	96
NMHLD	44	336	7	96
NMTAP	45	48	6
NMTAP	45	96	6
NMTAP	45	192	0
NMTAP	45	192	1
NMSTR	45	288	2
NMSI_	45	288	2	96	48	5
NMTAP	45	288	7
NMSTR	46	48	6
NMSI_	46	48	6	96	48	1
NMSTR	46	192	3
NMSCL	46	192	3	96	384	4
EXTAP	46	288	0
EXTAP	46	336	0
NMTTP	48	0	0	C	0	M1
EXTAP	48	192	0
EXTAP	48	192	6
EXTAP	48	256	0
EXTAP	48	256	6
EXTAP	48	320	0
EXTAP	48	320	6
EXTAP	49	0	0
EXTAP	49	0	6
NMTAP	49	192	2
NMTAP	49	192	4
NMTAP	50	0	1
NMTAP	50	48	1
NMTAP	50	96	3
NMTAP	50	144	3
NMTAP	50	192	2
NMTAP	50	240	2
NMTAP	50	288	4
NMTAP	50	336	4
NMTAP	51	0	3
NMTAP	51	48	3
NMTAP	51	96	4
EXTAP	51	192	1
EXTAP	51	192	6
BRTAP	52	0	0
BRTAP	52	0	7
NMTAP	52	64	6
NMTAP	52	128	5
BRTAP	52	192	3
BRTAP	52	192	4
NMTAP	52	256	2
NMTAP	52	320	1
BRSTR	53	0	0
NMSXL	53	0	0	96	1056	3
BRSTR	53	0	7
NMSXR	53	0	7	96	1056	4
NMTTP	57	0	4	D	0	M1
NMTTP	57	96	5	D	0	M1
NMTTP	57	192	6	D	0	M1
NMTTP	57	288	7	D	0	M1
NMTTP	58	0	0	D	0	M1
NMTTP	58	96	1	D	0	M1
NMTTP	58	192	2	D	0	M1
NMTTP	58	288	3	D	0	M1
NMTTP	59	0	4	B	0	M1
NMTTP	59	0	5	E	0	M1
NMTTP	59	96	6	B	0	M1
NMTTP	59	96	7	E	0	M1
NMTTP	59	192	0	B	0	M1
NMTTP	59	192	1	E	0	M1
NMTTP	59	288	2	B	0	M1
NMTTP	59	288	3	E	0	M1
NMTTP	60	0	0	C	0	M1
EXHLD	61	0	7	96
EXHLD	62	0	7	96
EXHLD	63	0	0	96
EXHLD	64	0	0	96
NMTAP	65	0	1
NMTAP	65	96	0
NMTAP	65	96	1
NMTAP	65	192	6
NMTAP	65	288	6
NMTAP	65	288	7
NMTAP	66	0	1
NMTAP	66	48	1
EXTAP	66	96	0
NMTAP	66	192	6
NMTAP	66	240	6
EXTAP	66	288	7
NMTHO	67	0	0	384	C	0	M1
NMTTP	68	0	1	B	0	M1
NMTTP	68	0	2	B	0	M1
NMTTP	68	0	5	B	0	M1
NMTTP	68	0	6	B	0	M1
NMTAP	68	192	0
NMTAP	68	192	7
NMTAP	69	0	6
NMTAP	69	0	7
NMTAP	69	96	3
NMTAP	69	96	4
NMTAP	69	192	0
NMTAP	69	192	1
NMTAP	69	288	0
NMTAP	69	288	7
NMTAP	69	336	0
NMTAP	69	336	7
NMTAP	70	48	6
NMTAP	70	96	6
NMTAP	70	144	6
NMTAP	70	192	6
NMTAP	70	288	5
NMTAP	70	288	7
NMTAP	70	336	5
NMTAP	70	336	7
NMTAP	71	48	1
NMTAP	71	96	1
NMTAP	71	144	1
NMTAP	71	192	1
NMTAP	71	288	0
NMTAP	71	288	2
NMTAP	71	336	0
NMTAP	71	336	2
EXTAP	72	48	3
EXTAP	72	48	4
EXTAP	72	96	3
EXTAP	72	96	4
NMTAP	72	192	3
NMTAP	72	216	4
NMTAP	72	240	3
NMTAP	72	264	4
BRTAP	72	288	3
NMTAP	73	0	5
NMTAP	73	48	5
NMTAP	73	96	4
NMTAP	73	192	6
NMTAP	73	240	6
NMTAP	73	288	7
NMTAP	74	0	1
NMTAP	74	48	1
NMTAP	74	96	0
NMTAP	74	192	2
NMTAP	74	240	2
NMTAP	74	288	3
NMTAP	75	0	1
NMTAP	75	0	6
NMTAP	75	96	0
NMTAP	75	120	7
NMTAP	75	144	0
NMTAP	75	168	7
NMTAP	75	192	0
NMTAP	75	216	7
NMTAP	75	240	0
NMTAP	75	264	7
NMTAP	75	288	0
NMTAP	76	0	1
NMTAP	76	24	6
NMTAP	76	48	1
NMTAP	76	72	6
NMTAP	76	96	1
NMTAP	76	120	6
NMTAP	76	144	1
NMTAP	76	168	6
NMTAP	76	192	1
NMTAP	76	216	6
NMTAP	76	240	1
NMTAP	76	264	6
NMSTR	76	288	1
NMSI_	76	288	1	96	48	5
NMTAP	78	0	4
NMTAP	78	0	5
NMTAP	78	96	2
NMTAP	78	96	3
NMTAP	78	192	0
NMTAP	78	192	1
NMSTR	78	240	0
NMSUR	78	240	0	96	144	7
NMSTR	78	240	1
NMSCR	78	240	1	96	144	6
NMTAP	79	192	0
NMTAP	79	192	5
NMTAP	79	288	0
NMTAP	79	288	5
NMTAP	80	0	6
NMTAP	80	0	7
NMTAP	80	96	0
NMTAP	80	96	1
NMTAP	80	192	2
NMTAP	80	192	3
NMSTR	80	240	2
NMSCL	80	240	2	96	144	5
NMSTR	80	240	3
NMSUL	80	240	3	96	144	4
NMTAP	81	192	3
NMTAP	81	192	6
NMTAP	81	288	3
NMTAP	81	288	6
NMTAP	82	0	4
NMTAP	82	0	5
NMTAP	82	96	6
NMTAP	82	96	7
NMTAP	82	192	6
NMHLD	82	240	6	96
NMHLD	82	336	4	96
NMTAP	83	48	3
NMTAP	83	96	3
NMTAP	83	192	0
NMTAP	83	192	2
NMTAP	83	288	1
NMHLD	83	336	1	96
NMTAP	84	48	3
NMTAP	84	96	3
NMTAP	84	192	2
NMTAP	84	192	4
NMTAP	84	288	2
NMTAP	84	288	4
NMTAP	85	0	3
NMTAP	85	0	5
NMTAP	85	96	2
NMTAP	85	96	6
NMTAP	85	144	2
NMTAP	85	144	6
NMTAP	85	240	0
NMTAP	85	240	4
NMTAP	85	288	0
NMTAP	85	288	4
NMTAP	86	0	2
NMTAP	86	0	3
NMTAP	86	96	4
NMTAP	86	96	5
NMTAP	86	192	6
NMTAP	86	192	7
NMSTR	86	240	6
NMSCL	86	240	6	96	144	1
NMSTR	86	240	7
NMSUL	86	240	7	96	144	0
NMTAP	87	192	2
NMTAP	87	192	7
NMTAP	87	288	2
NMTAP	87	288	7
NMTAP	88	0	0
NMTAP	88	0	1
NMTAP	88	96	6
NMTAP	88	96	7
NMTAP	88	192	4
NMTAP	88	192	5
NMSTR	88	240	4
NMSUR	88	240	4	96	144	3
NMSTR	88	240	5
NMSCR	88	240	5	96	144	2
NMTAP	89	192	1
NMTAP	89	192	4
NMTAP	89	288	1
NMTAP	89	288	4
NMTAP	90	0	2
NMTAP	90	0	3
NMTAP	90	96	4
NMTAP	90	96	5
NMTAP	90	192	0
NMTAP	90	192	7
NMTAP	90	240	0
NMTAP	90	240	7
NMTAP	90	336	2
NMTAP	90	336	5
NMSTR	91	96	1
NMSI_	91	96	1	96	48	3
NMSTR	91	192	7
NMSI_	91	192	7	96	48	5
NMSTR	91	288	0
NMSI_	91	288	0	96	48	4
NMTAP	92	0	7
NMTAP	92	96	6
NMTAP	92	192	3
NMTAP	92	192	5
NMTAP	92	288	1
NMTAP	92	288	4
NMTAP	93	0	2
NMTAP	93	48	2
NMTAP	93	96	0
NMTAP	93	144	0
NMTAP	93	192	7
NMTAP	93	240	7
NMTAP	93	288	5
BRTAP	94	0	2
BRTAP	94	0	4
BRTAP	94	48	2
BRTAP	94	48	4
BRTAP	94	96	2
BRTAP	94	96	4
NMTAP	95	0	1
NMTAP	95	0	7
NMTAP	95	96	1
NMTAP	95	96	7
NMTAP	95	192	5
NMTAP	95	192	6
NMTAP	95	288	2
NMTAP	95	288	4
NMTAP	96	0	0
NMTAP	96	0	1
NMTAP	96	96	6
NMTAP	96	96	7
NMTAP	96	192	1
NMTAP	96	192	5
NMTAP	96	240	1
NMTAP	96	240	5
NMTAP	96	288	1
NMTAP	96	288	5
NMTAP	97	0	0
NMTAP	97	0	6
NMTAP	97	96	0
NMTAP	97	96	6
NMTAP	97	192	1
NMTAP	97	192	2
NMTAP	97	288	3
NMTAP	97	288	5
NMTAP	98	0	6
NMTAP	98	0	7
NMTAP	98	96	0
NMTAP	98	96	1
NMTAP	98	192	2
NMTAP	98	192	6
NMTAP	98	240	2
NMTAP	98	240	6
NMTAP	98	288	2
NMTAP	98	288	6
NMSTR	99	0	5
NMSI_	99	0	5	96	48	0
NMSTR	99	96	1
NMSI_	99	96	1	96	48	4
NMSTR	99	192	7
NMSCL	99	192	7	96	48	4
NMTAP	99	288	3
NMSTR	100	0	2
NMSI_	100	0	2	96	48	7
NMSTR	100	96	6
NMSI_	100	96	6	96	48	3
NMSTR	100	192	0
NMSCR	100	192	0	96	48	3
NMTAP	100	288	4
NMTAP	101	0	5
NMTAP	101	48	5
NMTAP	101	96	3
NMTAP	101	144	3
NMTAP	101	192	4
NMTAP	101	240	4
NMSTR	101	288	2
NMSI_	101	288	2	96	48	0
NMSI_	101	288	2	96	48	7
NMSTR	102	96	6
NMSI_	102	96	6	96	48	3
NMSI_	102	96	6	96	48	4
EXTAP	102	288	2
NMTAP	103	0	1
NMTAP	103	0	3
NMTAP	103	96	2
NMHLD	103	144	2	96
NMHLD	103	240	0	96
NMHLD	103	336	7	96
NMTAP	104	48	5
NMTAP	104	96	5
NMTAP	104	192	6
NMTAP	104	192	7
NMTAP	104	288	0
NMTAP	104	288	5
NMTAP	105	0	1
NMTAP	105	0	4
NMTAP	105	96	2
NMTAP	105	144	2
NMTAP	105	240	3
NMTAP	105	240	4
NMTAP	105	336	2
NMTAP	105	336	5
NMTAP	106	48	3
NMTAP	106	48	4
NMTAP	106	96	3
NMTAP	106	96	4
NMTAP	106	144	3
NMTAP	106	144	4
NMTAP	106	192	3
NMTAP	106	192	4
NMTAP	106	240	3
NMTAP	106	240	4
NMTAP	106	288	3
NMTAP	106	288	4
NMTTP	107	0	3	E	0	M1
NMTTP	107	24	2	E	0	M1
NMTTP	107	48	1	E	0	M1
NMTTP	107	72	0	E	0	M1
NMTTP	107	96	7	E	0	M1
NMTTP	107	120	6	E	0	M1
NMTTP	107	144	5	E	0	M1
NMTTP	107	168	4	E	0	M1
NMTTP	107	192	3	A	0	M1
NMTTP	107	216	2	A	0	M1
NMTTP	107	240	1	A	0	M1
NMTTP	107	264	0	A	0	M1
NMTTP	107	288	7	A	0	M1
NMTTP	107	312	6	A	0	M1
NMTTP	107	336	5	A	0	M1
NMTTP	107	360	4	A	0	M1
NMTTP	108	0	0	C	1	M1
NMTTP	108	0	3	A	0	M1
NMTAP	109	192	3
NMTAP	109	288	3
NMSTR	110	0	2
NMSCR	110	0	2	96	288	5
NMTAP	110	0	4
NMTAP	111	192	6
NMTAP	111	288	6
NMSTR	112	0	6
NMSI_	112	0	6	96	96	4
NMSTR	112	0	7
NMSI_	112	0	7	96	96	1
NMSTR	113	0	2
NMSI_	113	0	2	96	96	0
NMSTR	113	0	3
NMSI_	113	0	3	96	96	5
EXTAP	114	0	1
EXTAP	114	0	6
NMTAP	114	192	0
NMTAP	114	192	7
NMTAP	114	288	1
NMTAP	114	288	6
NMTAP	115	0	2
NMTAP	115	32	4
NMTAP	115	64	2
NMTAP	115	96	4
NMTAP	115	128	2
NMTAP	115	160	4
NMTAP	115	192	2
NMTAP	115	224	4
NMTAP	115	256	2
NMTAP	115	288	4
NMTAP	115	320	2
NMTAP	115	352	4
NMTAP	116	0	3
NMTAP	116	32	5
NMTAP	116	64	3
NMTAP	116	96	5
NMTAP	116	128	3
NMTAP	116	160	5
NMTAP	116	192	3
NMTAP	116	224	5
NMTAP	116	256	3
NMSTR	116	288	5
NMSF_	116	288	5	96	192	1
NMTAP	116	320	3
NMSTR	118	0	1
NMSI_	118	0	1	96	48	4
NMSTR	118	96	7
NMSI_	118	96	7	96	48	3
NMTAP	118	192	0
NMTAP	118	240	0
NMSTR	118	336	1
NMSI_	118	336	1	96	48	4
NMSTR	118	336	5
NMSI_	118	336	5	96	48	0
NMSTR	119	144	2
NMSI_	119	144	2	96	48	7
NMSTR	119	144	6
NMSI_	119	144	6	96	48	3
NMTAP	119	336	1
NMTAP	119	336	5
NMTAP	120	48	3
NMHLD	120	96	3	96
NMTAP	120	192	1
NMTAP	120	240	1
NMTAP	120	336	0
NMTAP	120	336	2
NMTAP	121	48	6
NMHLD	121	96	6	96
NMTAP	121	192	0
NMTAP	121	240	0
BRSTR	121	336	5
NMSCL	121	336	5	96	48	3
BRSTR	121	336	7
NMSUL	121	336	7	96	48	3
NMTAP	122	192	2
NMTAP	122	192	4
NMTAP	122	240	2
NMTAP	122	240	4
BRSTR	122	336	1
NMSCL	122	336	1	96	48	7
BRSTR	122	336	3
NMSUL	122	336	3	96	48	7
NMTAP	123	192	0
NMTAP	123	192	6
NMTAP	123	240	0
NMTAP	123	240	6
NMHLD	123	336	5	144
NMTAP	124	48	7
NMTAP	124	96	7
NMTAP	124	192	3
NMTAP	124	192	4
NMTAP	124	240	3
NMTAP	124	240	4
NMHLD	124	336	2	96
NMTAP	125	48	0
NMSTR	125	96	0
NMSXR	125	96	0	96	96	7
NMTAP	126	0	1
NMTAP	126	48	1
NMTAP	126	96	0
NMTAP	126	144	2
NMTAP	126	192	6
NMTAP	126	240	6
NMTAP	126	288	7
NMTAP	126	336	5
NMTAP	127	0	2
NMTAP	127	48	2
NMTAP	127	96	3
NMTAP	127	144	1
NMTAP	127	192	4
NMTAP	127	240	4
NMTAP	127	288	3
NMTAP	127	288	5
NMTAP	128	0	6
NMTAP	128	48	6
NMTAP	128	96	7
NMTAP	128	144	5
NMTAP	128	192	1
NMTAP	128	240	1
NMTAP	128	288	0
NMTAP	128	336	2
NMTAP	129	0	5
NMTAP	129	48	5
NMTAP	129	96	4
NMTAP	129	144	6
NMTAP	129	192	3
NMSTR	129	240	3
NMSI_	129	240	3	96	48	7
NMTAP	130	96	6
NMTAP	130	144	6
NMTAP	130	192	7
NMTAP	130	240	5
NMHLD	130	336	2	144
NMHLD	130	336	4	144
NMTAP	131	192	3
NMTAP	131	192	5
NMSTR	131	240	3
BRSXR	131	240	3	96	432	0
NMSTR	131	240	5
BRSXL	131	240	5	96	432	0
NMTAP	133	192	0
NMTAP	133	192	7
NMTAP	134	0	1
NMTAP	134	48	1
NMTAP	134	96	7
NMTAP	134	144	3
NMTAP	134	192	6
NMTAP	134	240	6
NMTAP	134	288	0
NMTAP	134	336	4
NMTAP	135	0	2
NMTAP	135	48	2
NMTAP	135	96	0
NMTAP	135	192	3
NMTAP	135	192	6
NMTAP	136	0	5
NMTAP	136	48	5
NMTAP	136	96	3
NMTAP	136	144	7
NMTAP	136	192	2
NMTAP	136	240	2
NMTAP	136	288	4
NMTAP	136	336	0
NMTAP	137	0	6
NMTAP	137	48	6
NMTAP	137	96	4
NMTAP	137	192	2
NMTAP	137	192	7
BRTAP	138	0	0
BRTAP	138	0	1
NMTAP	138	96	2
NMTAP	138	96	3
NMTAP	138	192	4
NMTAP	138	192	5
NMTAP	138	288	6
NMTAP	138	288	7
NMTAP	139	0	0
NMTAP	139	0	1
NMTAP	139	96	2
NMTAP	139	96	3
NMTAP	139	192	1
NMTAP	139	192	5
NMTAP	139	288	1
NMTAP	139	288	5
EXTAP	140	0	2
NMTAP	140	24	4
NMTAP	140	48	2
NMTAP	140	72	4
NMTAP	140	96	2
EXTAP	140	192	5
NMTAP	140	216	3
NMTAP	140	240	5
NMTAP	140	264	3
NMTAP	140	288	5
BRTAP	141	0	2
BRTAP	141	0	6
NMTAP	141	192	3
NMTAP	141	240	3
NMTAP	141	288	4
NMTAP	142	0	2
NMTAP	142	0	5
NMTAP	142	96	3
NMSTR	142	144	3
NMSI_	142	144	3	96	48	7
NMTAP	142	240	6
NMSTR	142	288	6
NMSI_	142	288	6	96	48	3
NMTAP	143	0	1
NMSTR	143	48	1
NMSI_	143	48	1	96	48	4
NMTAP	143	144	7
NMTAP	143	192	7
EXTAP	143	288	3
EXTAP	143	288	6
NMTAP	144	0	0
NMTAP	144	0	2
NMTAP	144	48	0
NMTAP	144	48	2
NMTAP	144	144	5
NMTAP	144	144	7
NMTAP	144	192	5
NMTAP	144	192	7
NMTAP	144	288	3
NMTAP	144	288	4
NMTAP	144	336	3
NMTAP	144	336	4
NMTAP	145	48	1
NMTAP	145	48	6
NMTAP	145	96	1
NMTAP	145	96	6
EXTAP	145	192	0
NMTAP	145	216	1
NMTAP	145	240	2
NMTAP	145	264	3
EXTAP	145	288	7
NMTAP	145	312	6
NMTAP	145	336	5
NMTAP	145	360	4
BRTAP	146	0	0
BXTAP	146	192	1
BXTAP	146	192	7
NMTAP	146	256	1
NMTAP	146	256	7
NMTAP	146	320	1
NMTAP	146	320	7
BXTAP	147	0	2
BXTAP	147	0	6
NMTAP	147	64	2
NMTAP	147	64	6
NMTAP	147	128	2
NMTAP	147	128	6
BXTAP	147	192	3
BXTAP	147	192	5
NMTAP	147	256	3
NMTAP	147	256	5
NMTAP	147	320	3
NMTAP	147	320	5
BRHLD	148	0	4	384
BRTAP	148	0	6
BRHLD	149	0	2	384
BRSTR	150	0	0
BRSUR	150	0	0	96	480	1
CNSCR	151	192	1	0	192	7
NMTHO	152	0	0	768	C	1	M1
NMTTP	154	0	0	B	0	M1
NMTTP	154	0	0	E	0	M1
NMTTP	154	0	1	B	0	M1
NMTTP	154	0	1	E	0	M1
NMTTP	154	0	2	B	0	M1
NMTTP	154	0	2	E	0	M1
NMTTP	154	0	3	B	0	M1
NMTTP	154	0	3	E	0	M1
NMTTP	154	0	4	B	0	M1
NMTTP	154	0	4	E	0	M1
NMTTP	154	0	5	B	0	M1
NMTTP	154	0	5	E	0	M1
NMTTP	154	0	6	B	0	M1
NMTTP	154	0	6	E	0	M1
NMTTP	154	0	7	B	0	M1
NMTTP	154	0	7	E	0	M1

T_REC_TAP	588
T_REC_BRK	23
T_REC_XTP	35
T_REC_BXX	11
T_REC_HLD	26
T_REC_XHO	5
T_REC_BHO	2
T_REC_BXH	4
T_REC_STR	47
T_REC_BST	7
T_REC_XST	1
T_REC_XBS	0
T_REC_TTP	70
T_REC_THO	3
T_REC_SLD	54
T_REC_BSL	3
T_REC_ALL	879
T_NUM_TAP	741
T_NUM_BRK	50
T_NUM_HLD	34
T_NUM_SLD	54
T_NUM_ALL	879
T_JUDGE_TAP	782
T_JUDGE_HLD	111
T_JUDGE_SLD	57
T_JUDGE_ALL	950
TTM_EACHPAIRS	201
TTM_SCR_TAP	370500
TTM_SCR_BRK	130000
TTM_SCR_HLD	34000
TTM_SCR_SLD	81000
TTM_SCR_ALL	615500
TTM_SCR_S	592200
TTM_SCR_SS	610500
TTM_RAT_ACV	10081

