VERSION	0.00.00	1.05.00
FES_MODE	0
BPM_DEF	204.900	244.000	266.000	 22.000
MET_DEF	4	4
RESOLUTION	384
CLK_DEF	384
COMPATIBLE_CODE	MA2

BPM	0	0	204.900
BPM	7	0	180.000
BPM	7	192	166.000
BPM	8	0	159.000
BPM	8	192	132.000
BPM	9	0	111.000
BPM	9	192	 77.000
BPM	9	288	 22.000
BPM	10	0	244.000
BPM	106	0	225.000
BPM	107	0	214.000
BPM	108	0	205.000
BPM	114	192	215.000
BPM	115	0	200.000
BPM	116	0	181.000
BPM	117	0	123.000
BPM	117	288	 78.000
BPM	118	0	266.000
BPM	146	0	246.000
BPM	148	0	205.000
MET	0	0	4	4

NMTAP	2	0	2
NMTAP	2	96	2
NMTAP	2	192	2
NMTAP	3	0	3
NMTAP	3	96	3
NMTAP	3	192	3
NMTAP	4	0	4
NMTAP	4	96	4
NMTAP	4	192	4
NMTAP	5	0	5
NMTAP	5	96	5
NMTAP	5	192	5
NMSTR	6	0	3
NMSXR	6	0	3	96	672	0
NMSTR	6	0	4
NMSXL	6	0	4	96	672	7
EXHLD	9	0	0	288
EXHLD	9	0	7	288
EXTAP	10	0	6
EXTAP	10	96	6
EXTAP	10	192	6
EXTAP	10	192	7
NMTAP	11	0	5
NMTAP	11	96	5
NMTAP	11	192	4
NMTAP	11	192	5
NMTAP	12	0	2
NMTAP	12	96	2
NMTAP	12	192	2
NMTAP	12	192	3
NMTAP	13	0	0
NMTAP	13	0	1
NMTAP	13	96	0
NMTAP	13	96	1
NMTAP	13	192	0
NMTAP	13	192	1
NMTAP	14	0	1
NMTAP	14	96	1
NMTAP	14	192	0
NMTAP	14	192	1
NMTAP	15	0	2
NMTAP	15	96	2
NMTAP	15	192	2
NMTAP	15	192	3
NMTAP	16	0	5
NMTAP	16	96	5
NMTAP	16	192	4
NMTAP	16	192	5
NMTAP	17	0	6
NMTAP	17	0	7
NMTAP	17	96	6
NMTAP	17	96	7
NMTAP	17	192	6
NMTAP	17	192	7
NMTAP	18	0	5
NMTAP	18	96	5
NMTAP	18	192	6
NMTAP	18	288	6
NMTAP	19	0	7
NMTAP	19	96	7
NMTAP	19	192	0
NMTAP	19	192	1
NMTAP	20	0	2
NMTAP	20	96	2
NMTAP	20	192	1
NMTAP	20	288	1
NMTAP	21	0	0
NMTAP	21	96	0
NMTAP	21	192	6
NMTAP	21	192	7
NMTAP	22	0	6
NMTAP	22	96	6
NMTAP	22	192	5
NMTAP	22	288	5
NMTAP	23	0	4
NMTAP	23	96	4
NMTAP	23	192	2
NMTAP	23	192	3
NMTAP	24	0	1
NMTAP	24	96	1
NMTAP	24	192	2
NMTAP	24	288	2
NMTAP	25	0	3
NMTAP	25	96	3
NMTAP	25	192	4
NMTAP	25	192	5
NMHLD	26	0	5	192
NMHLD	26	192	4	192
NMHLD	27	0	3	192
NMTAP	27	192	2
NMHLD	28	0	2	192
NMHLD	28	192	3	192
NMHLD	29	0	4	192
NMTAP	29	192	5
NMHLD	30	0	6	192
NMHLD	30	192	5	192
NMHLD	31	0	4	192
NMTAP	31	192	3
NMHLD	32	0	1	192
NMHLD	32	192	2	192
NMHLD	33	0	3	192
NMTAP	33	192	4
NMHLD	34	0	3	384
NMHLD	34	0	4	384
NMTAP	36	0	2
NMTAP	36	96	2
NMTAP	36	192	2
NMTAP	36	288	2
NMTAP	36	288	3
NMTAP	37	0	1
NMTAP	37	96	1
NMTAP	37	192	1
NMTAP	37	288	0
NMTAP	37	288	1
NMTAP	38	0	7
NMTAP	38	96	7
NMTAP	38	192	7
NMTAP	38	288	6
NMTAP	38	288	7
NMTAP	39	0	4
NMTAP	39	0	5
NMTAP	39	96	4
NMTAP	39	96	5
NMTAP	39	192	3
NMTAP	39	192	6
NMTAP	40	0	5
NMTAP	40	96	5
NMTAP	40	192	4
NMTAP	40	192	5
NMTAP	40	288	4
NMTAP	40	288	5
NMTAP	41	0	6
NMTAP	41	96	6
NMTAP	41	192	6
NMTAP	41	192	7
NMTAP	41	288	6
NMTAP	41	288	7
NMTAP	42	0	0
NMTAP	42	96	0
NMTAP	42	192	0
NMTAP	42	192	1
NMTAP	42	288	0
NMTAP	42	288	1
NMTAP	43	0	2
NMTAP	43	0	3
NMTAP	43	96	2
NMTAP	43	96	3
NMTAP	43	192	1
NMTAP	43	192	4
NMTAP	44	0	2
NMTAP	44	96	2
NMTAP	44	192	0
NMTAP	44	192	1
NMTAP	44	288	0
NMTAP	44	288	1
NMTAP	45	0	7
NMTAP	45	96	7
NMTAP	45	192	6
NMTAP	45	192	7
NMTAP	45	288	6
NMTAP	45	288	7
NMTAP	46	0	5
NMTAP	46	96	5
NMTAP	46	192	6
NMTAP	46	192	7
NMTAP	46	288	6
NMTAP	46	288	7
NMTAP	47	0	0
NMTAP	47	96	0
NMTAP	47	192	0
NMTAP	47	192	1
NMTAP	48	0	1
NMTAP	48	96	1
NMTAP	48	192	2
NMTAP	48	192	3
NMTAP	48	288	2
NMTAP	48	288	3
NMTAP	49	0	4
NMTAP	49	96	4
NMTAP	49	192	4
NMTAP	49	192	5
NMTAP	49	288	4
NMTAP	49	288	5
NMTAP	50	0	6
NMTAP	50	96	6
NMTAP	50	192	4
NMTAP	50	192	5
NMTAP	50	288	4
NMTAP	50	288	5
NMTAP	51	0	3
NMTAP	51	96	3
NMTAP	51	192	2
NMTAP	51	192	3
NMHLD	52	0	3	192
NMHLD	52	0	4	192
NMSTR	53	0	2
NMSI_	53	0	2	96	288	5
NMTAP	54	192	6
NMSTR	55	0	6
NMSI_	55	0	6	96	288	3
NMTAP	56	192	2
NMSTR	57	0	1
NMSI_	57	0	1	96	288	4
NMTAP	58	192	5
NMSTR	59	0	6
NMSI_	59	0	6	96	288	2
NMTTP	61	0	2	B	0	L1
NMTTP	61	0	3	B	0	L1
NMTTP	62	0	0	B	0	L1
NMTTP	62	0	1	B	0	L1
NMTTP	63	0	6	B	0	L1
NMTTP	63	0	7	B	0	L1
NMTTP	64	0	4	B	0	L1
NMTTP	64	0	5	B	0	L1
NMTTP	65	0	1	B	0	L1
NMTTP	65	96	2	B	0	L1
NMTTP	65	192	3	B	0	L1
NMTTP	66	0	6	B	0	L1
NMTTP	66	96	5	B	0	L1
NMTTP	66	192	4	B	0	L1
NMTHO	67	0	0	384	C	0	L1
NMTAP	69	0	7
NMTAP	69	96	7
NMTAP	69	192	6
NMTAP	69	288	6
NMTAP	70	0	5
NMTAP	70	96	5
NMTAP	70	192	3
NMTAP	70	192	4
NMTAP	71	0	3
NMTAP	71	96	3
NMTAP	71	192	2
NMTAP	71	288	2
NMTAP	72	0	1
NMTAP	72	96	1
NMTAP	72	192	0
NMTAP	72	192	7
NMTAP	73	0	0
NMTAP	73	96	0
NMTAP	73	192	1
NMTAP	73	288	1
NMTAP	74	0	2
NMTAP	74	96	2
NMTAP	74	192	3
NMTAP	74	192	4
NMTAP	75	0	4
NMTAP	75	96	4
NMTAP	75	192	5
NMTAP	75	288	5
NMTAP	76	0	6
NMTAP	76	96	6
NMTAP	76	192	0
NMTAP	76	192	7
NMSTR	77	0	0
NMSI_	77	0	0	96	288	3
NMSTR	77	0	7
NMSI_	77	0	7	96	288	4
NMTAP	79	0	2
NMTAP	79	48	2
NMTAP	79	96	2
NMTAP	79	192	0
NMTAP	79	192	1
NMTAP	79	288	0
NMTAP	79	288	1
NMTAP	80	0	7
NMTAP	80	48	7
NMTAP	80	96	7
NMTAP	80	192	6
NMTAP	80	192	7
NMTAP	81	0	5
NMTAP	81	48	5
NMTAP	81	96	5
NMTAP	81	192	6
NMTAP	81	192	7
NMTAP	81	288	6
NMTAP	81	288	7
NMTAP	82	0	0
NMTAP	82	48	0
NMTAP	82	96	0
NMTAP	82	192	0
NMTAP	82	192	1
NMTAP	83	0	1
NMTAP	83	48	1
NMTAP	83	96	1
NMTAP	83	192	2
NMTAP	83	192	3
NMTAP	83	288	2
NMTAP	83	288	3
NMTAP	84	0	4
NMTAP	84	48	4
NMTAP	84	96	4
NMTAP	84	192	4
NMTAP	84	192	5
NMTAP	85	0	6
NMTAP	85	48	6
NMTAP	85	96	6
NMTAP	85	192	4
NMTAP	85	192	5
NMTAP	85	288	4
NMTAP	85	288	5
NMTAP	86	0	3
NMTAP	86	48	3
NMTAP	86	96	3
NMTAP	86	192	2
NMTAP	86	192	3
NMTAP	87	0	2
NMTAP	87	48	2
NMTAP	87	96	2
NMTAP	87	192	0
NMTAP	87	192	1
NMTAP	87	288	0
NMTAP	87	288	1
NMTAP	88	0	7
NMTAP	88	48	7
NMTAP	88	96	7
NMTAP	88	192	6
NMTAP	88	192	7
NMTAP	88	288	6
NMTAP	88	288	7
NMTAP	89	0	5
NMTAP	89	48	5
NMTAP	89	96	5
NMTAP	89	192	6
NMTAP	89	192	7
NMTAP	89	288	6
NMTAP	89	288	7
NMTAP	90	0	0
NMTAP	90	48	0
NMTAP	90	96	0
NMTAP	90	192	0
NMTAP	90	192	1
NMTAP	91	0	1
NMTAP	91	48	1
NMTAP	91	96	1
NMTAP	91	192	2
NMTAP	91	192	3
NMTAP	91	288	2
NMTAP	91	288	3
NMTAP	92	0	4
NMTAP	92	48	4
NMTAP	92	96	4
NMTAP	92	192	4
NMTAP	92	192	5
NMTAP	92	288	4
NMTAP	92	288	5
NMTAP	93	0	6
NMTAP	93	48	6
NMTAP	93	96	6
NMTAP	93	192	4
NMTAP	93	192	5
NMTAP	93	288	4
NMTAP	93	288	5
NMTAP	94	0	3
NMTAP	94	48	3
NMTAP	94	96	3
BXTAP	94	192	2
BXTAP	94	192	3
NMTAP	95	0	1
NMTAP	95	48	1
NMTAP	95	96	1
NMTAP	95	192	2
NMTAP	95	192	3
NMTAP	95	288	2
NMTAP	95	288	3
NMTAP	96	0	1
NMTAP	96	0	4
NMTAP	96	96	0
NMTAP	96	96	5
NMTAP	96	192	6
NMTAP	96	192	7
NMTAP	97	0	6
NMTAP	97	48	6
NMTAP	97	96	6
NMTAP	97	192	4
NMTAP	97	192	5
NMTAP	97	288	4
NMTAP	97	288	5
NMTAP	98	0	3
NMTAP	98	0	6
NMTAP	98	96	2
NMTAP	98	96	7
NMTAP	98	192	0
NMTAP	98	192	1
NMTAP	99	0	2
NMTAP	99	48	2
NMTAP	99	96	2
NMTAP	99	192	0
NMTAP	99	192	1
NMTAP	99	288	0
NMTAP	99	288	1
NMTAP	100	0	2
NMTAP	100	0	7
NMTAP	100	96	3
NMTAP	100	96	6
NMTAP	100	192	4
NMTAP	100	192	5
NMTAP	101	0	6
NMTAP	101	48	6
NMTAP	101	96	6
NMTAP	101	192	4
NMTAP	101	192	5
NMTAP	101	288	4
NMTAP	101	288	5
NMTAP	102	0	3
NMTAP	102	0	6
NMTAP	102	96	2
NMTAP	102	96	7
NMTAP	102	192	0
NMTAP	102	192	1
NMTAP	103	0	6
NMTAP	103	0	7
NMTAP	103	96	6
NMTAP	103	96	7
NMTAP	103	192	6
NMTAP	103	192	7
NMTAP	104	0	0
NMTAP	104	0	1
NMTAP	104	96	0
NMTAP	104	96	1
NMTAP	104	192	0
NMTAP	104	192	1
NMTAP	105	0	0
NMTAP	105	0	7
NMTAP	105	96	0
NMTAP	105	96	7
NMTAP	105	192	1
NMTAP	105	192	6
NMTAP	105	288	2
NMTAP	105	288	5
NMSTR	106	0	3
NMSXR	106	0	3	96	672	0
NMSTR	106	0	4
NMSXL	106	0	4	96	672	7
NMTTP	110	0	1	E	0	L1
NMTTP	110	192	2	E	0	L1
NMTTP	111	0	3	B	0	L1
NMTTP	111	0	3	E	0	L1
NMTTP	112	0	7	E	0	L1
NMTTP	112	192	6	E	0	L1
NMTTP	113	0	4	B	0	L1
NMTTP	113	0	5	E	0	L1
NMTHO	114	0	0	1152	C	1	L1
EXTAP	118	0	6
EXTAP	118	0	7
EXTAP	118	96	6
EXTAP	118	96	7
NMTAP	118	192	4
NMTAP	118	192	5
NMTAP	118	288	4
NMTAP	118	288	5
NMTAP	119	0	2
NMTAP	119	0	3
NMTAP	119	96	2
NMTAP	119	96	3
NMTAP	119	192	0
NMTAP	119	192	1
NMTAP	120	0	1
NMTAP	120	0	3
NMTAP	120	96	1
NMTAP	120	96	3
NMTAP	120	192	1
NMTAP	120	192	3
NMTAP	121	0	4
NMTAP	121	0	6
NMTAP	121	96	4
NMTAP	121	96	6
NMTAP	121	192	4
NMTAP	121	192	6
EXTAP	122	0	4
EXTAP	122	0	5
EXTAP	122	96	4
EXTAP	122	96	5
NMTAP	122	192	6
NMTAP	122	192	7
NMTAP	122	288	6
NMTAP	122	288	7
NMTAP	123	0	0
NMTAP	123	0	1
NMTAP	123	96	0
NMTAP	123	96	1
NMTAP	123	192	2
NMTAP	123	192	3
NMTAP	124	0	1
NMTAP	124	0	3
NMTAP	124	96	1
NMTAP	124	96	3
NMTAP	124	192	1
NMTAP	124	192	3
NMTAP	125	0	4
NMTAP	125	0	6
NMTAP	125	96	4
NMTAP	125	96	6
NMTAP	125	192	4
NMTAP	125	192	6
NMTAP	126	0	5
NMTAP	126	48	5
NMTAP	126	96	5
NMTAP	126	192	6
NMTAP	126	240	6
NMTAP	126	288	6
NMTAP	127	0	7
NMTAP	127	48	7
NMTAP	127	96	7
NMTAP	127	192	0
NMTAP	127	192	1
NMTAP	128	0	2
NMTAP	128	48	2
NMTAP	128	96	2
NMTAP	128	192	1
NMTAP	128	240	1
NMTAP	128	288	1
NMTAP	129	0	0
NMTAP	129	48	0
NMTAP	129	96	0
NMTAP	129	192	6
NMTAP	129	192	7
NMTAP	130	0	6
NMTAP	130	48	6
NMTAP	130	96	6
NMTAP	130	192	5
NMTAP	130	240	5
NMTAP	130	288	5
NMTAP	131	0	4
NMTAP	131	48	4
NMTAP	131	96	4
NMTAP	131	192	2
NMTAP	131	192	3
NMTAP	132	0	1
NMTAP	132	48	1
NMTAP	132	96	1
NMTAP	132	192	2
NMTAP	132	240	2
NMTAP	132	288	2
NMTAP	133	0	3
NMTAP	133	48	3
NMTAP	133	96	3
NMTAP	133	192	4
NMTAP	133	192	5
NMTAP	134	0	4
NMTAP	134	0	5
NMTAP	134	48	4
NMTAP	134	48	5
NMTAP	134	96	4
NMTAP	134	96	5
NMTAP	134	192	3
NMTAP	134	192	6
NMTAP	134	288	3
NMTAP	134	288	6
NMTAP	135	0	2
NMTAP	135	0	5
NMTAP	135	96	2
NMTAP	135	96	5
NMTAP	135	192	1
NMTAP	135	192	4
NMTAP	136	0	2
NMTAP	136	0	3
NMTAP	136	48	2
NMTAP	136	48	3
NMTAP	136	96	2
NMTAP	136	96	3
NMTAP	136	192	1
NMTAP	136	192	4
NMTAP	136	288	1
NMTAP	136	288	4
NMTAP	137	0	2
NMTAP	137	0	5
NMTAP	137	96	2
NMTAP	137	96	5
NMTAP	137	192	3
NMTAP	137	192	6
NMTAP	138	0	4
NMTAP	138	96	5
NMTAP	138	192	6
NMTAP	138	288	7
NMTAP	139	0	0
NMTAP	139	96	1
NMTAP	139	192	2
NMTAP	139	288	3
NMTAP	140	0	3
NMTAP	140	0	4
NMTAP	140	96	3
NMTAP	140	96	4
NMTAP	140	192	2
NMTAP	140	192	5
NMTAP	140	288	1
NMTAP	140	288	6
BRTAP	141	0	0
BRTAP	141	0	7
NMTAP	142	0	0
NMTAP	142	48	0
NMTAP	142	96	0
NMTAP	142	192	1
NMTAP	142	240	1
NMTAP	142	288	1
NMTAP	143	0	2
NMTAP	143	48	2
NMTAP	143	96	2
NMTAP	143	192	3
NMTAP	143	240	3
NMTAP	143	288	3
NMTAP	144	0	4
NMTAP	144	48	4
NMTAP	144	96	4
NMTAP	144	192	5
NMTAP	144	240	5
NMTAP	144	288	5
NMTAP	145	0	6
NMTAP	145	48	6
NMTAP	145	96	6
NMTAP	145	192	7
NMTAP	145	240	7
NMTAP	145	288	7
NMTAP	146	0	0
NMTAP	146	0	6
EXTAP	146	192	1
EXTAP	146	192	7
EXTAP	146	256	1
EXTAP	146	256	7
EXTAP	146	320	1
EXTAP	146	320	7
EXTAP	147	0	1
EXTAP	147	0	7
EXTAP	147	192	0
EXTAP	147	192	6
EXTAP	147	256	0
EXTAP	147	256	6
EXTAP	147	320	0
EXTAP	147	320	6
BXTAP	148	0	0
BXTAP	148	0	6
BXTAP	149	0	0
BXTAP	149	0	6
EXSTR	150	0	0
NMSI_	150	0	0	96	288	3
EXSTR	150	0	7
NMSI_	150	0	7	96	288	4
NMSTR	152	0	2
NMSLL	152	0	2	96	672	4
NMSTR	152	0	5
NMSLR	152	0	5	96	672	3

T_REC_TAP	536
T_REC_BRK	2
T_REC_XTP	26
T_REC_BXX	6
T_REC_HLD	16
T_REC_XHO	2
T_REC_BHO	0
T_REC_BXH	0
T_REC_STR	12
T_REC_BST	0
T_REC_XST	2
T_REC_XBS	0
T_REC_TTP	22
T_REC_THO	2
T_REC_SLD	14
T_REC_BSL	0
T_REC_ALL	640
T_NUM_TAP	598
T_NUM_BRK	8
T_NUM_HLD	20
T_NUM_SLD	14
T_NUM_ALL	640
T_JUDGE_TAP	606
T_JUDGE_HLD	88
T_JUDGE_SLD	14
T_JUDGE_ALL	708
TTM_EACHPAIRS	174
TTM_SCR_TAP	299000
TTM_SCR_BRK	20800
TTM_SCR_HLD	20000
TTM_SCR_SLD	21000
TTM_SCR_ALL	360800
TTM_SCR_S	349200
TTM_SCR_SS	360000
TTM_RAT_ACV	10022

