VERSION	0.00.00	1.04.00
FES_MODE	0
BPM_DEF	205.000	244.000	266.000	 22.000
MET_DEF	4	4
RESOLUTION	384
CLK_DEF	384
COMPATIBLE_CODE	MA2

BPM	0	0	205.000
BPM	7	0	180.000
BPM	7	192	166.000
BPM	8	0	159.000
BPM	8	192	132.000
BPM	9	0	111.000
BPM	9	192	 77.000
BPM	9	288	 22.000
BPM	10	0	244.000
BPM	106	0	225.000
BPM	107	0	214.000
BPM	108	0	205.000
BPM	114	192	215.000
BPM	115	0	200.000
BPM	116	0	181.000
BPM	117	0	123.000
BPM	117	288	 78.000
BPM	118	0	266.000
BPM	146	0	246.000
BPM	148	0	205.000
MET	0	0	4	4

NMTAP	2	0	3
NMTAP	2	192	3
NMTAP	3	0	3
NMTAP	4	0	4
NMTAP	4	192	4
NMTAP	5	0	4
NMSTR	6	0	3
NMSI_	6	0	3	96	672	0
NMSTR	6	0	4
NMSI_	6	0	4	96	672	7
NMTHO	9	0	0	288	C	0	L1
EXTAP	10	0	0
EXTAP	10	96	0
EXTAP	10	192	0
NMTAP	11	0	1
NMTAP	11	96	1
NMTAP	11	192	1
NMTAP	12	0	2
NMTAP	12	96	2
NMTAP	12	192	2
NMTAP	13	0	2
NMTAP	13	0	3
NMTAP	13	192	2
NMTAP	13	192	3
NMTAP	14	0	4
NMTAP	14	96	4
NMTAP	14	192	4
NMTAP	15	0	5
NMTAP	15	96	5
NMTAP	15	192	5
NMTAP	16	0	6
NMTAP	16	96	6
NMTAP	16	192	6
NMTAP	17	0	6
NMTAP	17	0	7
NMTAP	17	192	6
NMTAP	17	192	7
NMTAP	18	0	7
NMTAP	18	96	7
NMTAP	18	192	7
NMTAP	19	0	6
NMTAP	19	96	6
NMTAP	19	192	6
NMTAP	20	0	5
NMTAP	20	96	5
NMTAP	20	192	5
NMTAP	21	0	4
NMTAP	21	96	4
NMTAP	21	192	3
NMTAP	21	192	4
NMTAP	22	0	3
NMTAP	22	96	3
NMTAP	22	192	3
NMTAP	23	0	2
NMTAP	23	96	2
NMTAP	23	192	2
NMTAP	24	0	1
NMTAP	24	96	1
NMTAP	24	192	1
NMTAP	25	0	0
NMTAP	25	0	7
NMHLD	26	0	0	384
NMHLD	26	0	1	384
NMHLD	28	0	2	384
NMHLD	28	0	3	384
NMHLD	30	0	4	384
NMHLD	30	0	5	384
NMHLD	32	0	6	384
NMHLD	32	0	7	384
NMTAP	34	0	0
NMTAP	34	96	0
NMTAP	34	192	7
NMTAP	34	288	7
NMTAP	35	0	0
NMTAP	35	0	7
BRTAP	36	0	7
NMTAP	36	96	7
NMTAP	36	192	7
NMTAP	36	288	7
NMTAP	37	0	6
NMTAP	37	96	6
NMTAP	37	192	6
NMTAP	37	192	7
NMTAP	38	0	5
NMTAP	38	96	5
NMTAP	38	192	5
NMTAP	38	288	5
NMTAP	39	0	4
NMTAP	39	96	4
NMTAP	39	192	3
NMTAP	39	192	4
NMTAP	40	0	3
NMTAP	40	96	3
NMTAP	40	192	3
NMTAP	40	288	3
NMTAP	41	0	2
NMTAP	41	96	2
NMTAP	41	192	2
NMTAP	41	192	3
NMTAP	42	0	1
NMTAP	42	96	1
NMTAP	42	192	1
NMTAP	42	288	1
NMTAP	43	0	0
NMTAP	43	96	0
NMTAP	43	192	0
NMTAP	43	192	7
NMTAP	44	0	7
NMTAP	44	96	7
NMTAP	44	192	6
NMTAP	44	192	7
NMTAP	45	0	0
NMTAP	45	96	0
NMTAP	45	192	0
NMTAP	45	192	1
EXHLD	46	0	0	336
EXHLD	46	0	7	336
NMTTP	48	0	0	B	0	L1
NMTTP	48	0	7	B	0	L1
NMTTP	49	0	1	B	0	L1
NMTTP	49	0	6	B	0	L1
NMTTP	50	0	2	B	0	L1
NMTTP	50	0	5	B	0	L1
NMTTP	51	0	3	B	0	L1
NMTTP	51	0	4	B	0	L1
NMTHO	52	0	0	384	C	1	L1
NMTAP	57	0	1
NMTAP	57	192	1
NMTAP	58	0	0
NMTAP	58	0	7
NMTAP	58	192	0
NMTAP	58	192	7
NMTAP	59	0	6
NMTAP	59	192	6
NMTAP	60	0	0
NMTAP	60	0	7
NMSTR	61	0	7
NMSI_	61	0	7	96	288	2
NMSTR	63	0	0
NMSI_	63	0	0	96	288	5
NMSTR	65	0	6
NMSI_	65	0	6	96	288	3
NMSTR	67	0	1
NMSI_	67	0	1	96	288	4
NMTTP	69	0	4	B	0	L1
NMTTP	69	0	5	B	0	L1
NMTTP	70	0	2	B	0	L1
NMTTP	70	0	3	B	0	L1
NMTTP	71	0	6	B	0	L1
NMTTP	71	0	7	B	0	L1
NMTTP	72	0	0	B	0	L1
NMTTP	72	0	1	B	0	L1
NMTTP	73	0	5	B	0	L1
NMTTP	73	0	5	E	0	L1
NMTTP	73	0	6	E	0	L1
NMTTP	74	0	2	B	0	L1
NMTTP	74	0	2	E	0	L1
NMTTP	74	0	3	E	0	L1
NMTHO	75	0	0	768	C	0	L1
NMTTP	75	0	3	B	0	L1
NMTTP	75	0	4	B	0	L1
NMTAP	78	0	0
NMTAP	78	0	7
NMTAP	78	192	0
NMTAP	78	192	7
BXTAP	79	0	0
NMTAP	79	96	0
NMTAP	79	192	1
NMTAP	79	288	1
NMTAP	80	0	2
NMTAP	80	96	2
NMTAP	80	192	2
NMTAP	80	192	3
NMTAP	81	0	4
NMTAP	81	96	4
NMTAP	81	192	5
NMTAP	81	288	5
NMTAP	82	0	6
NMTAP	82	96	6
NMTAP	82	192	6
NMTAP	82	192	7
NMTAP	83	0	7
NMTAP	83	96	7
NMTAP	83	192	6
NMTAP	83	288	6
NMTAP	84	0	5
NMTAP	84	96	5
NMTAP	84	192	4
NMTAP	84	192	5
NMTAP	85	0	3
NMTAP	85	96	3
NMTAP	85	192	2
NMTAP	85	288	2
NMTAP	86	0	1
NMTAP	86	96	1
NMTAP	86	192	0
NMTAP	86	192	1
NMTAP	87	0	0
NMTAP	87	96	0
NMTAP	87	192	1
NMTAP	87	288	1
NMTAP	88	0	2
NMTAP	88	96	2
NMTAP	88	192	2
NMTAP	88	192	3
NMTAP	88	288	2
NMTAP	88	288	3
NMTAP	89	0	4
NMTAP	89	96	4
NMTAP	89	192	5
NMTAP	89	288	5
NMTAP	90	0	6
NMTAP	90	96	6
NMTAP	90	192	6
NMTAP	90	192	7
NMTAP	91	0	7
NMTAP	91	96	7
NMTAP	91	192	6
NMTAP	91	288	6
NMTAP	92	0	5
NMTAP	92	96	5
NMTAP	92	192	3
NMTAP	92	192	4
NMTAP	92	288	3
NMTAP	92	288	4
NMTAP	93	0	2
NMTAP	93	96	2
NMTAP	93	192	1
NMTAP	93	288	1
BRTAP	94	0	0
BRTAP	94	0	7
NMTAP	95	0	0
NMTAP	95	96	0
NMTAP	95	192	1
NMTAP	95	288	1
NMTAP	96	0	0
NMTAP	96	0	1
NMTAP	96	96	0
NMTAP	96	96	1
NMTAP	96	192	0
NMTAP	96	192	1
NMTAP	97	0	2
NMTAP	97	96	2
NMTAP	97	192	3
NMTAP	97	288	3
NMTAP	98	0	3
NMTAP	98	0	4
NMTAP	98	96	3
NMTAP	98	96	4
NMTAP	98	192	3
NMTAP	98	192	4
NMTAP	99	0	4
NMTAP	99	96	4
NMTAP	99	192	5
NMTAP	99	288	5
NMTAP	100	0	4
NMTAP	100	0	5
NMTAP	100	96	4
NMTAP	100	96	5
NMTAP	100	192	4
NMTAP	100	192	5
NMTAP	101	0	6
NMTAP	101	96	6
NMTAP	101	192	7
NMTAP	101	288	7
NMTAP	102	0	0
NMTAP	102	0	7
NMTAP	102	96	0
NMTAP	102	96	7
NMTAP	102	192	0
NMTAP	102	192	7
NMTAP	103	0	1
NMTAP	103	96	1
NMTAP	103	192	0
NMTAP	103	192	1
NMTAP	104	0	6
NMTAP	104	96	6
NMTAP	104	192	6
NMTAP	104	192	7
NMTAP	105	0	0
NMTAP	105	96	0
NMTAP	105	192	7
NMTAP	105	288	7
EXHLD	106	0	0	768
EXHLD	106	0	7	768
NMSTR	110	0	1
NMSI_	110	0	1	96	288	5
NMSTR	112	0	6
NMSI_	112	0	6	96	288	2
NMHLD	114	0	0	1440
NMHLD	117	0	7	288
EXTAP	118	0	0
EXTAP	118	96	0
NMTAP	118	192	1
NMTAP	118	288	1
NMTAP	119	0	2
NMTAP	119	96	2
NMTAP	119	192	3
NMTAP	119	288	3
NMTAP	120	0	4
NMTAP	120	96	4
NMTAP	120	192	5
NMTAP	120	288	5
NMTAP	121	0	6
NMTAP	121	96	6
NMTAP	121	192	6
NMTAP	121	192	7
NMTAP	122	0	7
NMTAP	122	96	7
NMTAP	122	192	6
NMTAP	122	288	6
NMTAP	123	0	5
NMTAP	123	96	5
NMTAP	123	192	4
NMTAP	123	288	4
NMTAP	124	0	3
NMTAP	124	96	3
NMTAP	124	192	2
NMTAP	124	288	2
NMTAP	125	0	1
NMTAP	125	96	1
NMTAP	125	192	0
NMTAP	125	192	1
NMTAP	126	0	2
NMTAP	126	96	2
NMTAP	126	192	1
NMTAP	126	288	1
NMTAP	127	0	0
NMTAP	127	96	0
NMTAP	127	192	7
NMTAP	127	288	7
NMTAP	128	0	6
NMTAP	128	96	6
NMTAP	128	192	5
NMTAP	128	288	5
NMTAP	129	0	4
NMTAP	129	96	4
NMTAP	129	192	3
NMTAP	129	192	4
NMTAP	130	0	5
NMTAP	130	96	5
NMTAP	130	192	6
NMTAP	130	288	6
NMTAP	131	0	7
NMTAP	131	96	7
NMTAP	131	192	0
NMTAP	131	288	0
NMTAP	132	0	1
NMTAP	132	96	1
NMTAP	132	192	2
NMTAP	132	288	2
BRTAP	133	0	3
BRTAP	133	0	4
NMTAP	134	0	3
NMTAP	134	96	3
NMTAP	134	192	2
NMTAP	134	288	2
NMTAP	135	0	1
NMTAP	135	96	1
NMTAP	135	192	0
NMTAP	135	288	0
NMTAP	136	0	7
NMTAP	136	96	7
NMTAP	136	192	6
NMTAP	136	288	6
NMTAP	137	0	5
NMTAP	137	96	5
NMTAP	137	192	4
NMTAP	137	288	4
NMTAP	138	0	3
NMTAP	138	96	3
NMTAP	138	192	2
NMTAP	138	288	2
NMTAP	139	0	1
NMTAP	139	96	1
NMTAP	139	192	0
NMTAP	139	288	0
NMHLD	140	0	0	384
NMHLD	140	0	7	384
NMTAP	142	0	7
NMTAP	142	96	0
NMTAP	142	192	1
NMTAP	142	288	2
NMTAP	143	0	3
NMTAP	143	96	4
NMTAP	143	192	5
NMTAP	143	288	6
NMTAP	144	0	7
NMTAP	144	96	0
NMTAP	144	192	1
NMTAP	144	288	2
NMTAP	145	0	3
NMTAP	145	0	4
NMTAP	145	96	3
NMTAP	145	96	4
NMTAP	145	192	3
NMTAP	145	192	4
NMHLD	146	0	3	192
NMHLD	146	0	4	192
NMHLD	147	0	2	192
NMHLD	147	0	5	192
NMHLD	148	0	1	384
NMHLD	148	0	6	384
NMHLD	150	0	0	1536
NMHLD	150	0	7	768
NMTTP	154	0	0	C	1	L1

T_REC_TAP	327
T_REC_BRK	5
T_REC_XTP	5
T_REC_BXX	1
T_REC_HLD	20
T_REC_XHO	4
T_REC_BHO	0
T_REC_BXH	0
T_REC_STR	8
T_REC_BST	0
T_REC_XST	0
T_REC_XBS	0
T_REC_TTP	25
T_REC_THO	3
T_REC_SLD	8
T_REC_BSL	0
T_REC_ALL	406
T_NUM_TAP	365
T_NUM_BRK	6
T_NUM_HLD	27
T_NUM_SLD	8
T_NUM_ALL	406
T_JUDGE_TAP	371
T_JUDGE_HLD	212
T_JUDGE_SLD	8
T_JUDGE_ALL	591
TTM_EACHPAIRS	61
TTM_SCR_TAP	182500
TTM_SCR_BRK	15600
TTM_SCR_HLD	27000
TTM_SCR_SLD	12000
TTM_SCR_ALL	237100
TTM_SCR_S	229450
TTM_SCR_SS	236500
TTM_RAT_ACV	10025

