VERSION	0.00.00	1.04.00
FES_MODE	0
BPM_DEF	220.500	147.000	220.500	147.000
MET_DEF	4	4
RESOLUTION	384
CLK_DEF	576
COMPATIBLE_CODE	MA2

BPM	0	0	220.500
BPM	1	192	147.000
MET	0	0	4	6
MET	1	192	4	4
MET	36	192	4	3
MET	39	192	8	7
MET	43	0	8	11
MET	44	144	8	13
MET	47	240	8	10
MET	48	336	4	4
MET	93	336	4	2
MET	94	144	4	4

NMTHO	1	192	0	384	C	0	M1
NMHLD	2	192	7	192
NMHLD	2	256	1	256
NMHLD	3	64	5	192
NMSTR	3	192	3
NMSI_	3	192	3	192	160	7
NMHLD	3	256	4	320
NMHLD	4	192	6	192
NMHLD	4	272	0	176
NMHLD	5	64	2	64
NMHLD	5	128	3	64
NMHLD	5	192	5	256
NMHLD	5	256	1	256
NMHLD	6	128	3	136
NMSTR	6	192	2
NMSCR	6	192	2	192	128	5
NMTAP	6	264	1
NMTAP	6	320	6
NMHLD	7	0	2	128
NMTAP	7	192	2
NMSTR	7	192	6
NMSV_	7	192	6	192	96	5
NMHLD	7	264	2	120
NMTAP	7	264	6
NMTAP	8	64	3
CNSI_	8	96	5	0	64	3
NMTAP	8	128	2
NMSTR	8	192	1
NMSV_	8	192	1	192	96	2
NMTAP	8	192	5
NMTAP	8	264	1
NMHLD	8	264	5	120
NMTAP	9	64	4
CNSI_	9	96	2	0	64	4
NMTAP	9	128	5
NMTAP	9	192	2
NMSTR	9	192	6
NMSSL	9	192	6	192	128	2
NMHLD	9	256	2	64
NMTAP	9	256	6
NMHLD	10	0	6	128
NMTAP	10	192	2
NMTAP	10	192	6
NMHLD	10	256	2	64
NMTAP	10	256	6
NMTAP	10	320	6
NMHLD	11	0	2	64
NMTAP	11	0	7
NMTAP	11	64	7
NMTAP	11	128	2
NMTAP	11	128	7
NMTAP	11	192	3
NMTAP	11	192	6
NMHLD	11	256	3	64
NMTAP	11	256	6
NMTAP	11	320	6
NMTAP	12	0	3
NMTAP	12	0	5
NMTAP	12	64	3
NMTAP	12	64	5
NMTAP	12	128	3
NMTAP	12	128	5
NMTAP	12	160	2
NMTAP	12	176	4
NMTAP	12	192	3
NMTAP	12	256	4
NMHLD	12	264	2	56
NMTAP	12	320	4
NMTAP	13	0	2
NMTAP	13	0	3
NMTAP	13	64	3
NMTAP	13	72	2
NMTAP	13	128	3
NMTAP	13	144	2
NMTAP	13	168	4
NMTAP	13	192	3
NMHLD	13	256	3	64
NMTAP	13	256	5
NMTAP	13	320	6
NMTAP	14	0	3
NMTAP	14	0	7
NMTAP	14	48	3
NMTAP	14	64	6
NMTAP	14	96	3
NMTAP	14	128	5
NMTAP	14	144	3
NMTAP	14	168	4
NMTAP	14	192	2
NMTAP	14	256	2
NMHLD	14	256	4	64
NMTAP	14	320	2
NMTAP	15	0	1
NMTAP	15	0	4
NMTAP	15	64	1
NMTAP	15	64	4
NMTAP	15	128	1
NMTAP	15	128	4
NMTAP	15	160	4
NMTAP	15	192	0
NMTAP	15	256	0
NMHLD	15	256	5	64
NMTAP	15	320	0
NMTAP	16	0	5
NMTAP	16	0	7
NMTAP	16	64	0
NMTAP	16	64	5
NMTAP	16	128	1
NMTAP	16	128	5
NMTAP	16	160	2
NMTAP	16	176	4
NMTAP	16	192	3
NMTAP	16	256	2
NMHLD	16	264	4	56
NMTAP	16	320	2
NMTAP	17	0	3
NMTAP	17	0	4
NMTAP	17	64	3
NMTAP	17	72	4
NMTAP	17	128	5
NMTAP	17	144	3
NMTAP	17	168	4
NMTAP	17	192	2
NMTAP	17	256	1
NMHLD	17	256	5	64
NMTAP	17	320	0
NMTAP	18	0	1
NMTAP	18	0	5
NMTAP	18	48	5
NMTAP	18	64	2
NMTAP	18	96	5
NMTAP	18	128	3
NMTAP	18	132	5
NMTAP	18	168	5
BRTAP	18	192	4
NMTAP	18	240	6
BRTAP	18	247	3
NMTAP	18	288	6
BRTAP	18	302	2
NMTAP	18	336	6
BRTAP	18	357	1
NMTAP	19	0	6
BRTAP	19	27	0
NMTAP	19	48	6
BRTAP	19	82	7
NMTAP	19	96	6
BRTAP	19	137	5
NMTAP	19	144	6
NMHLD	19	192	4	38
NMHLD	19	230	5	39
NMHLD	19	269	4	38
NMHLD	19	307	5	39
NMHLD	19	346	4	38
NMHLD	20	0	3	38
NMHLD	20	38	2	39
NMHLD	20	77	3	38
NMHLD	20	115	2	39
NMHLD	20	154	3	38
BRSTR	20	192	4
NMSF_	20	192	4	192	48	0
BRTAP	20	256	4
NMTTP	21	0	0	C	1	M1
EXTAP	21	192	1
EXTAP	21	192	7
EXTAP	21	256	1
EXTAP	21	256	7
NMTAP	22	0	6
NMTAP	22	64	5
NMTAP	22	128	4
NMTAP	22	160	2
NMTAP	22	176	2
BRSTR	22	192	3
NMSF_	22	192	3	192	48	7
BRTAP	22	256	3
NMTTP	23	0	0	C	1	M1
EXTAP	23	192	0
EXTAP	23	192	6
EXTAP	23	256	0
EXTAP	23	256	6
NMTAP	24	0	1
NMTAP	24	0	7
NMTAP	24	64	0
NMTAP	24	96	0
NMTAP	24	128	0
NMTAP	24	160	6
NMTAP	24	176	6
BRSTR	24	192	7
NMSF_	24	192	7	192	48	3
BRTAP	24	256	7
NMTTP	25	0	0	C	1	M1
EXTAP	25	192	2
EXTAP	25	192	4
EXTAP	25	256	2
EXTAP	25	256	4
NMTAP	26	0	1
NMTAP	26	64	5
NMTAP	26	128	3
NMTAP	26	160	7
NMTAP	26	176	7
BRSTR	26	192	1
NMSI_	26	192	1	192	48	5
BRTAP	26	256	1
NMTTP	27	0	0	C	1	M1
NMTAP	27	64	7
NMTAP	27	96	0
NMTAP	27	96	7
NMTAP	27	192	1
NMTAP	27	192	3
NMTAP	27	256	3
NMTAP	27	269	4
NMTAP	27	320	4
BRTAP	27	320	6
NMTAP	28	0	5
NMTAP	28	64	3
NMTAP	28	64	4
NMTAP	28	96	2
NMTAP	28	115	3
BRTAP	28	134	1
NMTAP	28	154	5
NMTAP	28	173	4
NMTAP	28	192	6
NMTAP	28	256	0
NMTAP	28	256	7
EXTAP	28	320	1
NMHLD	29	0	2	64
NMHLD	29	64	3	64
NMHLD	29	128	4	64
NMHLD	29	192	5	64
NMTAP	29	256	4
NMTAP	29	288	4
EXHLD	30	0	6	48
NMHLD	30	64	4	32
NMTAP	30	64	5
NMTAP	30	128	2
NMHLD	30	128	3	32
NMHLD	30	192	1	64
NMTAP	30	256	3
EXHLD	31	0	2	64
NMHLD	31	64	3	64
NMHLD	31	128	4	64
NMHLD	31	192	5	64
NMTAP	31	264	4
EXTAP	32	0	5
NMHLD	32	64	0	56
NMHLD	32	72	7	56
NMTAP	32	144	2
NMHLD	32	160	4	8
NMTAP	32	176	3
NMSTR	32	192	5
NMSXL	32	192	5	192	160	4
NMTAP	32	256	2
BRTAP	32	320	0
NMTAP	33	0	1
NMTAP	33	72	1
NMTAP	33	168	2
NMSTR	33	192	2
NMSXR	33	192	2	192	96	1
NMTAP	33	192	3
NMTAP	33	264	5
BRTAP	33	320	7
NMTAP	34	0	6
CNSI_	34	96	1	0	64	3
NMTAP	34	96	6
NMTAP	34	168	5
NMTAP	34	192	4
NMTAP	34	192	5
NMTAP	34	256	3
NMTAP	34	256	4
BRHLD	34	320	2	64
NMTAP	34	320	3
NMTTP	35	0	1	A	0	M1
NMTTP	35	64	0	E	0	M1
NMTAP	35	96	3
NMTTP	35	128	6	A	0	M1
NMTAP	35	192	4
NMTAP	35	256	3
NMTAP	35	256	5
BRSTR	36	0	0
BRSCR	36	0	0	192	48	3
BRSTR	36	0	4
BRSCR	36	0	4	192	48	7
NMHLD	36	64	3	56
NMHLD	36	64	7	56
NMTAP	36	336	1
NMTAP	36	336	5
NMSTR	37	0	3
NMSI_	37	0	3	96	144	0
NMTAP	37	24	2
NMTAP	37	96	3
BRTAP	37	96	4
NMTAP	37	240	6
NMTAP	37	256	7
NMTAP	37	288	6
NMTAP	37	336	5
NMTAP	37	360	4
NMTAP	38	0	4
NMHLD	38	0	6	192
NMSTR	38	192	4
NMSI_	38	192	4	96	144	7
NMTAP	38	216	5
NMTAP	38	240	3
BRTAP	38	288	3
NMTAP	38	288	4
NMTAP	39	48	1
NMTAP	39	64	0
NMTAP	39	96	1
NMTAP	39	144	7
NMTAP	39	156	6
NMTAP	39	168	5
NMTAP	39	180	4
NMTAP	39	192	2
NMHLD	39	192	3	192
NMTAP	40	0	2
NMTAP	40	48	4
NMTAP	40	48	5
NMTAP	40	96	6
NMTAP	40	120	6
BRHLD	40	144	4	64
NMTAP	40	208	5
NMHLD	40	216	3	56
NMTAP	40	272	4
NMHLD	40	288	2	48
NMTAP	40	336	3
NMTAP	41	0	2
NMTAP	41	48	4
NMTAP	41	64	3
NMTAP	41	80	4
NMTAP	41	88	3
NMHLD	41	96	5	192
NMTAP	41	288	4
NMTAP	41	336	5
NMTAP	42	0	6
NMTAP	42	24	6
BRTAP	42	48	0
NMTAP	42	60	1
NMTAP	42	72	2
NMTAP	42	84	3
NMHLD	42	96	4	120
NMHLD	42	132	5	36
NMTAP	42	216	6
NMSTR	42	288	7
NMSUR	42	288	7	96	156	0
NMTAP	42	312	0
BRTAP	43	0	0
BRTAP	43	0	7
NMHLD	43	192	1	72
NMHLD	43	240	3	36
NMHLD	43	288	4	60
NMHLD	43	336	6	48
NMTAP	44	0	4
NMTAP	44	24	5
NMSTR	44	48	3
NMSUR	44	48	3	96	156	4
NMTAP	44	72	4
NMTAP	44	96	2
NMTAP	44	120	3
BRTAP	44	144	1
NMTAP	44	336	1
NMTAP	44	360	1
NMTAP	45	0	7
NMTAP	45	12	6
NMTAP	45	24	5
NMTAP	45	36	4
NMHLD	45	48	2	80
NMHLD	45	48	3	80
NMTAP	45	144	2
NMTAP	45	144	3
NMHLD	45	192	0	16
NMHLD	45	192	7	16
NMTAP	45	240	5
NMTAP	45	256	3
NMTAP	45	272	4
NMTAP	45	288	2
NMTAP	45	320	3
NMTAP	45	352	4
BRSTR	46	0	5
NMSCL	46	0	5	96	96	2
CNSI_	46	192	2	0	96	6
CNSCR	46	288	6	0	96	1
NMTHO	46	336	0	384	C	0	M1
CNSI_	47	0	1	0	352	5
NMTAP	48	336	7
NMTTP	49	16	4	E	0	M1
NMTTP	49	80	3	D	0	M1
NMTAP	49	144	6
NMTTP	49	208	3	E	0	M1
NMTTP	49	272	2	D	0	M1
NMTAP	49	336	5
NMTTP	50	16	2	E	0	M1
NMTTP	50	80	1	D	0	M1
NMTAP	50	144	4
NMTTP	50	208	1	E	0	M1
NMTTP	50	272	0	D	0	M1
NMTAP	50	336	3
NMTTP	51	16	0	E	0	M1
NMTTP	51	80	7	D	0	M1
NMTAP	51	144	2
NMTTP	51	208	7	E	0	M1
NMTTP	51	272	6	D	0	M1
NMTAP	51	336	1
NMTTP	52	16	6	E	0	M1
NMTTP	52	80	5	D	0	M1
NMTAP	52	144	0
NMTTP	52	208	5	E	0	M1
NMTTP	52	272	4	D	0	M1
NMTAP	52	336	7
NMHLD	53	336	0	384
NMTTP	54	16	2	E	0	M1
NMTTP	54	80	3	E	0	M1
NMTTP	54	144	4	E	0	M1
NMTTP	54	208	5	E	0	M1
NMTTP	54	272	6	E	0	M1
NMHLD	54	336	7	384
NMTTP	55	16	6	D	0	M1
NMTTP	55	80	5	D	0	M1
NMTTP	55	144	4	D	0	M1
NMTTP	55	208	3	D	0	M1
NMTTP	55	272	2	D	0	M1
NMSTR	55	336	0
NMSI_	55	336	0	192	48	6
NMSTR	56	144	2
NMSCR	56	144	2	192	192	7
CNSV_	56	192	6	0	72	4
CNSI_	56	264	4	0	72	2
NMSTR	56	336	7
NMSCR	56	336	7	192	192	3
NMSTR	57	144	3
NMSCR	57	144	3	192	192	6
NMSTR	57	336	6
NMSCR	57	336	6	192	384	3
NMSTR	58	336	3
NMSCR	58	336	3	192	384	7
NMSTR	59	336	7
NMSCR	59	336	7	192	576	2
NMTHO	60	336	0	384	C	1	M1
NMTAP	62	16	0
NMHLD	62	48	0	96
NMHLD	62	144	6	96
NMTAP	62	208	4
NMHLD	62	240	4	96
BRHLD	62	336	5	96
NMTAP	63	16	4
NMHLD	63	48	3	96
NMTAP	63	80	4
NMHLD	63	144	4	96
NMHLD	63	208	2	64
NMHLD	63	272	3	64
NMTAP	63	336	1
BRHLD	64	24	4	235
BRTAP	64	24	6
NMTAP	64	144	5
NMTAP	64	202	5
NMTAP	64	259	5
NMTAP	64	298	3
NMTAP	64	317	3
BRTAP	64	336	4
NMTAP	65	48	1
NMTAP	65	48	3
NMSTR	65	144	0
NMSV_	65	144	0	192	64	5
NMTAP	65	182	1
NMTAP	65	221	7
NMTAP	65	259	1
NMTAP	65	298	7
BRTAP	65	336	6
CNSCL	66	16	5	0	64	2
NMTAP	66	16	7
NMHLD	66	48	7	96
NMHLD	66	144	1	96
NMTAP	66	208	3
NMHLD	66	240	3	96
BRHLD	66	336	2	96
NMTAP	67	16	3
NMHLD	67	48	4	96
NMTAP	67	144	3
NMHLD	67	160	5	64
NMTAP	67	224	4
NMHLD	67	240	6	48
NMHLD	67	288	4	48
NMTAP	67	336	6
BRTAP	68	7	1
BRHLD	68	7	3	137
NMTAP	68	144	2
NMTAP	68	213	2
NMTAP	68	281	2
NMTAP	68	295	6
NMTAP	68	309	5
NMTAP	68	322	4
BRTAP	68	336	0
NMTAP	69	0	2
NMTAP	69	0	3
NMSTR	69	144	7
NMSI_	69	144	7	192	64	4
NMTAP	69	171	1
NMTAP	69	199	6
NMTAP	69	226	1
NMTAP	69	254	6
NMTAP	69	281	1
NMTAP	69	309	6
BRHLD	69	336	0	64
CNSCL	70	16	4	0	32	3
CNSI_	70	48	3	0	64	0
NMTTP	70	144	1	A	0	M1
NMTTP	70	208	2	E	0	M1
NMTTP	70	272	3	E	0	M1
NMTTP	70	336	3	A	0	M1
BRTAP	70	336	5
NMTAP	71	16	4
NMTAP	71	16	5
NMTAP	71	144	2
NMTTP	71	144	6	A	0	M1
NMTAP	71	208	2
NMTTP	71	208	6	E	0	M1
NMTAP	71	272	2
NMTTP	71	272	5	E	0	M1
NMTAP	71	336	2
NMTTP	71	336	4	A	0	M1
NMTAP	72	16	2
NMTAP	72	24	3
NMTAP	72	80	1
NMTAP	72	144	6
NMHLD	72	182	4	20
NMTAP	72	221	5
NMTAP	72	259	2
NMHLD	72	298	3	19
BRTAP	72	336	1
NMTAP	73	0	0
NMTAP	73	0	7
NMHLD	73	144	2	35
NMTAP	73	144	3
NMHLD	73	179	1	35
NMHLD	73	214	0	35
NMHLD	73	249	7	35
NMHLD	73	284	6	35
NMHLD	73	319	5	17
NMTAP	73	336	4
NMTAP	74	16	4
NMTAP	74	48	6
NMTAP	74	144	7
NMTAP	74	192	4
NMTAP	74	240	0
NMTAP	74	336	1
BRTAP	74	336	5
NMTAP	75	16	3
NMTAP	75	80	3
NMHLD	75	144	2	64
NMTAP	75	208	3
NMTAP	75	288	6
NMTAP	75	312	4
NMTAP	75	336	5
NMTAP	76	7	3
NMTAP	76	7	7
NMTAP	76	144	2
NMTAP	76	144	3
NMTAP	76	199	0
NMTAP	76	199	4
NMTAP	76	254	4
NMTAP	76	288	3
NMTAP	76	312	5
BRTAP	76	336	2
NMTAP	76	336	6
NMTAP	77	26	1
NMTAP	77	96	4
NMTAP	77	120	3
NMTAP	77	144	4
NMTAP	77	174	2
NMTAP	77	203	2
NMTAP	77	233	6
NMTAP	77	247	5
NMTAP	77	262	4
NMTAP	77	277	3
NMTAP	77	292	0
NMTAP	77	306	1
NMTAP	77	321	2
BRTAP	77	336	3
NMTTP	77	336	7	A	1	M1
NMTAP	78	16	4
NMTTP	78	48	6	A	0	M1
NMTTP	78	144	5	A	0	M1
NMTAP	78	208	3
NMTTP	78	240	4	A	0	M1
NMTTP	78	336	3	A	1	M1
BRTAP	78	336	5
NMTAP	79	16	4
NMTTP	79	48	2	A	0	M1
NMTAP	79	80	4
NMTTP	79	144	1	A	0	M1
NMTAP	79	208	3
NMTTP	79	240	0	A	0	M1
NMTHO	79	336	0	72	C	1	M1
BRTAP	80	24	7
NMTAP	80	144	0
NMTAP	80	202	1
NMTAP	80	259	2
NMTAP	80	298	3
NMTAP	80	317	5
BRTAP	80	336	2
EXTAP	80	336	6
EXTAP	81	48	4
NMTAP	81	48	5
NMTAP	81	144	2
EXTAP	81	144	3
NMTAP	81	182	3
NMTAP	81	221	3
EXTAP	81	240	1
NMTAP	81	259	4
NMTAP	81	298	4
NMTTP	81	336	0	A	1	M1
BRTAP	81	336	4
NMTAP	82	16	3
NMTTP	82	48	1	A	0	M1
NMTTP	82	144	2	A	0	M1
NMTAP	82	208	4
NMTTP	82	240	3	A	0	M1
BRTAP	82	336	2
NMTTP	82	336	4	A	1	M1
NMTAP	83	16	2
NMTTP	83	48	5	A	0	M1
NMTTP	83	144	6	A	0	M1
NMTAP	83	160	4
NMTAP	83	224	3
NMTTP	83	240	7	A	0	M1
NMTAP	83	288	2
NMTHO	83	336	0	82	C	1	M1
BRTAP	84	34	0
NMTAP	84	144	7
NMTAP	84	199	6
NMTAP	84	254	5
NMTAP	84	309	4
BRTAP	84	336	2
BRTAP	84	336	3
NMHLD	84	363	1	165
NMTAP	85	144	3
NMTAP	85	171	2
NMTAP	85	199	4
NMTAP	85	226	3
NMTAP	85	254	5
NMTAP	85	267	6
NMTAP	85	281	7
NMTAP	85	295	0
NMTAP	85	309	1
NMTAP	85	322	2
NMSTR	85	336	3
NMSCR	85	336	3	192	48	6
NMTAP	86	16	2
NMTAP	86	80	1
NMSTR	86	144	0
NMSCR	86	144	0	192	48	3
NMTAP	86	208	7
NMTAP	86	272	6
NMSTR	86	336	5
NMSCR	86	336	5	192	48	0
NMTAP	87	16	4
NMTAP	87	80	3
NMTAP	87	144	2
NMTAP	87	208	1
NMTAP	87	272	0
NMTAP	87	272	1
NMTAP	87	336	6
NMTAP	87	336	7
BRHLD	88	16	0	64
BRHLD	88	24	7	56
NMTAP	88	144	2
NMTAP	88	144	6
NMTAP	88	182	5
NMTAP	88	221	4
NMTAP	88	259	3
NMTAP	88	298	2
NMTAP	88	336	1
NMTAP	88	336	5
NMTAP	89	0	1
NMTAP	89	0	5
NMSTR	89	144	0
NMSI_	89	144	0	192	48	3
NMTAP	89	171	6
NMSTR	89	199	4
NMSI_	89	199	4	192	48	7
NMTAP	89	226	5
NMTAP	89	254	2
NMTAP	89	281	3
NMTAP	89	309	1
NMTAP	90	144	2
NMTAP	90	192	1
NMTAP	90	192	3
NMTAP	90	240	0
NMTAP	90	288	7
BRHLD	90	336	6	128
NMTAP	91	16	5
NMTAP	91	80	5
NMTAP	91	144	4
NMTAP	91	182	5
NMTAP	91	208	3
NMTAP	91	221	6
NMTAP	91	259	7
NMTAP	91	298	0
NMHLD	91	336	1	55
NMTAP	92	7	2
NMTAP	92	144	3
EXTAP	92	144	7
NMTAP	92	171	6
EXTAP	92	199	5
NMTAP	92	226	4
EXTAP	92	254	3
NMTAP	92	281	2
EXTAP	92	309	1
BRHLD	92	336	0	74
NMSTR	92	336	4
NMSCR	92	336	4	192	192	3
NMTHO	93	144	0	192	C	0	M1
BRHLD	94	144	0	0
EXTAP	94	144	7
BRTAP	94	208	6
NMTAP	94	221	7
EXTAP	94	240	6
BRHLD	94	272	1	0
NMTAP	94	298	0
EXTAP	94	336	4
BRTAP	94	336	5
NMTAP	94	374	2
BRHLD	95	16	3	0
EXTAP	95	48	1
NMTAP	95	67	6
BRTAP	95	80	4
BRHLD	95	144	0	0
EXTAP	95	144	7
BRTAP	95	199	6
NMTAP	95	221	4
EXTAP	95	240	5
BRTAP	95	254	1
NMHLD	95	272	3	0
NMTAP	95	298	2
BRTAP	95	309	4
EXTAP	95	336	3
BRTAP	95	363	5
NMTAP	95	374	4
NMHLD	96	16	6	0
BRTAP	96	34	1
EXTAP	96	48	7
NMTAP	96	67	0
BRTAP	96	89	6
NMTTP	96	144	0	C	1	M1
NMTTP	96	144	2	B	0	M1
NMTTP	96	144	2	E	0	M1
NMTTP	96	144	3	B	0	M1
NMTTP	96	144	3	E	0	M1
NMTTP	96	144	4	B	0	M1
NMTTP	96	144	4	E	0	M1
NMTTP	96	144	5	B	0	M1
NMTTP	96	144	5	E	0	M1
NMTTP	96	144	6	E	0	M1

T_REC_TAP	410
T_REC_BRK	48
T_REC_XTP	30
T_REC_BXX	0
T_REC_HLD	94
T_REC_XHO	2
T_REC_BHO	15
T_REC_BXH	0
T_REC_STR	26
T_REC_BST	7
T_REC_XST	0
T_REC_XBS	0
T_REC_TTP	67
T_REC_THO	6
T_REC_SLD	31
T_REC_BSL	2
T_REC_ALL	738
T_NUM_TAP	533
T_NUM_BRK	72
T_NUM_HLD	102
T_NUM_SLD	31
T_NUM_ALL	738
T_JUDGE_TAP	588
T_JUDGE_HLD	274
T_JUDGE_SLD	33
T_JUDGE_ALL	895
TTM_EACHPAIRS	87
TTM_SCR_TAP	266500
TTM_SCR_BRK	187200
TTM_SCR_HLD	102000
TTM_SCR_SLD	46500
TTM_SCR_ALL	602200
TTM_SCR_S	577150
TTM_SCR_SS	595000
TTM_RAT_ACV	10121

