VERSION	0.00.00	1.04.00
FES_MODE	0
BPM_DEF	147.000	147.000	147.000	147.000
MET_DEF	4	4
RESOLUTION	384
CLK_DEF	384
COMPATIBLE_CODE	MA2

BPM	0	0	147.000
MET	0	0	4	4
MET	36	0	4	3
MET	39	0	8	7
MET	42	192	8	11
MET	43	336	8	13
MET	47	48	8	10
MET	48	144	4	4
MET	93	144	4	2
MET	93	336	4	4

NMTHO	1	0	0	384	C	1	M1
NMTTP	1	0	2	E	0	M1
NMHLD	2	0	0	3072
NMHLD	3	0	1	264
NMHLD	4	0	2	264
NMHLD	5	0	3	264
BRTAP	6	0	4
NMTTP	7	0	4	E	0	M1
NMTHO	8	0	0	384	C	0	M1
NMTTP	9	192	0	E	0	M1
BXHLD	10	0	7	2688
NMTAP	10	192	6
NMTAP	11	0	6
NMTAP	11	192	5
NMTAP	12	0	5
NMTAP	12	192	4
NMTAP	13	0	4
NMTAP	13	192	5
BXHLD	14	0	4	192
NMTAP	14	264	4
NMHLD	15	0	5	192
NMTAP	15	264	5
NMHLD	16	0	6	192
NMTAP	16	264	6
BXHLD	17	0	5	1216
NMTAP	17	192	6
NMTAP	17	256	6
BRSTR	17	320	6
BRSI_	17	320	6	96	96	1
CNSI_	18	128	1	0	96	5
CNSI_	18	224	5	0	96	2
CNSI_	18	320	2	0	96	4
BXTAP	20	0	3
BXHLD	20	64	3	384
NMTTP	20	192	6	B	0	M1
NMTTP	20	192	7	B	0	M1
NMTTP	20	192	7	E	1	M1
NMTAP	21	0	4
NMHLD	21	64	4	192
NMTAP	21	192	1
NMHLD	21	256	1	192
NMTAP	22	0	2
NMHLD	22	64	2	384
NMTTP	22	192	1	B	0	M1
NMTTP	22	192	2	B	0	M1
NMTTP	22	192	2	E	1	M1
NMTAP	23	0	0
NMHLD	23	64	0	192
NMTAP	23	192	3
NMHLD	23	256	3	192
BXTAP	24	0	1
BXHLD	24	64	1	2816
NMTAP	24	192	2
NMTAP	24	256	2
NMTAP	24	320	2
NMTAP	25	0	2
NMTAP	25	192	3
NMTAP	25	256	3
NMTAP	25	320	3
NMTAP	26	0	3
NMTAP	26	192	4
NMTAP	26	256	4
NMTAP	26	320	4
NMHLD	27	0	4	192
BXHLD	28	0	3	64
NMHLD	28	192	2	64
NMHLD	29	0	0	64
NMHLD	29	192	0	64
NMHLD	30	0	2	64
NMHLD	30	192	0	64
NMHLD	31	0	2	64
BXHLD	31	192	4	1536
NMTAP	32	0	2
NMTAP	32	64	2
NMHLD	32	192	3	64
NMTAP	33	0	2
NMTAP	33	64	2
NMHLD	33	192	1	64
NMTAP	34	0	1
NMTAP	34	64	1
NMHLD	34	192	2	64
NMTAP	35	0	3
NMTAP	35	64	3
BXHLD	35	192	5	3840
EXSTR	36	0	6
NMSCL	36	0	6	96	96	3
BXSTR	36	288	3
NMSI_	36	288	3	96	96	7
NMSTR	37	192	7
NMSI_	37	192	7	96	96	2
BXSTR	38	96	2
NMSI_	38	96	2	96	96	7
NMSTR	39	0	7
NMSI_	39	0	7	96	96	2
CNSI_	39	192	2	0	96	4
NMTTP	39	336	5	B	1	M1
NMSTR	40	288	6
NMSI_	40	288	6	96	96	1
CNSI_	41	96	1	0	96	4
NMTTP	41	240	4	B	1	M1
NMTTP	41	240	4	E	0	M1
NMTTP	41	240	5	E	0	M1
NMTTP	42	192	6	E	0	M1
NMTTP	42	288	5	E	0	M1
NMTTP	43	0	4	E	0	M1
NMTHO	43	96	0	240	C	1	M1
NMTTP	44	240	0	E	0	M1
NMTTP	44	336	7	E	0	M1
NMTTP	45	48	6	E	0	M1
BXTAP	45	144	4
BXHLD	45	192	4	2848
NMTHO	46	144	0	288	C	0	M1
NMSTR	48	144	7
NMSI_	48	144	7	192	192	4
CNSI_	49	144	4	0	192	1
CNSI_	49	336	1	0	96	7
NMHLD	50	144	6	192
NMHLD	51	144	6	192
NMHLD	52	144	7	3456
NMTTP	53	144	4	E	0	M1
NMTTP	54	144	5	E	0	M1
NMTTP	55	144	6	E	0	M1
NMTTP	55	336	0	C	0	M1
NMTTP	56	144	4	E	0	M1
NMTTP	56	336	0	C	0	M1
NMHLD	57	144	0	192
NMTHO	58	144	0	192	C	0	M1
NMTHO	59	144	0	192	C	0	M1
NMTTP	59	144	6	B	0	M1
NMTHO	60	144	0	192	C	1	M1
NMTTP	60	144	5	B	0	M1
NMTTP	60	144	6	B	0	M1
NMTTP	60	144	6	E	0	M1
EXHLD	61	144	5	384
NMTAP	61	208	6
NMTAP	62	16	6
BRHLD	62	144	4	384
NMTAP	62	208	5
NMTAP	62	272	5
BRTAP	63	16	6
NMHLD	63	144	7	64
NMHLD	63	208	6	1088
NMTAP	63	336	5
NMTAP	64	10	5
NMTAP	64	67	5
EXTAP	64	106	5
EXTAP	64	125	5
BXHLD	64	144	5	96
NMTAP	64	336	4
NMTAP	64	374	4
NMTAP	65	29	4
NMTAP	65	67	4
NMTAP	65	106	4
NMHLD	65	144	4	64
NMHLD	66	16	3	16
BRHLD	66	144	5	64
NMHLD	66	208	4	320
NMTAP	66	352	6
NMTAP	67	32	6
NMTAP	67	96	6
NMHLD	67	144	6	56
NMHLD	67	200	5	392
NMTAP	67	336	3
NMHLD	68	21	3	68
EXTAP	68	117	3
BXHLD	68	144	3	840
NMTAP	68	336	6
NMTAP	68	363	6
NMTAP	69	7	6
NMTAP	69	34	6
NMTAP	69	62	6
NMTAP	69	89	6
NMTAP	69	117	6
NMTAP	69	144	6
BXSTR	69	208	6
NMSI_	69	208	6	96	80	2
CNSI_	70	0	2	0	64	5
BRTAP	70	144	7
NMHLD	70	208	6	704
NMTAP	70	336	5
NMTAP	71	16	5
NMTAP	71	72	7
NMTAP	71	144	7
NMSTR	71	208	7
NMSI_	71	208	7	96	80	4
CNSI_	72	0	4	0	48	7
BRHLD	72	144	7	768
NMTAP	72	336	3
NMTAP	72	371	3
NMTAP	73	22	3
NMTAP	73	57	3
NMTAP	73	92	3
NMSTR	73	128	3
NMSI_	73	128	3	84	52	6
CNSI_	73	264	6	0	120	3
BRHLD	74	144	4	842
NMTAP	74	216	3
NMTAP	74	276	3
NMTAP	75	12	2
NMTAP	75	144	3
NMSTR	75	192	3
NMSCR	75	192	3	96	48	5
CNSI_	75	336	5	0	120	1
BRTAP	76	144	2
NMHLD	76	218	2	3382
NMTHO	76	336	0	192	C	1	M1
NMSTR	77	352	7
NMSI_	77	352	7	96	96	1
CNSI_	78	160	1	0	48	6
CNSI_	78	208	6	0	96	2
CNSI_	78	304	2	0	48	5
CNSI_	78	352	5	0	96	3
BRTAP	79	144	0
BRSTR	79	204	0
BRSCR	79	204	0	96	132	3
BRTAP	80	144	3
NMTAP	80	240	1
NMTAP	80	336	0
NMTAP	80	374	0
NMTAP	81	29	0
NMTAP	81	67	0
NMTAP	81	106	0
BRSTR	81	144	0
BRSXR	81	144	0	96	192	0
BRSTR	82	144	0
BRSI_	82	144	0	96	48	6
CNSUR	82	288	6	0	128	4
NMTAP	83	144	4
BRSTR	83	226	4
BRSXR	83	226	4	96	126	3
BRSTR	84	144	4
BRSUL	84	144	4	96	192	3
NMHLD	85	144	3	64
NMHLD	85	208	1	320
NMTAP	85	272	2
NMTAP	85	336	2
NMTAP	86	16	2
NMTAP	86	80	2
BRHLD	86	144	3	384
NMTAP	86	208	2
NMTAP	86	272	2
NMTAP	86	336	2
NMTTP	87	16	3	B	0	M1
NMTTP	87	16	3	E	0	M1
NMHLD	87	144	4	64
NMHLD	87	208	5	368
NMTAP	87	272	6
NMTAP	87	336	6
NMTAP	88	16	6
NMTAP	88	80	4
BRHLD	88	144	4	384
NMTAP	88	336	7
NMTAP	88	363	7
NMTAP	89	7	7
NMTAP	89	34	7
NMTAP	89	62	7
NMTAP	89	89	7
NMTAP	89	117	7
NMHLD	89	144	7	64
NMHLD	89	208	5	368
NMHLD	89	336	6	64
BRHLD	90	144	4	440
NMTAP	90	336	2
NMTAP	90	363	2
NMTAP	91	7	2
NMTAP	91	34	2
NMTAP	91	62	2
NMTAP	91	89	2
NMTAP	91	117	2
NMTAP	91	144	2
EXHLD	91	200	2	400
NMTAP	91	336	0
NMTAP	92	7	0
NMTAP	92	62	0
NMTAP	92	117	0
BXHLD	92	144	0	384
NMTHO	92	336	0	1152	C	1	M1
BRSTR	93	336	0
BRSSR	93	336	0	96	288	4
CNSSL	94	336	4	0	384	0

T_REC_TAP	110
T_REC_BRK	6
T_REC_XTP	3
T_REC_BXX	3
T_REC_HLD	42
T_REC_XHO	2
T_REC_BHO	7
T_REC_BXH	12
T_REC_STR	8
T_REC_BST	7
T_REC_XST	1
T_REC_XBS	3
T_REC_TTP	31
T_REC_THO	9
T_REC_SLD	12
T_REC_BSL	7
T_REC_ALL	263
T_NUM_TAP	153
T_NUM_BRK	45
T_NUM_HLD	53
T_NUM_SLD	12
T_NUM_ALL	263
T_JUDGE_TAP	172
T_JUDGE_HLD	894
T_JUDGE_SLD	19
T_JUDGE_ALL	1085
TTM_EACHPAIRS	0
TTM_SCR_TAP	76500
TTM_SCR_BRK	117000
TTM_SCR_HLD	53000
TTM_SCR_SLD	18000
TTM_SCR_ALL	264500
TTM_SCR_S	252200
TTM_SCR_SS	260000
TTM_RAT_ACV	10173

