VERSION	0.00.00	1.05.00
FES_MODE	0
BPM_DEF	220.500	147.000	220.500	147.000
MET_DEF	4	4
RESOLUTION	384
CLK_DEF	576
COMPATIBLE_CODE	MA2

BPM	0	0	220.500
BPM	1	192	147.000
MET	0	0	4	6
MET	1	192	4	4
MET	36	192	4	3
MET	39	192	8	7
MET	43	0	8	11
MET	44	144	8	13
MET	47	240	8	10
MET	48	336	4	4
MET	93	336	4	2
MET	94	144	4	4

EXHLD	2	192	2	192
NMHLD	3	0	3	192
NMHLD	3	192	4	192
NMTAP	4	0	5
EXHLD	4	192	5	192
NMHLD	5	0	4	192
NMHLD	5	192	3	192
NMTAP	6	0	2
EXHLD	6	192	1	192
NMHLD	7	0	2	192
NMHLD	7	192	3	192
NMTAP	8	0	4
EXHLD	8	192	6	192
NMHLD	9	0	5	192
NMHLD	9	192	4	192
NMTAP	10	0	3
NMTAP	10	192	5
NMTAP	10	256	5
NMTAP	10	320	5
NMTAP	11	0	4
NMTAP	11	0	5
NMTAP	11	192	6
NMTAP	11	256	6
NMTAP	11	320	6
NMTAP	12	0	6
NMTAP	12	0	7
NMTAP	12	192	0
NMTAP	12	256	0
NMTAP	12	320	0
NMTAP	13	0	0
NMTAP	13	0	1
NMTAP	13	192	2
NMTAP	13	192	3
NMTAP	13	256	2
NMTAP	13	256	3
NMTAP	13	320	2
NMTAP	13	320	3
NMTAP	14	0	1
NMTAP	14	0	4
NMTAP	14	192	2
NMTAP	14	256	2
NMTAP	14	320	2
NMTAP	15	0	2
NMTAP	15	0	3
NMTAP	15	192	1
NMTAP	15	256	1
NMTAP	15	320	1
NMTAP	16	0	0
NMTAP	16	0	1
NMTAP	16	192	7
NMTAP	16	256	7
NMTAP	16	320	7
NMTAP	17	0	6
NMTAP	17	0	7
NMTAP	17	192	4
NMTAP	17	192	5
NMTAP	17	256	4
NMTAP	17	256	5
NMTAP	17	320	4
NMTAP	17	320	5
NMTAP	18	0	3
NMTAP	18	0	6
EXSTR	18	192	4
NMSUR	18	192	4	192	384	1
EXSTR	18	192	5
NMSCR	18	192	5	192	384	0
NMTAP	20	192	2
NMTAP	20	256	2
NMTAP	21	0	1
NMTAP	21	64	1
NMTAP	21	192	0
NMTAP	21	256	0
NMTAP	22	0	6
NMTAP	22	0	7
NMTAP	22	192	5
NMTAP	22	256	5
NMTAP	23	0	6
NMTAP	23	64	6
NMTAP	23	192	7
NMTAP	23	256	7
NMTAP	24	0	0
NMTAP	24	0	1
NMTAP	24	192	1
NMTAP	24	256	1
NMTAP	25	0	2
NMTAP	25	64	2
NMTAP	25	192	3
NMTAP	25	256	3
NMTAP	26	0	4
NMTAP	26	0	5
NMTAP	26	192	6
NMTAP	26	256	6
NMTAP	27	0	5
NMTAP	27	64	5
NMTAP	27	192	4
NMTAP	27	256	4
NMTAP	28	0	2
NMTAP	28	0	3
NMTAP	28	192	2
NMTAP	28	256	2
NMTAP	28	320	2
NMTAP	29	0	1
NMTAP	29	64	1
NMTAP	29	128	1
NMTAP	29	192	0
NMTAP	29	256	0
NMTAP	29	320	0
NMTAP	30	0	6
NMTAP	30	0	7
NMTAP	30	192	5
NMTAP	30	256	5
NMTAP	30	320	5
NMTAP	31	0	6
NMTAP	31	64	6
NMTAP	31	128	6
NMTAP	31	192	7
NMTAP	31	256	7
NMTAP	31	320	7
NMTAP	32	0	0
NMTAP	32	0	1
NMTAP	32	192	1
NMTAP	32	256	1
NMTAP	32	320	1
NMTAP	33	0	2
NMTAP	33	64	2
NMTAP	33	128	2
NMTAP	33	192	3
NMTAP	33	256	3
NMTAP	33	320	3
NMTAP	34	0	4
NMTAP	34	0	5
NMTAP	34	192	6
NMTAP	34	256	6
NMTAP	34	320	6
NMTAP	35	0	5
NMTAP	35	64	5
NMTAP	35	128	5
NMTAP	35	192	4
NMTAP	35	256	4
NMTAP	35	320	4
BRTAP	36	0	2
BRTAP	36	0	3
EXSTR	36	192	1
NMSI_	36	192	1	96	192	4
EXSTR	38	0	6
NMSI_	38	0	6	96	192	3
EXSTR	39	192	2
NMSCL	39	192	2	96	240	7
EXSTR	41	96	6
NMSUL	41	96	6	96	240	2
EXSTR	43	0	1
NMSLR	43	0	1	96	288	5
EXSTR	44	144	6
NMSLR	44	144	6	96	336	3
EXHLD	46	0	2	624
EXHLD	46	0	4	624
NMTTP	48	336	2	E	0	L1
NMTTP	49	16	2	B	0	L1
NMTTP	49	80	3	B	0	L1
NMTTP	49	144	4	E	0	L1
NMTTP	49	336	6	E	0	L1
NMTTP	50	16	5	B	0	L1
NMTTP	50	80	4	B	0	L1
NMTTP	50	144	4	E	0	L1
NMTTP	50	336	1	E	0	L1
NMTTP	51	16	2	E	0	L1
NMTTP	51	80	3	E	0	L1
NMTTP	51	144	4	B	0	L1
NMTTP	51	144	4	E	0	L1
NMTTP	51	336	7	E	0	L1
NMTTP	52	16	6	E	0	L1
NMTTP	52	80	5	E	0	L1
NMTTP	52	144	3	B	0	L1
NMTTP	52	144	4	E	0	L1
NMTTP	52	336	0	C	0	L1
NMTTP	53	336	6	E	0	L1
NMTTP	54	16	6	B	0	L1
NMTTP	54	80	7	B	0	L1
NMTTP	54	144	0	E	0	L1
NMTTP	54	336	2	E	0	L1
NMTTP	55	16	1	B	0	L1
NMTTP	55	80	0	B	0	L1
NMTTP	55	144	0	E	0	L1
NMTTP	55	336	6	B	0	L1
NMTTP	55	336	6	E	0	L1
NMTTP	56	144	4	B	0	L1
NMTTP	56	144	4	E	0	L1
NMTTP	56	336	2	B	0	L1
NMTTP	56	336	2	E	0	L1
NMTTP	57	144	0	C	0	L1
NMHLD	57	336	6	192
BXTAP	58	144	7
NMHLD	58	336	1	192
BXTAP	59	144	0
NMHLD	59	336	6	192
BXTAP	60	144	7
NMHLD	60	336	1	192
BXTAP	61	144	0
EXTAP	61	336	2
NMTAP	62	16	2
NMTAP	62	80	2
NMTAP	62	144	0
NMTAP	62	144	1
NMTAP	62	208	0
NMTAP	62	208	1
NMTAP	62	272	0
NMTAP	62	272	1
EXTAP	62	336	7
NMTAP	63	16	6
NMTAP	63	80	5
EXTAP	63	144	4
EXTAP	63	144	5
EXTAP	63	336	5
NMTAP	64	16	5
NMTAP	64	80	5
NMTAP	64	144	6
NMTAP	64	144	7
NMTAP	64	208	6
NMTAP	64	208	7
NMTAP	64	272	6
NMTAP	64	272	7
EXTAP	64	336	0
NMTAP	65	16	1
NMTAP	65	80	2
EXTAP	65	144	2
EXTAP	65	144	3
EXTAP	65	336	1
NMTAP	66	16	1
NMTAP	66	80	1
NMTAP	66	144	2
NMTAP	66	144	3
NMTAP	66	208	2
NMTAP	66	208	3
NMTAP	66	272	2
NMTAP	66	272	3
EXTAP	66	336	4
NMTAP	67	16	5
NMTAP	67	80	6
EXTAP	67	144	6
EXTAP	67	144	7
EXTAP	67	336	6
NMTAP	68	16	6
NMTAP	68	80	6
NMTAP	68	144	4
NMTAP	68	144	5
NMTAP	68	208	4
NMTAP	68	208	5
NMTAP	68	272	4
NMTAP	68	272	5
EXTAP	68	336	3
NMTAP	69	16	2
NMTAP	69	80	1
EXTAP	69	144	0
EXTAP	69	144	1
NMTAP	69	336	1
NMTAP	70	16	1
NMTAP	70	80	1
NMTAP	70	144	0
NMTAP	70	144	1
NMTAP	70	336	2
NMTAP	71	16	2
NMTAP	71	80	2
NMTAP	71	144	2
NMTAP	71	144	3
NMTAP	71	336	5
NMTAP	72	16	5
NMTAP	72	80	5
NMTAP	72	144	4
NMTAP	72	144	5
NMTAP	72	336	6
NMTAP	72	336	7
NMTAP	73	16	6
NMTAP	73	16	7
NMTAP	73	80	6
NMTAP	73	80	7
NMTAP	73	144	0
NMTAP	73	144	5
NMTAP	73	336	6
NMTAP	74	16	6
NMTAP	74	80	6
NMTAP	74	144	6
NMTAP	74	144	7
NMTAP	74	336	5
NMTAP	75	16	5
NMTAP	75	80	5
NMTAP	75	144	4
NMTAP	75	144	5
NMTAP	75	336	2
NMTAP	76	16	2
NMTAP	76	80	2
NMTAP	76	144	2
NMTAP	76	144	3
NMTAP	76	336	0
NMTAP	76	336	1
NMTAP	77	16	0
NMTAP	77	16	1
NMTAP	77	80	0
NMTAP	77	80	1
NMTAP	77	144	2
NMTAP	77	144	7
NMTAP	77	336	1
NMTAP	78	16	1
NMTAP	78	80	1
NMTAP	78	144	2
NMTAP	78	144	3
NMTAP	78	208	2
NMTAP	78	208	3
NMTAP	78	272	2
NMTAP	78	272	3
NMTAP	78	336	1
NMTAP	78	336	4
NMTAP	79	16	0
NMTAP	79	16	5
NMTAP	79	80	6
NMTAP	79	80	7
NMTAP	79	144	6
NMTAP	79	144	7
NMTAP	79	336	6
NMTAP	80	16	6
NMTAP	80	80	6
NMTAP	80	144	4
NMTAP	80	144	5
NMTAP	80	208	4
NMTAP	80	208	5
NMTAP	80	272	4
NMTAP	80	272	5
NMTAP	80	336	3
NMTAP	80	336	6
NMTAP	81	16	2
NMTAP	81	16	7
NMTAP	81	80	0
NMTAP	81	80	1
NMTAP	81	144	0
NMTAP	81	144	1
NMTAP	81	336	2
NMTAP	82	16	2
NMTAP	82	80	2
NMTAP	82	144	0
NMTAP	82	144	1
NMTAP	82	208	0
NMTAP	82	208	1
NMTAP	82	272	0
NMTAP	82	272	1
NMTAP	82	336	2
NMTAP	82	336	7
NMTAP	83	16	3
NMTAP	83	16	6
NMTAP	83	80	4
NMTAP	83	80	5
NMTAP	83	144	4
NMTAP	83	144	5
NMTAP	83	336	5
NMTAP	84	16	5
NMTAP	84	80	5
NMTAP	84	144	6
NMTAP	84	144	7
NMTAP	84	208	6
NMTAP	84	208	7
NMTAP	84	272	6
NMTAP	84	272	7
NMTAP	84	336	0
NMTAP	84	336	5
NMTAP	85	16	1
NMTAP	85	16	4
NMTAP	85	80	2
NMTAP	85	80	3
NMTAP	85	144	2
NMTAP	85	144	3
NMTAP	85	336	2
NMTAP	85	336	3
NMTAP	86	16	2
NMTAP	86	16	3
NMTAP	86	80	2
NMTAP	86	80	3
NMTAP	86	144	1
NMTAP	86	144	4
NMTAP	86	336	0
NMTAP	86	336	1
NMTAP	87	16	0
NMTAP	87	16	1
NMTAP	87	80	0
NMTAP	87	80	1
NMTAP	87	144	2
NMTAP	87	144	7
NMTAP	87	336	6
NMTAP	87	336	7
NMTAP	88	16	6
NMTAP	88	16	7
NMTAP	88	80	6
NMTAP	88	80	7
NMTAP	88	144	0
NMTAP	88	144	5
NMTAP	88	336	4
NMTAP	88	336	5
NMTAP	89	16	4
NMTAP	89	16	5
NMTAP	89	80	4
NMTAP	89	80	5
NMTAP	89	144	3
NMTAP	89	144	6
NMTAP	89	336	4
NMTAP	89	336	5
NMTAP	90	16	4
NMTAP	90	16	5
NMTAP	90	80	4
NMTAP	90	80	5
NMTAP	90	144	3
NMTAP	90	144	6
NMTAP	90	336	6
NMTAP	90	336	7
NMTAP	91	16	6
NMTAP	91	16	7
NMTAP	91	80	6
NMTAP	91	80	7
NMTAP	91	144	0
NMTAP	91	144	5
NMTAP	91	336	0
NMTAP	91	336	1
NMTAP	92	16	0
NMTAP	92	16	1
NMTAP	92	80	0
NMTAP	92	80	1
NMTAP	92	144	2
NMTAP	92	144	7
NMTAP	92	336	2
NMTAP	92	336	3
NMTAP	93	16	2
NMTAP	93	16	3
NMTAP	93	80	2
NMTAP	93	80	3
BRTAP	93	144	1
BRTAP	93	144	4
EXSTR	93	336	0
NMSXL	93	336	0	192	768	3
EXSTR	93	336	7
NMSXR	93	336	7	192	768	4

T_REC_TAP	340
T_REC_BRK	4
T_REC_XTP	16
T_REC_BXX	4
T_REC_HLD	12
T_REC_XHO	6
T_REC_BHO	0
T_REC_BXH	0
T_REC_STR	0
T_REC_BST	0
T_REC_XST	10
T_REC_XBS	0
T_REC_TTP	34
T_REC_THO	0
T_REC_SLD	10
T_REC_BSL	0
T_REC_ALL	436
T_NUM_TAP	400
T_NUM_BRK	8
T_NUM_HLD	18
T_NUM_SLD	10
T_NUM_ALL	436
T_JUDGE_TAP	408
T_JUDGE_HLD	90
T_JUDGE_SLD	10
T_JUDGE_ALL	508
TTM_EACHPAIRS	115
TTM_SCR_TAP	200000
TTM_SCR_BRK	20800
TTM_SCR_HLD	18000
TTM_SCR_SLD	15000
TTM_SCR_ALL	253800
TTM_SCR_S	245450
TTM_SCR_SS	253000
TTM_RAT_ACV	10031

