VERSION	0.00.00	1.04.00
FES_MODE	0
BPM_DEF	220.500	147.000	220.500	147.000
MET_DEF	4	4
RESOLUTION	384
CLK_DEF	576
COMPATIBLE_CODE	MA2

BPM	0	0	220.500
BPM	1	192	147.000
MET	0	0	4	6
MET	1	192	4	4
MET	36	192	4	3
MET	39	192	8	7
MET	43	0	8	11
MET	44	144	8	13
MET	47	240	8	10
MET	48	336	4	4
MET	93	336	4	2
MET	94	144	4	4

NMTAP	2	192	0
NMTAP	3	0	0
NMTAP	3	192	0
NMTAP	4	192	7
NMTAP	5	0	7
NMTAP	5	192	7
NMTAP	6	192	0
NMTAP	7	0	0
NMTAP	7	192	0
NMTAP	8	192	7
NMTAP	9	0	7
NMTAP	9	192	0
NMTAP	9	192	7
NMTAP	10	192	7
NMTAP	11	0	7
NMTAP	11	192	6
NMTAP	12	0	6
NMTAP	12	192	5
NMTAP	13	0	5
NMTAP	13	192	4
NMTAP	13	192	5
NMTAP	14	192	3
NMTAP	15	0	3
NMTAP	15	192	2
NMTAP	16	0	2
NMTAP	16	192	1
NMTAP	17	0	1
NMTAP	17	192	0
NMTAP	17	192	1
NMHLD	18	192	0	384
NMHLD	18	192	7	384
NMTAP	20	192	0
NMTAP	20	256	0
NMTAP	20	320	0
NMTAP	21	192	1
NMTAP	21	256	1
NMTAP	21	320	1
NMTAP	22	192	2
NMTAP	22	256	2
NMTAP	22	320	2
NMTAP	23	192	3
NMTAP	23	256	3
NMTAP	23	320	3
NMTAP	24	192	4
NMTAP	24	256	4
NMTAP	24	320	4
NMTAP	25	192	5
NMTAP	25	256	5
NMTAP	25	320	5
NMTAP	26	192	6
NMTAP	26	256	6
NMTAP	26	320	6
NMTAP	27	192	6
NMTAP	27	192	7
NMTAP	28	192	7
NMTAP	28	256	7
NMTAP	28	320	7
NMTAP	29	192	6
NMTAP	29	192	7
NMTAP	30	0	6
NMTAP	30	0	7
NMTAP	30	192	5
NMTAP	30	256	5
NMTAP	30	320	5
NMTAP	31	192	3
NMTAP	31	192	4
NMTAP	32	0	3
NMTAP	32	0	4
NMTAP	32	192	2
NMTAP	32	256	2
NMTAP	32	320	2
NMTAP	33	192	2
NMTAP	33	192	3
NMTAP	34	0	2
NMTAP	34	0	3
NMTAP	34	192	1
NMTAP	34	256	1
NMTAP	34	320	1
NMTAP	35	192	0
NMTAP	35	192	7
NMHLD	36	192	0	288
NMHLD	36	192	1	288
NMHLD	38	0	2	288
NMHLD	38	0	3	288
NMHLD	39	192	4	336
NMHLD	39	192	5	336
NMHLD	41	96	6	336
NMHLD	41	96	7	336
NMTTP	43	0	4	B	0	L1
NMTTP	43	0	5	B	0	L1
NMTTP	43	0	6	E	0	L1
NMTTP	44	144	2	B	0	L1
NMTTP	44	144	2	E	0	L1
NMTTP	44	144	3	B	0	L1
NMTHO	46	0	0	720	C	0	L1
NMTTP	46	0	1	B	0	L1
NMTTP	46	0	6	B	0	L1
NMTAP	48	336	7
NMTAP	49	144	7
NMTAP	49	336	6
NMTAP	49	336	7
NMTAP	50	336	0
NMTAP	51	144	0
NMTAP	51	336	0
NMTAP	51	336	1
NMTAP	52	336	0
NMTAP	52	336	7
NMSTR	53	336	0
NMSI_	53	336	0	192	288	5
NMSTR	55	336	6
NMSI_	55	336	6	192	272	3
NMSTR	57	336	2
NMSI_	57	336	2	192	272	7
NMSTR	59	336	6
NMSI_	59	336	6	192	272	2
BRTAP	61	336	0
NMTAP	62	16	0
NMTAP	62	144	1
NMTAP	62	336	2
NMTAP	63	16	2
NMTAP	63	144	3
NMTAP	63	336	4
NMTAP	64	16	4
NMTAP	64	144	5
NMTAP	64	336	6
NMTAP	65	16	6
NMTAP	65	144	7
NMTAP	65	336	7
NMTAP	66	16	7
NMTAP	66	144	6
NMTAP	66	336	5
NMTAP	67	16	5
NMTAP	67	144	4
NMTAP	67	336	3
NMTAP	68	16	3
NMTAP	68	144	2
NMTAP	68	336	1
NMTAP	69	16	1
NMTAP	69	144	0
BRTAP	69	336	0
NMTAP	70	16	0
NMTAP	70	144	1
NMTAP	70	208	1
NMTAP	70	336	2
NMTAP	71	16	2
NMTAP	71	144	3
NMTAP	71	208	3
NMTAP	71	336	4
NMTAP	72	16	4
NMTAP	72	144	5
NMTAP	72	208	5
NMTAP	72	336	6
NMTAP	73	16	6
NMTAP	73	144	7
NMTAP	73	208	7
NMTAP	73	336	7
NMTAP	74	16	7
NMTAP	74	144	6
NMTAP	74	208	6
NMTAP	74	336	5
NMTAP	75	16	5
NMTAP	75	144	4
NMTAP	75	208	4
NMTAP	75	336	3
NMTAP	76	16	3
NMTAP	76	144	2
NMTAP	76	208	2
NMTAP	76	336	1
NMTAP	77	16	1
NMTAP	77	144	0
NMTAP	77	208	0
BRTAP	77	336	0
NMTAP	78	16	0
NMTAP	78	80	0
NMTAP	78	144	0
NMTAP	78	336	1
NMTAP	79	16	1
NMTAP	79	80	1
NMTAP	79	144	1
NMTAP	79	336	2
NMTAP	80	16	2
NMTAP	80	80	2
NMTAP	80	144	2
NMTAP	80	336	3
NMTAP	81	16	3
NMTAP	81	80	3
NMTAP	81	144	3
NMTAP	81	336	4
NMTAP	82	16	4
NMTAP	82	80	4
NMTAP	82	144	4
NMTAP	82	336	5
NMTAP	83	16	5
NMTAP	83	80	5
NMTAP	83	144	5
NMTAP	83	336	6
NMTAP	84	16	6
NMTAP	84	80	6
NMTAP	84	144	6
NMTAP	84	336	7
NMTAP	85	16	7
NMTAP	85	80	7
NMTAP	85	144	7
NMTAP	85	336	6
NMTAP	86	16	6
NMTAP	86	80	6
NMTAP	86	144	6
NMTAP	86	144	7
NMTAP	86	336	5
NMTAP	87	16	5
NMTAP	87	80	5
NMTAP	87	144	4
NMTAP	87	144	5
NMTAP	87	336	2
NMTAP	88	16	2
NMTAP	88	80	2
NMTAP	88	144	2
NMTAP	88	144	3
NMTAP	88	336	1
NMTAP	89	16	1
NMTAP	89	80	1
NMTAP	89	144	0
NMTAP	89	144	1
NMTAP	89	336	1
NMTAP	90	16	1
NMTAP	90	80	1
NMTAP	90	144	0
NMTAP	90	144	1
NMTAP	90	336	2
NMTAP	91	16	2
NMTAP	91	80	2
NMTAP	91	144	3
NMTAP	91	144	4
NMTAP	91	336	5
NMTAP	92	16	5
NMTAP	92	80	5
NMTAP	92	144	4
NMTAP	92	144	5
NMTAP	92	336	6
NMTAP	93	16	6
NMTAP	93	80	6
NMHLD	93	144	0	192
NMHLD	93	144	7	192
NMTAP	94	144	0
NMTAP	94	144	7
NMTAP	94	208	0
NMTAP	94	208	7
NMTAP	94	336	1
NMTAP	94	336	6
NMTAP	95	16	1
NMTAP	95	16	6
NMTAP	95	144	2
NMTAP	95	144	5
NMTAP	95	208	2
NMTAP	95	208	5
NMTAP	95	336	3
NMTAP	95	336	4
NMTAP	96	16	3
NMTAP	96	16	4
BRTAP	96	144	3
BRTAP	96	144	4

T_REC_TAP	227
T_REC_BRK	5
T_REC_XTP	0
T_REC_BXX	0
T_REC_HLD	12
T_REC_XHO	0
T_REC_BHO	0
T_REC_BXH	0
T_REC_STR	4
T_REC_BST	0
T_REC_XST	0
T_REC_XBS	0
T_REC_TTP	8
T_REC_THO	1
T_REC_SLD	4
T_REC_BSL	0
T_REC_ALL	261
T_NUM_TAP	239
T_NUM_BRK	5
T_NUM_HLD	13
T_NUM_SLD	4
T_NUM_ALL	261
T_JUDGE_TAP	244
T_JUDGE_HLD	91
T_JUDGE_SLD	4
T_JUDGE_ALL	339
TTM_EACHPAIRS	36
TTM_SCR_TAP	119500
TTM_SCR_BRK	13000
TTM_SCR_HLD	13000
TTM_SCR_SLD	6000
TTM_SCR_ALL	151500
TTM_SCR_S	146500
TTM_SCR_SS	151000
TTM_RAT_ACV	10033

