VERSION	0.00.00	1.04.00
FES_MODE	0
BPM_DEF	180.000	180.000	180.000	180.000
MET_DEF	4	4
RESOLUTION	384
CLK_DEF	384
COMPATIBLE_CODE	MA2

BPM	0	0	180.000
MET	0	0	4	4

NMTAP	1	0	3
NMHLD	1	6	4	2874
NMTTP	2	192	3	A	0	M1
NMTTP	2	192	4	E	0	M1
NMTTP	3	0	2	E	0	M1
NMTTP	3	12	2	B	0	M1
NMTTP	4	192	3	B	0	M1
NMTTP	4	192	4	B	0	M1
NMTTP	5	0	6	E	0	M1
NMTTP	5	12	6	B	0	M1
NMTTP	6	192	0	C	0	M1
NMTTP	7	0	1	B	0	M1
NMTTP	7	12	2	E	0	M1
NMTTP	8	192	4	E	0	M1
NMTTP	9	0	3	E	0	M1
NMTAP	9	0	5
NMTAP	9	48	4
NMTAP	9	96	3
NMTAP	9	144	2
NMTTP	9	192	1	B	0	M1
NMTTP	9	192	2	E	0	M1
NMTAP	9	192	5
NMTAP	9	240	4
NMTAP	9	288	3
NMTAP	9	336	2
NMTAP	10	0	5
NMTAP	10	48	4
NMTAP	10	96	3
NMTAP	10	144	2
NMTTP	10	192	1	E	0	M1
NMTAP	10	192	5
NMTAP	10	240	4
NMTAP	10	288	3
NMTAP	10	336	2
NMTTP	11	0	2	E	0	M1
NMTTP	11	0	2	D	0	M1
NMTAP	11	0	5
NMTAP	11	48	4
NMTAP	11	96	3
NMTAP	11	144	2
NMTAP	11	192	5
NMTAP	11	240	4
NMTAP	11	288	3
NMTAP	11	336	2
NMTTP	12	0	3	E	0	M1
NMTAP	12	0	5
NMTAP	12	48	4
NMTAP	12	96	3
NMTAP	12	144	2
NMTAP	12	192	5
NMTAP	12	240	4
NMTAP	12	288	3
NMTAP	12	336	2
NMTTP	13	0	2	B	0	M1
NMTAP	13	0	5
NMTAP	13	48	4
NMTAP	13	96	3
NMTAP	13	144	2
NMTAP	13	192	5
NMTAP	13	240	4
NMTAP	13	288	3
NMTAP	13	336	2
NMTAP	14	0	5
NMTAP	14	48	4
NMTAP	14	96	3
NMTAP	14	144	2
NMTTP	14	192	1	B	0	M1
NMTTP	14	192	2	E	0	M1
NMTAP	14	192	5
NMTAP	14	240	4
NMTAP	14	288	3
NMTAP	14	336	2
NMTHO	15	0	0	384	C	0	M1
NMSTR	15	0	5
NMSCR	15	0	5	96	288	2
CNSCL	16	0	2	0	384	5
BXHLD	17	0	4	288
BXHLD	17	336	5	144
NMHLD	17	336	6	144
BXHLD	18	144	6	96
NMHLD	18	144	7	96
NMTAP	18	288	5
NMTAP	18	288	6
NMHLD	19	0	2	288
BXHLD	19	0	3	288
NMHLD	19	336	1	144
BXHLD	19	336	2	144
NMHLD	20	144	0	96
BXHLD	20	144	1	96
NMTAP	20	288	1
NMTAP	20	288	2
NMHLD	21	0	4	96
BRHLD	21	0	5	240
NMTAP	21	240	4
BRHLD	21	336	5	96
NMHLD	21	336	6	48
BXHLD	22	144	1	96
NMTAP	22	144	7
BXTAP	22	240	0
NMHLD	22	288	0	96
BRHLD	23	0	2	96
BRHLD	23	144	2	96
EXTAP	23	144	4
NMSTR	23	240	3
NMSI_	23	240	3	96	48	5
BRSTR	23	336	1
NMSI_	23	336	1	96	48	3
NMTTP	24	48	7	B	0	M1
NMHLD	24	144	6	96
NMTAP	24	240	0
NMTAP	24	264	7
NMSTR	24	288	0
BRSI_	24	288	0	96	48	3
BRSI_	24	288	0	96	48	5
EXTAP	25	0	0
NMTAP	25	96	2
NMTAP	25	96	6
NMTAP	25	144	2
NMSTR	25	144	6
NMSCR	25	144	6	96	96	1
NMSTR	25	240	1
NMSCL	25	240	1	96	96	6
NMTAP	25	288	2
NMTAP	25	336	3
NMTAP	26	48	4
NMTAP	26	96	4
NMTAP	26	144	4
NMSTR	26	144	5
NMSI_	26	144	5	96	48	2
NMTAP	26	240	4
CNSI_	26	288	2	0	48	0
NMTAP	26	288	3
NMSTR	27	0	2
NMSI_	27	0	2	96	48	4
NMTAP	27	96	7
NMSTR	27	144	7
NMSV_	27	144	7	96	96	5
NMSTR	27	240	5
NMSV_	27	240	5	96	96	3
NMTAP	27	336	1
NMTAP	28	48	2
NMSTR	28	96	2
NMSCL	28	96	2	96	96	7
NMTAP	28	192	3
NMTAP	28	288	4
CNSCR	28	288	7	0	96	2
NMSTR	29	0	5
NMSI_	29	0	5	96	48	7
CNSI_	29	144	7	0	48	1
CNSI_	29	192	1	0	48	3
NMSTR	29	192	4
NMSCR	29	192	4	96	96	2
NMSTR	30	0	3
NMSI_	30	0	3	96	48	7
NMTAP	30	96	1
NMSTR	30	144	1
NMSI_	30	144	1	96	48	3
NMTAP	30	240	0
NMSTR	30	288	0
NMSI_	30	288	0	96	48	4
BRSTR	31	0	2
NMSI_	31	0	2	96	48	0
CNSI_	31	144	0	0	48	6
NMSTR	31	192	3
NMSCL	31	192	3	96	96	5
CNSI_	31	192	6	0	48	4
NMSTR	32	0	4
NMSI_	32	0	4	96	48	0
NMTAP	32	96	6
NMSTR	32	144	6
NMSI_	32	144	6	96	48	4
NMTAP	32	240	7
NMSTR	32	288	7
BRSI_	32	288	7	96	48	3
BRSCR	32	288	7	96	24	0
CNSI_	33	24	0	0	24	2
NMTAP	33	96	4
NMSTR	33	144	4
NMSUR	33	144	4	96	96	2
NMSTR	33	240	2
NMSCL	33	240	2	96	96	0
NMHLD	33	336	3	240
NMSTR	34	192	0
NMSI_	34	192	0	96	48	4
NMTAP	34	240	0
NMTAP	34	288	1
NMSTR	35	0	0
NMSCL	35	0	0	96	48	6
NMTAP	35	0	3
NMTAP	35	96	5
NMSTR	35	144	5
NMSUR	35	144	5	96	96	3
NMSTR	35	240	3
NMSUL	35	240	3	96	96	7
NMTAP	35	336	5
NMTAP	36	48	4
NMSTR	36	96	4
BRSCR	36	96	4	96	96	7
NMSTR	36	192	7
BRSCR	36	192	7	96	96	2
NMTAP	36	288	4
NMSTR	37	0	5
NMSI_	37	0	5	96	48	7
CNSI_	37	144	7	0	48	1
CNSI_	37	192	1	0	48	3
NMSTR	37	192	4
NMSCR	37	192	4	96	96	2
NMSTR	38	0	3
NMSI_	38	0	3	96	48	7
NMTAP	38	96	1
NMSTR	38	144	1
NMSI_	38	144	1	96	48	3
NMTAP	38	240	0
NMSTR	38	288	0
NMSI_	38	288	0	96	48	4
BRSTR	39	0	2
NMSI_	39	0	2	96	48	0
CNSI_	39	144	0	0	48	6
NMSTR	39	192	3
NMSCL	39	192	3	96	96	5
CNSI_	39	192	6	0	48	4
NMSTR	40	0	4
NMSI_	40	0	4	96	48	0
NMTAP	40	96	5
NMHLD	40	144	5	96
NMTAP	40	240	1
BRTAP	40	288	3
BRTAP	40	288	7
NMHLD	41	0	6	48
NMTAP	41	48	4
NMHLD	41	72	6	48
NMTAP	41	120	4
NMTAP	41	144	6
NMTTP	41	192	4	B	0	M1
NMTTP	41	192	5	B	0	M1
NMHLD	41	288	7	48
NMTAP	41	336	3
NMHLD	41	360	7	48
NMTAP	42	24	4
NMHLD	42	48	7	48
NMTAP	42	96	5
NMSTR	42	120	7
NMSLL	42	120	7	96	72	2
NMTAP	42	240	2
NMTAP	42	264	1
NMTAP	42	288	0
NMHLD	43	0	1	48
NMTAP	43	48	3
NMHLD	43	72	1	48
NMTAP	43	120	2
NMTAP	43	144	1
NMTTP	43	192	4	B	0	M1
NMTTP	43	192	4	E	0	M1
NMHLD	43	288	0	48
NMTAP	43	336	3
NMHLD	43	360	0	48
NMTAP	44	24	2
NMHLD	44	48	0	48
NMTAP	44	96	1
NMSTR	44	120	0
BRSI_	44	120	0	96	48	4
BRTAP	44	240	7
NMHLD	45	0	5	48
NMTAP	45	48	3
NMHLD	45	72	6	48
NMTAP	45	120	4
NMHLD	45	144	7	48
NMTTP	45	192	7	B	0	M1
NMTTP	45	192	7	E	0	M1
NMHLD	45	288	1	48
NMTAP	45	336	0
NMHLD	45	360	1	48
NMTAP	46	24	0
NMHLD	46	48	1	48
NMTAP	46	96	2
NMHLD	46	120	1	48
NMTAP	46	168	0
BRSTR	46	192	1
NMSCR	46	192	1	96	24	2
CNSI_	46	312	2	0	24	5
NMHLD	47	0	6	48
NMTAP	47	48	7
NMHLD	47	72	5	48
NMTAP	47	120	0
NMTAP	47	144	4
NMTAP	47	192	1
NMTAP	47	192	3
NMTAP	47	240	1
NMTAP	47	240	3
NMHLD	47	288	2	48
NMTAP	47	336	4
NMHLD	47	360	1	48
NMTAP	48	24	3
NMHLD	48	48	1	48
NMTAP	48	96	2
NMHLD	48	120	1	48
NMTAP	48	168	0
NMTAP	48	192	1
NMTAP	48	240	2
NMTAP	48	240	7
NMTAP	48	336	2
NMTAP	48	360	3
NMSTR	49	0	1
NMSLL	49	0	1	96	96	5
NMHLD	49	0	4	48
NMHLD	49	72	4	48
NMTAP	49	144	4
EXSTR	49	192	4
NMSCR	49	192	4	96	144	1
NMHLD	49	288	2	48
NMHLD	49	360	2	48
NMHLD	50	48	2	48
BXTAP	50	120	2
NMTAP	50	192	0
NMTAP	50	192	1
NMTAP	50	240	0
NMTAP	50	240	1
NMTAP	50	288	0
NMTAP	50	288	1
NMTAP	50	336	1
NMTAP	50	360	0
NMSTR	51	0	2
NMSLR	51	0	2	96	96	6
NMHLD	51	0	7	48
NMHLD	51	72	7	48
NMTAP	51	144	7
EXSTR	51	192	7
NMSCL	51	192	7	96	96	2
NMHLD	51	288	1	48
NMHLD	51	360	1	48
NMHLD	52	48	1	48
BXTAP	52	120	0
BXTAP	52	120	1
NMTAP	52	192	6
NMTAP	52	216	7
BRSTR	52	240	0
NMSF_	52	240	0	96	48	4
BRTAP	52	240	5
BRTAP	52	336	0
NMTTP	53	160	5	B	0	M1
NMTTP	53	192	6	B	0	M1
NMTTP	53	224	7	B	0	M1
NMTTP	53	256	1	B	0	M1
NMTTP	53	288	2	B	0	M1
NMTTP	53	320	3	B	0	M1
NMTTP	53	352	5	E	0	M1
NMTTP	54	0	6	E	0	M1
NMTTP	54	32	7	E	0	M1
NMTTP	54	64	1	E	0	M1
NMTTP	54	96	2	E	0	M1
NMTTP	54	128	3	E	0	M1
NMTTP	54	160	4	A	0	M1
NMTTP	54	192	5	A	0	M1
NMTTP	54	224	6	A	0	M1
NMTAP	54	256	0
NMTAP	54	288	0
NMTAP	54	320	7
NMTAP	54	352	7
BRHLD	55	0	0	72
BRTAP	55	0	6
NMTAP	55	96	7
NMTAP	55	120	6
NMTAP	55	144	5
NMTAP	55	168	4
NMTAP	55	192	0
NMTAP	55	216	1
NMTAP	55	240	2
NMTAP	55	264	3
NMTAP	55	288	7
NMTAP	55	312	6
BRHLD	55	336	4	96
BRHLD	55	336	5	96
NMTAP	56	144	3
NMTAP	56	144	4
NMTAP	56	192	2
NMTAP	56	192	5
NMSTR	56	240	1
BRSCR	56	240	1	96	168	7
NMSTR	56	240	6
BRSCL	56	240	6	96	168	0
NMTAP	56	288	0
NMTAP	56	288	7
EXTAP	56	336	1
EXTAP	56	336	6
BXTAP	57	192	0
BXTAP	57	192	7
NMTAP	57	204	1
NMTAP	57	204	6
NMTAP	57	216	2
NMTAP	57	216	5
NMTAP	57	228	3
NMTAP	57	228	4
NMTAP	57	288	2
NMTAP	57	288	5
NMTAP	57	336	2
NMSTR	57	336	5
NMSCR	57	336	5	96	96	1
NMTAP	58	48	1
NMTAP	58	96	2
NMSTR	58	144	3
NMSI_	58	144	3	96	48	7
NMTAP	58	192	4
NMTAP	58	240	5
NMTAP	58	288	4
CNSI_	58	288	7	0	48	5
NMHLD	58	336	3	96
NMSTR	59	48	6
NMSI_	59	48	6	96	48	1
NMTAP	59	96	0
NMHLD	59	144	3	96
NMSTR	59	144	6
NMSI_	59	144	6	96	48	4
NMSTR	59	240	6
NMSCR	59	240	6	96	144	4
BRTAP	59	336	3
BRTAP	59	336	6
NMTAP	60	96	7
NMTAP	60	120	0
NMSTR	60	144	1
NMSUR	60	144	1	96	48	5
EXTAP	60	240	0
NMTAP	60	240	1
EXTAP	60	336	4
EXTAP	60	336	7
NMSTR	61	48	6
NMSI_	61	48	6	96	48	4
NMTAP	61	72	7
NMSTR	61	96	6
NMSI_	61	96	6	96	48	0
NMSTR	61	144	6
NMSI_	61	144	6	96	48	2
NMTAP	61	288	1
NMSTR	61	336	1
NMSI_	61	336	1	96	48	3
NMSI_	61	336	1	96	48	4
NMTAP	62	48	1
NMTAP	62	144	7
NMTAP	62	192	4
NMTAP	62	192	6
NMTAP	62	240	3
NMTAP	62	240	5
NMTAP	62	288	2
NMTAP	62	312	3
NMSTR	62	336	1
NMSI_	62	336	1	96	48	5
NMTAP	63	48	0
NMTAP	63	96	0
CNSI_	63	96	5	0	48	1
NMTAP	63	120	7
NMSTR	63	144	6
NMSCL	63	144	6	96	48	3
NMSTR	63	240	0
NMSCR	63	240	0	96	48	3
NMTAP	63	240	6
NMTAP	63	336	0
NMSTR	63	336	7
NMSI_	63	336	7	96	48	3
BRTAP	64	96	1
CNSI_	64	96	3	0	48	5
NMTAP	64	144	2
CNSI_	64	144	5	0	48	1
EXTAP	64	192	3
EXTAP	64	240	0
NMTAP	64	288	7
BRTAP	64	336	4
NMSTR	64	336	6
NMSLL	64	336	6	96	96	0
NMTAP	65	96	3
NMTAP	65	120	2
NMSTR	65	144	1
NMSLL	65	144	1	96	96	5
NMTAP	65	288	2
NMTAP	65	312	3
NMSTR	65	336	4
NMSLR	65	336	4	96	96	0
NMTAP	66	96	3
NMTAP	66	120	2
NMHLD	66	144	1	96
NMTAP	66	240	0
NMTAP	66	288	3
NMTAP	66	288	7
NMTAP	66	336	4
NMSTR	66	336	6
NMSLR	66	336	6	96	96	4
NMTAP	67	96	1
NMTAP	67	120	2
NMSTR	67	144	3
NMSLR	67	144	3	96	96	1
NMTAP	67	288	0
NMTAP	67	312	7
NMSTR	67	336	6
NMSLL	67	336	6	96	96	0
NMTAP	68	96	1
NMTAP	68	120	2
NMHLD	68	144	3	96
NMSTR	68	240	7
NMSCL	68	240	7	96	48	4
NMSCR	68	240	7	96	48	2
BRTAP	68	336	7
NMTAP	69	96	2
NMTAP	69	96	3
NMTAP	69	144	2
NMSTR	69	144	3
BRSI_	69	144	3	96	48	5
NMSTR	69	240	1
BRSI_	69	240	1	96	48	7
NMTAP	69	240	3
NMTAP	69	336	1
BRTAP	69	336	6
NMTAP	70	96	6
NMTAP	70	96	7
NMSTR	70	144	0
NMSCR	70	144	0	96	48	2
NMSTR	70	144	5
NMSCR	70	144	5	96	48	7
NMTAP	70	240	0
NMTAP	70	240	5
BRTAP	70	336	0
BRTAP	70	336	3
NMTAP	71	48	1
NMTAP	71	48	2
NMTAP	71	96	0
NMTAP	71	96	3
NMHLD	71	144	4	96
NMHLD	71	144	7	96
NMTAP	71	288	4
NMTAP	71	288	7
NMSTR	71	336	1
NMSI_	71	336	1	96	48	6
NMTAP	71	336	2
NMTAP	72	48	2
NMTAP	72	96	3
CNSI_	72	96	6	0	48	2
NMSTR	72	144	4
NMSI_	72	144	4	96	48	0
NMSI_	72	144	4	96	48	1
NMTAP	72	240	4
BRTAP	72	336	2
BRTAP	72	336	7
NMTAP	73	48	1
NMTAP	73	72	0
NMTAP	73	96	1
NMTAP	73	120	0
NMTAP	73	144	1
NMTAP	73	168	0
NMTAP	73	192	2
NMTAP	73	216	7
NMTAP	73	240	2
NMTAP	73	264	7
NMTAP	73	288	3
NMTAP	73	312	6
NMTAP	73	336	3
NMTAP	73	360	6
NMTAP	74	0	3
NMTAP	74	24	2
NMTAP	74	48	1
NMTAP	74	72	0
NMTAP	74	96	6
NMTAP	74	120	5
NMTAP	74	144	4
NMTAP	74	168	3
NMTAP	74	192	7
NMTAP	74	216	0
NMTAP	74	240	1
NMTAP	74	264	2
NMTAP	74	288	5
NMTAP	74	312	6
NMTAP	74	336	7
NMHLD	74	360	0	48
NMTAP	74	360	2
NMTAP	75	48	1
NMTAP	75	72	7
NMTAP	75	96	1
NMTAP	75	120	7
NMTAP	75	144	1
NMTAP	75	168	7
NMTAP	75	192	0
NMTAP	75	216	6
NMTAP	75	240	0
NMTAP	75	264	6
NMTAP	75	288	7
NMTAP	75	312	5
NMTAP	75	336	7
NMTAP	75	360	5
NMTAP	76	0	0
NMTAP	76	24	1
NMTAP	76	48	2
NMTAP	76	72	3
NMTAP	76	96	0
NMTAP	76	120	1
NMTAP	76	144	2
NMTAP	76	168	3
NMTAP	76	192	7
NMTAP	76	216	6
NMTAP	76	240	5
NMTAP	76	264	4
NMTAP	76	288	3
NMTAP	76	312	2
BRTAP	76	336	1
BRTAP	76	336	7
NMTAP	77	24	0
NMTAP	77	24	6
NMTAP	77	48	1
NMTAP	77	72	2
NMTAP	77	96	4
NMTAP	77	120	5
NMTAP	77	144	6
NMTAP	77	168	7
NMTAP	77	192	1
NMTAP	77	216	2
NMTAP	77	240	6
NMTAP	77	264	5
NMTAP	77	288	2
NMTAP	77	312	3
NMTAP	77	336	5
NMTAP	77	360	4
NMTAP	78	0	2
NMTAP	78	24	1
NMTAP	78	48	0
NMTAP	78	72	7
NMTAP	78	96	3
NMTAP	78	120	4
NMTAP	78	144	5
NMTAP	78	168	6
NMTAP	78	192	1
NMTAP	78	192	7
NMTAP	78	216	2
NMTAP	78	240	3
NMTAP	78	264	4
NMTAP	78	288	5
NMTAP	78	312	6
NMTAP	78	336	7
NMTAP	78	360	0
NMTAP	79	0	1
NMTTP	79	0	7	A	0	M1
NMTTP	79	24	7	E	0	M1
NMTTP	79	48	6	E	0	M1
NMTTP	79	72	5	A	0	M1
NMTTP	79	96	0	A	0	M1
NMTTP	79	120	1	E	0	M1
NMTTP	79	144	2	E	0	M1
NMTTP	79	168	2	A	0	M1
NMTTP	79	192	4	D	0	M1
NMTTP	79	216	3	D	0	M1
NMTTP	79	240	2	D	0	M1
NMTTP	79	264	1	D	0	M1
NMTTP	79	288	0	D	0	M1
NMTTP	79	312	7	D	0	M1
NMTTP	79	336	6	D	0	M1
NMTTP	79	360	5	D	0	M1
NMTAP	80	0	0
NMTAP	80	24	1
NMTAP	80	48	2
NMTAP	80	72	3
NMTAP	80	96	0
NMTAP	80	96	4
NMTAP	80	120	1
NMTAP	80	144	2
NMTAP	80	168	3
NMTAP	80	192	4
NMTAP	80	192	7
NMTAP	80	216	6
NMTAP	80	240	5
NMTAP	80	264	4
NMTAP	80	288	3
NMTAP	80	312	2
BRTAP	80	336	1
BRTAP	80	336	7
NMTAP	81	24	0
NMTAP	81	48	0
NMTAP	81	72	6
NMTAP	81	96	6
NMTAP	81	144	1
NMTAP	81	144	5
NMTAP	81	192	2
NMTAP	81	216	4
NMTAP	81	240	2
NMTAP	81	264	3
NMTAP	81	288	2
NMTAP	81	312	4
BRTAP	81	336	1
BRTAP	81	336	5
NMTAP	82	24	1
NMTAP	82	48	0
NMTAP	82	72	2
NMTAP	82	96	0
NMTAP	82	120	1
NMTAP	82	144	0
NMTAP	82	168	1
NMTAP	82	192	0
NMTAP	82	216	7
NMTAP	82	240	6
NMTAP	82	264	5
NMTAP	82	288	3
NMTAP	82	312	2
BXSTR	82	336	1
BRSCR	82	336	1	96	48	3
BXSTR	82	336	4
NMSCR	82	336	4	96	48	6
CNSI_	83	96	3	0	48	7
NMTAP	83	192	6
NMTAP	83	216	0
NMTAP	83	240	6
NMTAP	83	264	0
NMTAP	83	288	5
NMTAP	83	312	1
BRTAP	83	336	0
BRTAP	83	336	6
NMTAP	84	24	1
NMTAP	84	48	2
NMTAP	84	72	3
NMTAP	84	96	4
NMTAP	84	120	5
NMTAP	84	144	6
NMTAP	84	168	7
NMTAP	84	192	0
NMTAP	84	192	5
NMTAP	84	216	4
NMTAP	84	240	3
NMTAP	84	264	2
NMSTR	84	288	1
NMSI_	84	288	1	96	48	4
NMTAP	84	312	0
NMTAP	84	312	4
NMTAP	84	336	3
NMTAP	84	336	7
NMTAP	84	360	2
NMTAP	84	360	6
EXTAP	85	0	1
NMSTR	85	0	5
NMSI_	85	0	5	96	48	0
NMSTR	85	96	2
NMSI_	85	96	2	96	48	7
NMTAP	85	96	5
NMTAP	85	192	2
NMSTR	85	192	6
NMSI_	85	192	6	96	48	3
NMSTR	85	288	1
BRSI_	85	288	1	96	48	4
NMTAP	85	288	6
BRTAP	85	336	2
NMTAP	86	0	1
NMSTR	86	0	5
BRSCR	86	0	5	96	48	0
NMSTR	86	96	3
BRSI_	86	96	3	96	48	7
NMTAP	86	96	5
NMTAP	86	192	3
NMSTR	86	192	4
BRSI_	86	192	4	96	48	0
NMTAP	86	288	1
NMTAP	86	288	4
NMTAP	86	336	1
BRTAP	87	0	1
BRTAP	87	0	7
NMTAP	87	48	1
NMTAP	87	48	7
NMTAP	87	96	0
NMTAP	87	96	2
NMTAP	87	144	0
NMTAP	87	144	2
BRTAP	87	192	1
BRTAP	87	192	7
NMTAP	87	240	0
NMTAP	87	240	6
NMTAP	87	288	5
NMTAP	87	288	7
NMTAP	87	336	5
NMTAP	87	336	7
BRTAP	88	0	0
NMTAP	88	24	4
NMTAP	88	48	0
NMTAP	88	72	4
NMTAP	88	96	1
NMTAP	88	120	3
NMTAP	88	144	2
NMTAP	88	168	4
BRTAP	88	192	7
NMTAP	88	216	6
NMTAP	88	240	4
NMTAP	88	264	5
NMTAP	88	288	1
NMTAP	88	312	0
BRTAP	88	336	2
BRSTR	88	336	7
NMSCL	88	336	7	96	720	0
CNSSL	91	0	0	0	576	4
NMTAP	92	336	3
NMHLD	92	336	5	240
NMHLD	93	192	4	144
NMHLD	93	336	3	240
NMTAP	94	192	2
NMTAP	94	216	1
NMSTR	94	240	0
BRSI_	94	240	0	96	48	4
NMTAP	94	264	7
NMTAP	94	288	6
NMTAP	94	312	5
BRTAP	94	336	0
NMSTR	94	336	4
NMSSL	94	336	4	96	336	0
CNSSR	96	0	0	0	384	4

T_REC_TAP	423
T_REC_BRK	33
T_REC_XTP	10
T_REC_BXX	6
T_REC_HLD	55
T_REC_XHO	0
T_REC_BHO	7
T_REC_BXH	7
T_REC_STR	77
T_REC_BST	6
T_REC_XST	2
T_REC_XBS	2
T_REC_TTP	60
T_REC_THO	1
T_REC_SLD	75
T_REC_BSL	17
T_REC_ALL	781
T_NUM_TAP	572
T_NUM_BRK	78
T_NUM_HLD	56
T_NUM_SLD	75
T_NUM_ALL	781
T_JUDGE_TAP	619
T_JUDGE_HLD	198
T_JUDGE_SLD	92
T_JUDGE_ALL	909
TTM_EACHPAIRS	98
TTM_SCR_TAP	286000
TTM_SCR_BRK	202800
TTM_SCR_HLD	56000
TTM_SCR_SLD	112500
TTM_SCR_ALL	657300
TTM_SCR_S	630050
TTM_SCR_SS	649500
TTM_RAT_ACV	10120

