VERSION	0.00.00	1.04.00
FES_MODE	0
BPM_DEF	180.000	180.000	180.000	180.000
MET_DEF	4	4
RESOLUTION	384
CLK_DEF	384
COMPATIBLE_CODE	MA2

BPM	0	0	180.000
MET	0	0	4	4

NMSTR	1	0	3
BRSI_	1	0	3	96	312	5
NMHLD	1	0	5	1344
CNSI_	2	24	5	0	312	1
CNSI_	2	336	1	0	312	7
CNSI_	3	264	7	0	312	3
NMHLD	5	0	2	1344
NMSTR	5	0	4
BRSI_	5	0	4	96	312	0
CNSI_	6	24	0	0	312	6
CNSI_	6	336	6	0	312	2
CNSI_	7	264	2	0	312	4
NMTTP	9	0	1	A	0	M1
NMTTP	9	0	2	E	0	M1
NMTTP	9	288	2	A	0	M1
NMTTP	9	288	3	E	0	M1
NMTTP	10	192	3	A	0	M1
NMTTP	11	0	6	E	0	M1
NMTTP	11	0	6	A	0	M1
NMTTP	11	288	5	E	0	M1
NMTTP	11	288	5	A	0	M1
NMTTP	12	192	4	A	0	M1
NMTTP	13	0	2	B	0	M1
NMTTP	13	0	3	B	0	M1
NMTTP	13	288	4	B	0	M1
NMTTP	13	288	5	B	0	M1
NMTTP	14	192	4	E	0	M1
NMTHO	15	0	0	384	C	0	M1
NMHLD	17	0	1	288
NMHLD	17	0	5	288
NMHLD	17	336	2	144
NMHLD	17	336	3	144
NMHLD	18	144	4	96
NMHLD	18	144	5	96
NMTAP	18	288	4
NMTAP	18	288	5
NMHLD	19	0	2	288
NMHLD	19	0	6	288
NMHLD	19	336	4	144
NMHLD	19	336	5	144
NMHLD	20	144	2	96
NMHLD	20	144	3	96
NMTAP	20	288	2
NMTAP	20	288	3
NMHLD	21	0	1	288
NMHLD	21	0	4	288
NMHLD	21	336	3	144
NMHLD	21	336	6	144
NMHLD	22	144	0	96
NMHLD	22	144	5	96
NMTAP	22	288	0
NMTAP	22	288	5
NMHLD	23	0	2	96
NMTAP	23	96	0
NMHLD	23	144	0	96
NMHLD	23	240	7	96
NMHLD	23	336	5	96
NMSTR	24	48	4
NMSF_	24	48	4	96	144	0
BRTAP	25	0	2
BRTAP	25	0	6
NMTAP	25	96	5
NMTAP	25	144	5
NMTAP	25	240	6
NMTAP	25	240	7
NMTAP	25	336	0
NMTAP	25	336	1
NMTAP	26	48	2
NMHLD	26	96	2	96
NMTAP	26	192	3
NMTAP	26	288	2
NMTAP	26	288	3
NMTAP	27	0	1
NMTAP	27	0	4
NMTAP	27	96	2
NMTAP	27	144	2
NMTAP	27	240	0
NMTAP	27	240	1
NMTAP	27	336	3
NMHLD	27	336	7	144
NMHLD	28	96	5	96
NMHLD	28	192	3	96
NMSTR	28	288	1
NMSXL	28	288	1	96	288	4
NMHLD	29	0	5	192
NMTAP	29	288	5
NMTAP	29	336	5
NMTAP	30	48	4
NMTAP	30	48	5
NMTAP	30	144	4
NMTAP	30	144	5
NMTAP	30	240	3
NMTAP	30	240	6
NMTAP	30	288	3
NMSTR	30	288	6
NMSXR	30	288	6	96	288	3
NMHLD	31	0	2	192
NMTAP	31	288	2
NMSTR	31	336	2
NMSV_	31	336	2	96	144	5
NMSV_	31	336	2	96	144	7
NMTAP	32	288	0
NMTAP	32	288	4
BRTAP	33	0	1
BRTAP	33	0	3
NMTAP	33	96	2
NMTAP	33	144	2
NMTAP	33	240	0
NMTAP	33	240	1
NMTAP	33	336	6
NMTAP	33	336	7
NMTAP	34	48	5
NMHLD	34	96	5	96
NMTAP	34	192	4
NMTAP	34	288	4
NMTAP	34	288	5
NMTAP	35	0	3
NMTAP	35	0	6
NMTAP	35	96	5
NMTAP	35	144	5
NMTAP	35	240	6
NMTAP	35	240	7
NMHLD	35	336	0	144
NMTAP	35	336	4
NMHLD	36	96	2	96
NMHLD	36	192	4	96
NMSTR	36	288	6
NMSXL	36	288	6	96	288	3
NMHLD	37	0	0	192
NMTAP	37	288	1
NMTAP	37	336	1
NMTAP	38	48	2
NMTAP	38	144	2
NMTAP	38	144	3
NMTAP	38	240	1
NMTAP	38	240	4
NMSTR	38	288	1
NMSXR	38	288	1	96	288	4
NMTAP	38	288	4
NMHLD	39	0	7	192
NMTAP	39	288	6
NMTAP	39	336	6
NMTAP	40	48	0
NMTAP	40	48	7
NMTAP	40	144	1
NMTAP	40	144	5
BRTAP	40	192	1
BRTAP	40	192	5
EXHLD	41	0	2	48
EXHLD	41	0	4	48
EXHLD	41	72	2	48
EXHLD	41	72	4	48
EXTAP	41	144	2
EXTAP	41	144	4
EXHLD	41	288	1	48
EXHLD	41	288	3	48
EXHLD	41	360	1	48
EXHLD	41	360	3	48
EXHLD	42	48	1	48
EXHLD	42	48	3	48
EXSTR	42	120	1
NMSCR	42	120	1	96	96	4
EXTAP	42	120	3
EXHLD	43	0	3	48
EXHLD	43	0	5	48
EXHLD	43	72	3	48
EXHLD	43	72	5	48
EXTAP	43	144	3
EXTAP	43	144	5
EXHLD	43	288	4	48
EXHLD	43	288	6	48
EXHLD	43	360	4	48
EXHLD	43	360	6	48
EXHLD	44	48	4	48
EXHLD	44	48	6	48
EXTAP	44	120	4
EXSTR	44	120	6
NMSCL	44	120	6	96	96	3
NMHLD	45	0	1	48
NMHLD	45	0	3	48
NMHLD	45	72	1	48
NMHLD	45	72	3	48
NMTAP	45	144	1
NMTAP	45	144	3
NMHLD	45	288	0	48
NMHLD	45	288	2	48
NMHLD	45	360	0	48
NMHLD	45	360	2	48
NMHLD	46	48	0	48
NMHLD	46	48	2	48
NMSTR	46	120	0
NMSUR	46	120	0	96	96	4
NMTAP	46	120	2
NMHLD	47	0	4	48
NMHLD	47	0	6	48
NMHLD	47	72	4	48
NMHLD	47	72	6	48
NMTAP	47	144	4
NMTAP	47	144	6
NMHLD	47	288	5	48
NMHLD	47	288	7	48
NMHLD	47	360	5	48
NMHLD	47	360	7	48
NMHLD	48	48	5	48
NMHLD	48	48	7	48
NMTAP	48	120	5
NMSTR	48	120	7
NMSUL	48	120	7	96	96	3
NMHLD	49	0	1	48
NMHLD	49	0	3	48
NMHLD	49	72	2	48
NMHLD	49	72	4	48
NMTAP	49	144	3
NMTAP	49	144	5
NMHLD	49	288	4	48
NMHLD	49	288	6	48
NMHLD	49	360	3	48
NMHLD	49	360	5	48
NMHLD	50	48	2	48
NMHLD	50	48	4	48
NMSTR	50	120	1
NMSI_	50	120	1	96	96	4
NMSTR	50	120	3
NMSCR	50	120	3	96	96	6
NMHLD	51	0	4	48
NMHLD	51	0	6	48
NMHLD	51	72	3	48
NMHLD	51	72	5	48
NMTAP	51	144	2
NMTAP	51	144	4
NMHLD	51	288	1	48
NMHLD	51	288	3	48
NMHLD	51	360	2	48
NMHLD	51	360	4	48
NMHLD	52	48	3	48
NMHLD	52	48	5	48
NMTAP	52	120	4
NMTAP	52	120	6
NMTAP	52	192	3
NMTAP	52	192	5
NMTAP	52	240	3
NMTAP	52	240	5
NMSTR	52	336	2
NMSI_	52	336	2	96	144	4
BRHLD	52	336	6	816
CNSI_	53	192	4	0	192	1
CNSI_	54	0	1	0	192	5
CNSI_	54	192	5	0	192	0
NMTAP	55	192	1
NMTAP	55	192	7
NMTAP	55	240	1
NMTAP	55	240	7
NMTTP	55	336	0	B	0	M1
NMTTP	55	336	0	C	1	M1
NMTTP	55	336	0	A	0	M1
NMTTP	55	336	4	B	0	M1
NMTTP	55	336	4	A	0	M1
NMTAP	56	192	6
NMTAP	56	192	7
NMSTR	56	240	6
NMSCR	56	240	6	96	144	4
NMSUR	56	240	6	96	144	4
NMTAP	56	240	7
NMTAP	57	192	4
NMHLD	57	192	5	96
NMTAP	57	288	7
NMTAP	57	336	7
NMTAP	58	48	0
NMTAP	58	48	6
NMTAP	58	96	0
NMTAP	58	96	6
NMTAP	58	192	2
NMTAP	58	240	2
NMTAP	58	288	4
NMSTR	58	336	4
NMSI_	58	336	4	96	48	0
NMSI_	58	336	4	96	48	2
NMSTR	59	144	1
NMSI_	59	144	1	96	48	5
NMSI_	59	144	1	96	48	7
NMSTR	59	336	6
NMSI_	59	336	6	96	48	2
NMSI_	59	336	6	96	48	4
NMSTR	60	144	3
NMSI_	60	144	3	96	48	1
NMSI_	60	144	3	96	48	7
NMTAP	60	336	0
NMTAP	60	336	6
NMTAP	61	48	5
NMTAP	61	96	5
NMTAP	61	144	4
NMTAP	61	144	6
NMTAP	61	240	0
NMTAP	61	240	7
NMTAP	61	336	1
NMTAP	61	336	3
NMTAP	62	48	3
NMTAP	62	48	4
NMTAP	62	144	5
NMTAP	62	192	5
NMSTR	62	240	4
NMSCL	62	240	4	96	72	0
NMSTR	63	48	3
NMSCR	63	48	3	96	72	7
NMSTR	63	240	4
NMSLL	63	240	4	96	72	0
NMSTR	64	48	3
NMSLR	64	48	3	96	72	7
NMTAP	64	240	0
BRHLD	64	336	0	96
BRHLD	64	336	7	96
NMSTR	65	96	6
NMSI_	65	96	6	96	48	3
NMSTR	65	96	7
NMSI_	65	96	7	96	48	3
NMTAP	65	144	6
NMTAP	65	144	7
NMSTR	65	288	0
NMSI_	65	288	0	96	48	4
NMSTR	65	288	1
NMSI_	65	288	1	96	48	4
NMTAP	65	336	0
NMTAP	65	336	1
NMSTR	66	96	6
NMSI_	66	96	6	96	48	2
NMSTR	66	96	7
NMSI_	66	96	7	96	48	2
NMTAP	66	144	6
NMTAP	66	144	7
NMSTR	66	288	0
NMSI_	66	288	0	96	48	5
NMSTR	66	288	1
NMSI_	66	288	1	96	48	5
NMTAP	66	336	0
NMTAP	66	336	1
NMSTR	67	96	6
NMSV_	67	96	6	96	48	3
NMSTR	67	96	7
NMSCR	67	96	7	96	48	2
NMTAP	67	144	6
NMTAP	67	144	7
NMSTR	67	288	0
NMSCL	67	288	0	96	48	5
NMSTR	67	288	1
NMSV_	67	288	1	96	48	4
NMTAP	67	336	0
NMTAP	67	336	1
NMTAP	68	96	2
NMTAP	68	96	3
NMTAP	68	144	2
NMTAP	68	144	3
NMTAP	68	240	0
NMTAP	68	240	7
BRTAP	68	336	2
BRTAP	68	336	6
NMTAP	69	48	5
NMTAP	69	96	5
NMTAP	69	144	4
NMTAP	69	144	6
NMTAP	69	240	3
NMTAP	69	240	4
NMTAP	69	336	1
NMTAP	69	336	3
NMTAP	70	48	0
NMTAP	70	96	0
NMTAP	70	144	1
NMTAP	70	144	7
NMSTR	70	240	6
NMSI_	70	240	6	96	48	3
NMTAP	70	240	7
NMTAP	71	48	0
NMSTR	71	48	1
NMSI_	71	48	1	96	48	5
NMTAP	71	240	6
NMSTR	71	240	7
NMSXL	71	240	7	96	240	2
NMSXR	71	240	7	96	240	4
NMTAP	72	288	0
NMTAP	72	288	6
BRTAP	72	336	0
BRTAP	72	336	6
NMTAP	73	48	1
NMSTR	73	96	1
NMSI_	73	96	1	96	48	4
NMSTR	73	192	5
NMSI_	73	192	5	96	48	0
NMSTR	73	288	2
NMSI_	73	288	2	96	48	7
NMSTR	74	0	6
NMSI_	74	0	6	96	48	3
NMTAP	74	96	0
NMTAP	74	192	1
NMTAP	74	192	4
NMTAP	74	288	2
NMTAP	74	288	3
NMHLD	74	336	2	96
NMSTR	74	336	3
NMSUR	74	336	3	96	48	7
NMSTR	75	144	4
NMSUL	75	144	4	96	48	0
NMHLD	75	144	5	96
NMSTR	75	336	1
NMSUR	75	336	1	96	48	5
NMHLD	75	336	7	96
NMHLD	76	144	0	96
NMSTR	76	144	6
NMSUL	76	144	6	96	48	2
NMTAP	76	336	1
NMTAP	76	336	3
NMTAP	77	48	6
NMTAP	77	96	7
NMTAP	77	144	0
NMTAP	77	144	5
NMTAP	77	240	1
NMTAP	77	288	0
NMTAP	77	336	2
NMTAP	77	336	7
NMTAP	78	48	0
NMTAP	78	48	5
NMTAP	78	96	0
NMTAP	78	96	5
NMTAP	78	192	2
NMTAP	78	192	7
NMTAP	78	240	2
NMSTR	78	240	7
NMSCL	78	240	7	96	144	1
NMTAP	78	336	1
NMTAP	79	96	0
NMSTR	79	144	0
NMSI_	79	144	0	96	48	4
NMSCL	79	144	0	96	48	6
NMSTR	79	336	5
NMSI_	79	336	5	96	48	1
NMSCL	79	336	5	96	48	3
NMSTR	80	144	2
NMSI_	80	144	2	96	48	6
NMSCL	80	144	2	96	48	0
BRTAP	80	336	5
BRTAP	80	336	7
NMTAP	81	96	0
NMTAP	81	96	6
NMTAP	81	144	0
NMTAP	81	144	6
NMTAP	81	240	4
NMTAP	81	240	5
NMTAP	81	336	4
NMTAP	81	336	5
NMTAP	82	48	0
NMTAP	82	48	1
NMTAP	82	144	0
NMTAP	82	144	1
NMTAP	82	240	1
NMTAP	82	240	3
NMTAP	82	336	1
NMTAP	82	336	3
NMTAP	83	48	6
NMTAP	83	48	7
NMTAP	83	96	6
NMTAP	83	96	7
NMTAP	83	192	0
NMTAP	83	192	1
NMSTR	83	240	0
NMSLL	83	240	0	96	240	2
NMSTR	83	240	1
NMSI_	83	240	1	96	120	5
CNSI_	84	72	5	0	120	3
NMTAP	84	288	1
NMTAP	84	288	4
BXTAP	85	0	2
NMTAP	85	0	3
BXTAP	85	96	6
NMTAP	85	96	7
BXTAP	85	192	0
NMTAP	85	192	1
NMTAP	85	288	4
BXTAP	85	288	5
NMTAP	86	0	1
BXTAP	86	0	3
NMTAP	86	96	6
BXTAP	86	96	7
NMTAP	86	192	0
BXTAP	86	192	1
NMTAP	86	288	4
BXTAP	86	288	6
BXTAP	87	0	3
NMTAP	87	48	3
BXTAP	87	96	5
NMTAP	87	144	5
BXTAP	87	192	1
NMTAP	87	240	1
BXTAP	87	288	6
NMTAP	87	336	6
BXTAP	88	0	0
NMTAP	88	24	7
BXTAP	88	48	0
NMTAP	88	72	7
BXTAP	88	96	0
NMTAP	88	120	7
BXTAP	88	144	0
NMTAP	88	168	7
BXTAP	88	192	0
NMTAP	88	216	7
BXTAP	88	240	0
NMTAP	88	264	7
BXTAP	88	288	0
BRTAP	88	336	1
BRTAP	88	336	6
NMHLD	92	336	2	288
NMHLD	92	336	4	240
NMHLD	93	336	3	240
NMHLD	93	336	5	288
BRSTR	94	336	0
NMSLL	94	336	0	96	720	4
NMSLR	94	336	0	96	720	4
BRTAP	94	336	7

T_REC_TAP	217
T_REC_BRK	15
T_REC_XTP	6
T_REC_BXX	19
T_REC_HLD	85
T_REC_XHO	20
T_REC_BHO	3
T_REC_BXH	0
T_REC_STR	51
T_REC_BST	1
T_REC_XST	2
T_REC_XBS	0
T_REC_TTP	20
T_REC_THO	1
T_REC_SLD	63
T_REC_BSL	2
T_REC_ALL	505
T_NUM_TAP	296
T_NUM_BRK	40
T_NUM_HLD	106
T_NUM_SLD	63
T_NUM_ALL	505
T_JUDGE_TAP	331
T_JUDGE_HLD	285
T_JUDGE_SLD	65
T_JUDGE_ALL	681
TTM_EACHPAIRS	161
TTM_SCR_TAP	148000
TTM_SCR_BRK	104000
TTM_SCR_HLD	106000
TTM_SCR_SLD	94500
TTM_SCR_ALL	452500
TTM_SCR_S	435050
TTM_SCR_SS	448500
TTM_RAT_ACV	10089

