VERSION	0.00.00	1.05.00
FES_MODE	0
BPM_DEF	180.000	180.000	180.000	180.000
MET_DEF	4	4
RESOLUTION	384
CLK_DEF	384
COMPATIBLE_CODE	MA2

BPM	0	0	180.000
MET	0	0	4	4

NMHLD	1	0	2	384
NMHLD	2	0	3	384
NMHLD	3	0	4	384
NMTAP	4	0	5
NMHLD	5	0	5	384
NMHLD	6	0	4	384
NMHLD	7	0	3	384
NMTAP	8	0	2
NMTAP	9	0	4
NMTAP	10	0	5
NMTAP	11	0	6
NMTAP	12	0	7
NMTAP	13	0	0
NMTAP	14	0	1
NMTAP	15	0	2
NMTAP	16	0	3
NMTAP	16	0	4
NMSTR	17	0	5
NMSI_	17	0	5	96	288	2
NMSTR	19	0	1
NMSI_	19	0	1	96	288	5
NMSTR	21	0	6
NMSI_	21	0	6	96	288	2
NMSTR	23	0	1
NMSI_	23	0	1	96	288	4
NMTAP	25	0	3
NMTAP	25	96	3
NMTAP	25	192	2
NMTAP	26	0	1
NMTAP	26	96	1
NMTAP	26	192	0
NMTAP	27	0	7
NMTAP	27	96	7
NMTAP	27	192	6
NMTAP	28	0	5
NMTAP	28	96	5
NMTAP	28	192	4
NMTAP	28	192	5
NMTAP	29	0	4
NMTAP	29	96	4
NMTAP	29	192	5
NMTAP	30	0	6
NMTAP	30	96	6
NMTAP	30	192	7
NMTAP	31	0	0
NMTAP	31	96	0
NMTAP	31	192	1
NMTAP	32	0	2
NMTAP	32	96	2
NMTAP	32	192	2
NMTAP	32	192	3
NMTAP	33	0	2
NMTAP	33	96	2
NMTAP	33	192	2
NMTAP	33	192	3
NMTAP	34	0	1
NMTAP	34	96	1
NMTAP	34	192	0
NMTAP	34	192	1
NMTAP	35	0	7
NMTAP	35	96	7
NMTAP	35	192	6
NMTAP	35	192	7
NMTAP	36	0	4
NMTAP	36	0	5
NMTAP	36	96	4
NMTAP	36	96	5
NMTAP	36	192	4
NMTAP	36	192	5
NMTAP	37	0	5
NMTAP	37	96	5
NMTAP	37	192	4
NMTAP	37	192	5
NMTAP	38	0	6
NMTAP	38	96	6
NMTAP	38	192	6
NMTAP	38	192	7
NMTAP	39	0	0
NMTAP	39	96	0
NMTAP	39	192	0
NMTAP	39	192	1
NMTAP	40	0	2
NMTAP	40	0	3
NMTAP	40	96	2
NMTAP	40	96	3
NMTAP	40	192	2
NMTAP	40	192	3
NMHLD	41	0	2	192
NMHLD	41	192	3	192
NMHLD	42	0	4	192
NMTAP	42	192	5
NMHLD	43	0	5	192
NMHLD	43	192	4	192
NMHLD	44	0	3	192
NMTAP	44	192	2
NMHLD	45	0	1	192
NMHLD	45	192	0	192
NMHLD	46	0	7	192
NMTAP	46	192	6
NMHLD	47	0	6	192
NMHLD	47	192	7	192
NMHLD	48	0	0	192
NMTAP	48	192	1
NMHLD	49	0	1	192
NMHLD	49	192	2	192
NMHLD	50	0	3	192
NMTAP	50	192	4
NMHLD	51	0	6	192
NMHLD	51	192	5	192
NMHLD	52	0	4	192
NMTAP	52	192	3
NMTTP	53	0	2	E	0	L1
NMTTP	53	192	3	E	0	L1
NMTTP	54	0	4	E	0	L1
NMTTP	54	192	5	E	0	L1
NMTTP	55	0	6	E	0	L1
NMTTP	55	192	0	C	1	L1
EXTAP	57	0	6
EXTAP	57	96	6
NMTAP	57	192	7
NMTAP	57	288	7
NMTAP	58	0	0
NMTAP	58	96	0
NMTAP	58	192	0
NMTAP	58	192	1
NMTAP	59	0	2
NMTAP	59	96	2
NMTAP	59	192	1
NMTAP	59	288	1
NMTAP	60	0	0
NMTAP	60	96	0
NMTAP	60	192	6
NMTAP	60	192	7
NMTAP	61	0	6
NMTAP	61	96	6
NMTAP	61	192	5
NMTAP	61	288	5
NMTAP	62	0	4
NMTAP	62	96	4
NMTAP	62	192	2
NMTAP	62	192	3
NMTAP	63	0	1
NMTAP	63	96	1
NMTAP	63	192	2
NMTAP	63	288	2
NMTAP	64	0	3
NMTAP	64	96	3
NMTAP	64	192	4
NMTAP	64	192	5
NMTAP	65	0	5
NMTAP	65	96	5
NMTAP	65	192	6
NMTAP	65	192	7
NMTAP	65	288	6
NMTAP	65	288	7
NMTAP	66	0	0
NMTAP	66	96	0
NMTAP	66	192	0
NMTAP	66	192	1
NMTAP	67	0	2
NMTAP	67	96	2
NMTAP	67	192	0
NMTAP	67	192	1
NMTAP	67	288	0
NMTAP	67	288	1
NMTAP	68	0	7
NMTAP	68	96	7
NMTAP	68	192	6
NMTAP	68	192	7
NMTAP	69	0	6
NMTAP	69	96	6
NMTAP	69	192	4
NMTAP	69	192	5
NMTAP	69	288	4
NMTAP	69	288	5
NMTAP	70	0	3
NMTAP	70	96	3
NMTAP	70	192	2
NMTAP	70	192	3
NMTAP	71	0	1
NMTAP	71	96	1
NMTAP	71	192	2
NMTAP	71	192	3
NMTAP	71	288	2
NMTAP	71	288	3
NMTAP	72	0	4
NMTAP	72	96	4
NMTAP	72	192	4
NMTAP	72	192	5
NMTAP	73	0	6
NMTAP	73	96	6
NMTAP	73	192	6
NMTAP	73	288	6
NMTAP	73	288	7
NMTAP	74	0	5
NMTAP	74	96	5
NMTAP	74	192	5
NMTAP	74	288	4
NMTAP	74	288	5
NMTAP	75	0	3
NMTAP	75	96	3
NMTAP	75	192	3
NMTAP	75	288	2
NMTAP	75	288	3
NMTAP	76	0	0
NMTAP	76	0	1
NMTAP	76	96	0
NMTAP	76	96	1
NMTAP	76	192	0
NMTAP	76	192	1
NMTAP	77	0	1
NMTAP	77	96	1
NMTAP	77	192	1
NMTAP	77	288	0
NMTAP	77	288	1
NMTAP	78	0	2
NMTAP	78	96	2
NMTAP	78	192	2
NMTAP	78	288	2
NMTAP	78	288	3
NMTAP	79	0	4
NMTAP	79	96	4
NMTAP	79	192	4
NMTAP	79	288	4
NMTAP	79	288	5
NMTAP	80	0	6
NMTAP	80	0	7
NMTAP	80	96	6
NMTAP	80	96	7
NMTAP	80	192	6
NMTAP	80	192	7
NMHLD	81	0	6	192
NMTAP	81	192	7
NMHLD	82	0	5	192
NMTAP	82	192	4
NMHLD	83	0	2	192
NMTAP	83	192	3
NMHLD	84	0	1	192
NMTAP	84	192	0
NMTAP	85	0	0
NMTAP	85	0	1
NMTAP	85	96	0
NMTAP	85	96	1
NMTAP	85	192	2
NMTAP	85	192	7
NMTAP	86	0	2
NMTAP	86	0	3
NMTAP	86	96	2
NMTAP	86	96	3
NMTAP	86	192	1
NMTAP	86	192	4
NMTAP	87	0	4
NMTAP	87	0	5
NMTAP	87	96	4
NMTAP	87	96	5
NMTAP	87	192	3
NMTAP	87	192	6
NMTAP	88	0	6
NMTAP	88	0	7
NMTAP	88	96	6
NMTAP	88	96	7
BRTAP	88	192	0
BRTAP	88	192	5
NMSTR	89	0	6
NMSI_	89	0	6	96	288	3
NMSTR	89	0	7
NMSI_	89	0	7	96	288	2
NMTAP	90	192	2
NMTAP	90	192	3
EXSTR	91	0	0
NMSI_	91	0	0	96	288	5
EXSTR	91	0	1
NMSI_	91	0	1	96	288	4
NMTAP	92	192	4
NMTAP	92	192	5
NMTAP	93	0	5
NMTAP	93	96	5
NMTAP	93	192	4
NMTAP	93	192	5
NMTAP	94	0	3
NMTAP	94	96	3
NMHLD	94	192	3	144
NMHLD	94	192	4	144

T_REC_TAP	227
T_REC_BRK	2
T_REC_XTP	2
T_REC_BXX	0
T_REC_HLD	30
T_REC_XHO	0
T_REC_BHO	0
T_REC_BXH	0
T_REC_STR	6
T_REC_BST	0
T_REC_XST	2
T_REC_XBS	0
T_REC_TTP	6
T_REC_THO	0
T_REC_SLD	8
T_REC_BSL	0
T_REC_ALL	283
T_NUM_TAP	243
T_NUM_BRK	2
T_NUM_HLD	30
T_NUM_SLD	8
T_NUM_ALL	283
T_JUDGE_TAP	245
T_JUDGE_HLD	142
T_JUDGE_SLD	8
T_JUDGE_ALL	395
TTM_EACHPAIRS	61
TTM_SCR_TAP	121500
TTM_SCR_BRK	5200
TTM_SCR_HLD	30000
TTM_SCR_SLD	12000
TTM_SCR_ALL	168700
TTM_SCR_S	163450
TTM_SCR_SS	168500
TTM_RAT_ACV	10011

