VERSION	0.00.00	1.04.00
FES_MODE	0
BPM_DEF	180.000	180.000	180.000	180.000
MET_DEF	4	4
RESOLUTION	384
CLK_DEF	384
COMPATIBLE_CODE	MA2

BPM	0	0	180.000
MET	0	0	4	4

NMTAP	9	0	4
NMTAP	10	0	5
NMTAP	11	0	6
NMTAP	12	0	7
NMTAP	13	0	0
NMTAP	14	0	1
NMTAP	15	0	2
NMTAP	16	0	3
NMTAP	16	0	4
NMHLD	17	0	2	336
NMHLD	17	0	3	336
NMHLD	19	0	0	336
NMHLD	19	0	1	336
NMHLD	21	0	6	336
NMHLD	21	0	7	336
NMHLD	23	0	4	336
NMHLD	23	0	5	336
NMTAP	25	0	4
NMTAP	25	96	4
NMTAP	25	192	4
NMTAP	26	0	5
NMTAP	26	192	5
NMTAP	27	0	6
NMTAP	27	192	6
NMTAP	28	0	6
NMTAP	28	0	7
NMTAP	29	0	0
NMTAP	29	96	0
NMTAP	29	192	0
NMTAP	30	0	1
NMTAP	30	192	1
NMTAP	31	0	2
NMTAP	31	192	2
NMTAP	32	0	2
NMTAP	32	0	3
NMTAP	33	0	3
NMTAP	33	96	3
NMTAP	33	192	3
NMTAP	34	0	2
NMTAP	34	192	2
NMTAP	35	0	1
NMTAP	35	96	1
NMTAP	35	192	1
NMTAP	36	0	0
NMTAP	36	0	7
NMTAP	37	0	7
NMTAP	37	96	7
NMTAP	37	192	7
NMTAP	38	0	6
NMTAP	38	192	6
NMTAP	39	0	5
NMTAP	39	96	5
NMTAP	39	192	5
NMTAP	40	0	3
NMTAP	40	0	4
NMSTR	41	0	3
NMSI_	41	0	3	96	336	0
NMSTR	43	0	7
NMSI_	43	0	7	96	336	3
NMSTR	45	0	2
NMSI_	45	0	2	96	336	7
NMSTR	47	0	6
NMSI_	47	0	6	96	336	2
NMTTP	49	0	0	B	0	L1
NMTTP	49	0	1	B	0	L1
NMTTP	50	0	2	B	0	L1
NMTTP	50	0	3	B	0	L1
NMTTP	51	0	4	B	0	L1
NMTTP	51	0	5	B	0	L1
NMTTP	52	0	6	B	0	L1
NMTTP	52	0	7	B	0	L1
NMTTP	53	0	4	B	0	L1
NMTTP	53	0	5	B	0	L1
NMTTP	53	0	5	E	0	L1
NMTTP	54	0	2	B	0	L1
NMTTP	54	0	3	B	0	L1
NMTTP	54	0	3	E	0	L1
NMTHO	55	0	0	336	C	1	L1
EXTAP	57	0	0
EXTAP	57	96	0
EXTAP	57	192	0
NMTAP	58	0	1
NMTAP	58	96	1
NMTAP	58	192	1
NMTAP	59	0	2
NMTAP	59	96	2
NMTAP	59	192	2
NMTAP	60	0	2
NMTAP	60	0	3
NMTAP	60	192	2
NMTAP	60	192	3
NMTAP	61	0	4
NMTAP	61	96	4
NMTAP	61	192	4
NMTAP	62	0	5
NMTAP	62	96	5
NMTAP	62	192	5
NMTAP	63	0	6
NMTAP	63	96	6
NMTAP	63	192	6
NMTAP	64	0	6
NMTAP	64	0	7
NMTAP	64	192	6
NMTAP	64	192	7
NMTAP	65	0	7
NMTAP	65	96	7
NMTAP	65	192	7
NMTAP	66	0	6
NMTAP	66	96	6
NMTAP	66	192	6
NMTAP	67	0	5
NMTAP	67	96	5
NMTAP	67	192	5
NMTAP	68	0	4
NMTAP	68	0	5
NMTAP	68	192	4
NMTAP	68	192	5
NMTAP	69	0	3
NMTAP	69	96	3
NMTAP	69	192	3
NMTAP	70	0	2
NMTAP	70	96	2
NMTAP	70	192	2
NMTAP	71	0	1
NMTAP	71	96	1
NMTAP	71	192	1
NMTAP	72	0	0
NMTAP	72	0	1
NMTAP	73	0	0
NMTAP	73	96	0
NMTAP	73	192	0
NMTAP	73	288	0
NMTAP	74	0	1
NMTAP	74	96	1
NMTAP	74	192	0
NMTAP	74	192	1
NMTAP	75	0	2
NMTAP	75	96	2
NMTAP	75	192	2
NMTAP	75	288	2
NMTAP	76	0	3
NMTAP	76	96	3
NMTAP	76	192	3
NMTAP	76	192	4
NMTAP	77	0	4
NMTAP	77	96	4
NMTAP	77	192	4
NMTAP	77	288	4
NMTAP	78	0	5
NMTAP	78	96	5
NMTAP	78	192	4
NMTAP	78	192	5
NMTAP	79	0	6
NMTAP	79	96	6
NMTAP	79	192	6
NMTAP	79	288	6
NMTAP	80	0	7
NMTAP	80	96	7
NMTAP	80	192	0
NMTAP	80	192	7
NMTAP	81	0	7
NMTAP	81	96	7
NMTAP	81	192	7
NMTAP	81	288	7
NMTAP	82	0	6
NMTAP	82	0	7
NMTAP	82	96	6
NMTAP	82	96	7
NMTAP	82	192	6
NMTAP	82	192	7
NMTAP	83	0	5
NMTAP	83	96	5
NMTAP	83	192	5
NMTAP	83	288	5
NMTAP	84	0	3
NMTAP	84	0	4
NMTAP	84	96	3
NMTAP	84	96	4
NMTAP	84	192	3
NMTAP	84	192	4
NMTAP	85	0	2
NMTAP	85	96	2
NMTAP	85	192	2
NMTAP	85	288	2
NMTAP	86	0	0
NMTAP	86	0	1
NMTAP	86	96	0
NMTAP	86	96	1
NMTAP	86	192	0
NMTAP	86	192	1
NMTAP	87	0	0
NMTAP	87	0	7
NMTAP	87	96	0
NMTAP	87	96	7
NMTAP	87	192	1
NMTAP	87	192	6
NMTAP	87	288	1
NMTAP	87	288	6
BRTAP	88	0	1
BRTAP	88	0	6
NMTTP	89	0	1	E	0	L1
NMTTP	89	0	7	E	0	L1
NMTTP	90	0	2	E	0	L1
NMTTP	90	0	6	E	0	L1
NMTTP	91	0	3	E	0	L1
NMTTP	91	0	5	E	0	L1
NMTTP	92	0	3	B	0	L1
NMTTP	92	0	4	B	0	L1
NMTTP	93	0	2	B	0	L1
NMTTP	93	0	5	B	0	L1
NMTHO	94	0	0	336	C	0	L1
NMTTP	94	0	1	B	0	L1
NMTTP	94	0	6	B	0	L1

T_REC_TAP	164
T_REC_BRK	2
T_REC_XTP	3
T_REC_BXX	0
T_REC_HLD	8
T_REC_XHO	0
T_REC_BHO	0
T_REC_BXH	0
T_REC_STR	4
T_REC_BST	0
T_REC_XST	0
T_REC_XBS	0
T_REC_TTP	26
T_REC_THO	2
T_REC_SLD	4
T_REC_BSL	0
T_REC_ALL	213
T_NUM_TAP	197
T_NUM_BRK	2
T_NUM_HLD	10
T_NUM_SLD	4
T_NUM_ALL	213
T_JUDGE_TAP	199
T_JUDGE_HLD	70
T_JUDGE_SLD	4
T_JUDGE_ALL	273
TTM_EACHPAIRS	34
TTM_SCR_TAP	98500
TTM_SCR_BRK	5200
TTM_SCR_HLD	10000
TTM_SCR_SLD	6000
TTM_SCR_ALL	119700
TTM_SCR_S	115950
TTM_SCR_SS	119500
TTM_RAT_ACV	10016

