VERSION	0.00.00	1.05.00
FES_MODE	0
BPM_DEF	176.000	176.000	176.000	176.000
MET_DEF	4	4
RESOLUTION	384
CLK_DEF	384
COMPATIBLE_CODE	MA2

BPM	0	0	176.000
MET	0	0	4	4
MET	9	0	4	6
MET	10	192	4	4
MET	41	192	4	3
MET	47	192	4	4
MET	93	192	4	6
MET	95	0	4	4

NMSTR	1	0	2
NMSLL	1	0	2	96	288	4
NMTAP	1	0	3
NMSTR	1	288	4
NMSCR	1	288	4	96	192	7
NMSTR	2	96	7
NMSLR	2	96	7	96	288	5
NMSTR	3	0	5
NMSLR	3	0	5	96	288	3
NMSTR	3	288	3
NMSCL	3	288	3	96	192	0
NMSTR	4	96	0
NMSV_	4	96	0	96	192	2
NMHLD	5	0	3	288
NMHLD	5	288	1	192
NMTAP	6	72	3
NMTAP	6	84	4
NMHLD	6	96	5	288
NMHLD	7	0	3	288
NMHLD	7	288	6	192
NMTAP	8	72	3
NMTAP	8	84	4
NMHLD	8	96	5	192
BRTAP	8	288	7
NMTAP	9	0	3
NMTAP	9	0	6
NMTAP	9	64	5
NMTAP	9	96	4
NMTAP	9	160	1
NMTAP	9	160	4
NMTAP	9	224	2
NMTAP	9	256	3
NMTAP	9	320	0
NMTAP	9	320	5
NMTAP	10	0	6
NMTAP	10	32	7
NMTAP	10	64	5
NMTAP	10	128	2
NMTAP	10	160	3
NMTAP	10	192	1
NMTAP	10	288	0
NMTAP	10	288	7
NMTAP	11	0	4
NMTAP	11	0	5
NMTAP	11	72	3
NMTAP	11	72	4
NMTAP	11	144	2
NMTAP	11	144	3
NMTAP	11	224	1
NMTAP	11	224	4
NMTAP	11	256	1
NMTAP	11	256	4
NMTAP	11	288	1
NMTAP	11	288	4
NMTAP	12	0	3
NMTAP	12	0	5
NMTAP	12	48	3
NMTAP	12	48	5
NMTAP	12	96	2
NMTAP	12	96	4
BRTAP	12	144	2
BRTAP	12	144	4
NMTAP	12	192	1
NMTAP	12	216	3
NMTAP	12	240	1
NMTAP	12	264	3
NMTAP	12	288	1
NMTAP	12	312	3
NMTAP	12	336	1
NMTAP	12	360	3
NMTAP	13	0	2
NMTAP	13	24	3
NMTAP	13	48	2
NMTAP	13	72	3
NMTAP	13	96	2
NMTAP	13	120	3
NMTAP	13	144	2
NMTAP	13	168	3
NMTAP	13	192	2
NMTAP	13	216	4
NMTAP	13	240	2
NMTAP	13	264	4
NMTAP	13	288	2
NMTAP	13	312	4
NMTAP	13	336	2
NMTAP	13	360	4
NMTAP	14	0	3
NMTAP	14	24	4
NMTAP	14	48	3
NMTAP	14	72	4
NMTAP	14	96	3
NMTAP	14	120	4
NMTAP	14	144	3
NMTAP	14	168	4
NMTAP	14	192	3
NMTAP	14	216	5
NMTAP	14	240	3
NMTAP	14	264	5
NMTAP	14	288	3
NMTAP	14	312	5
NMTAP	14	336	3
NMTAP	14	360	5
NMTAP	15	0	4
NMTAP	15	24	5
NMTAP	15	48	4
NMTAP	15	72	5
NMTAP	15	96	4
NMTAP	15	120	5
NMTAP	15	144	4
NMTAP	15	168	5
NMTAP	15	192	3
NMTAP	15	192	6
NMTAP	15	240	5
NMTAP	15	264	4
NMTAP	15	312	2
NMTAP	15	336	3
NMSTR	16	0	3
NMSI_	16	0	3	96	48	0
NMSTR	16	0	4
NMSI_	16	0	4	96	48	7
BRTAP	16	96	3
BRTAP	16	96	4
NMSTR	16	192	1
NMSUR	16	192	1	96	192	4
NMTAP	16	336	4
NMSTR	17	0	4
NMSLL	17	0	4	96	72	0
NMTAP	17	72	6
NMTAP	17	144	7
NMSTR	17	192	7
NMSLL	17	192	7	96	72	3
NMTAP	17	264	1
NMTAP	17	336	2
NMTAP	18	48	2
NMTAP	18	48	4
NMTAP	18	144	5
NMSTR	18	192	5
NMSUR	18	192	5	96	192	0
NMTAP	18	336	0
NMSTR	19	0	0
NMSLL	19	0	0	96	72	4
NMTAP	19	72	2
NMTAP	19	144	3
NMSTR	19	192	3
NMSLL	19	192	3	96	72	7
NMTAP	19	264	5
NMTAP	19	336	6
NMTAP	20	48	0
NMTAP	20	48	6
NMTAP	20	96	1
NMTAP	20	96	5
NMSTR	20	192	2
NMSI_	20	192	2	96	48	7
NMTAP	20	192	4
NMTAP	20	264	3
NMTAP	20	288	2
NMTAP	20	336	4
NMTAP	21	0	0
NMSTR	21	0	5
NMSCL	21	0	5	96	48	2
NMTAP	21	48	6
NMTAP	21	48	7
NMTAP	21	96	0
NMTAP	21	96	5
NMSTR	21	192	1
NMSI_	21	192	1	96	48	4
NMTAP	21	192	3
NMTAP	21	264	0
NMTAP	21	288	1
NMTAP	21	336	7
NMTAP	22	0	3
NMSTR	22	0	6
NMSCR	22	0	6	96	48	1
NMTAP	22	48	4
NMTAP	22	48	5
NMTAP	22	96	3
NMTAP	22	96	6
NMSTR	22	192	2
NMSI_	22	192	2	96	48	6
NMTAP	22	288	2
NMTAP	22	288	3
NMTAP	22	336	4
NMSTR	23	0	5
NMSLR	23	0	5	96	96	3
NMTAP	23	72	7
NMTAP	23	96	5
NMTAP	23	144	1
NMSTR	23	192	2
NMSLR	23	192	2	96	96	0
NMTAP	23	264	4
NMTAP	23	288	2
NMTAP	23	336	7
NMTAP	24	0	7
NMTAP	24	48	1
BRTAP	24	96	2
BRTAP	24	96	6
NMSTR	24	192	0
NMSXL	24	192	0	96	528	5
NMTAP	24	192	4
NMTTP	25	96	1	B	0	M1
NMTTP	25	96	2	B	0	M1
NMTTP	25	96	2	E	0	M1
NMTAP	26	0	4
NMSTR	26	192	6
NMSXL	26	192	6	96	528	2
NMTAP	26	192	7
NMTTP	26	288	0	B	0	M1
NMTTP	26	288	0	E	0	M1
NMTTP	26	288	7	B	0	M1
NMHLD	27	192	4	96
NMHLD	27	336	4	96
NMTAP	28	96	1
NMTAP	28	96	3
NMSTR	28	192	2
NMSXL	28	192	2	96	384	5
NMTAP	28	288	5
NMTAP	29	0	6
NMTAP	29	48	6
NMTAP	29	144	7
NMTAP	29	240	0
NMTAP	29	288	0
NMTAP	30	0	4
NMTAP	30	0	7
NMTAP	30	48	4
NMTAP	30	48	7
NMTAP	30	96	3
NMTAP	30	96	6
NMTAP	30	144	3
NMTAP	30	144	6
NMSTR	30	192	4
NMSUL	30	192	4	96	96	7
NMTAP	30	192	5
NMTAP	30	288	6
NMTAP	31	0	5
NMSTR	31	48	5
NMSCR	31	48	5	96	96	0
NMTAP	31	144	7
NMTAP	31	240	4
NMHLD	31	288	4	96
NMTAP	32	0	7
NMTAP	32	48	6
NMTAP	32	72	6
NMTAP	32	96	5
NMSTR	32	192	6
NMSI_	32	192	6	96	576	1
NMHLD	32	288	3	24
NMHLD	32	336	3	24
NMHLD	33	0	3	24
NMHLD	33	48	3	24
NMHLD	33	96	3	24
NMHLD	33	144	3	24
NMHLD	33	192	4	24
NMHLD	33	240	4	24
NMHLD	33	288	4	24
NMHLD	33	336	4	24
NMHLD	34	0	4	24
NMHLD	34	48	4	24
NMTAP	34	96	4
NMHLD	34	192	0	192
NMTAP	34	192	4
NMTAP	34	288	5
NMTAP	34	336	4
NMSTR	35	0	3
NMSI_	35	0	3	96	48	7
NMTAP	35	48	2
NMTAP	35	96	3
NMTAP	35	96	7
NMTAP	35	192	0
NMTAP	35	192	6
NMTAP	35	240	5
NMTAP	35	264	4
NMSTR	35	288	5
NMSCR	35	288	5	96	48	0
NMTAP	35	336	3
NMTAP	35	336	6
NMTAP	36	48	2
NMTAP	36	96	2
NMTAP	36	192	1
NMTAP	36	216	0
NMTAP	36	240	1
NMTAP	36	288	2
NMTAP	36	312	3
NMTAP	36	336	2
NMTTP	37	0	2	D	0	M1
NMTTP	37	24	1	D	0	M1
NMTTP	37	48	0	D	0	M1
NMTTP	37	72	7	D	0	M1
NMTTP	37	96	6	D	0	M1
NMTTP	37	120	5	D	0	M1
NMTTP	37	144	4	D	0	M1
NMTTP	37	168	3	D	0	M1
EXTAP	37	192	0
EXTAP	37	216	0
EXTAP	37	240	1
NMTAP	37	288	2
NMTAP	37	288	7
NMTAP	37	336	3
NMTAP	38	0	4
NMTAP	38	0	5
NMTAP	38	48	6
NMTAP	38	96	3
NMTAP	38	96	7
NMTAP	38	144	6
NMTAP	38	192	3
NMTAP	38	192	5
NMTAP	38	240	1
NMTAP	38	288	2
NMTAP	38	288	4
NMTAP	38	336	6
NMTAP	39	0	3
NMTAP	39	0	5
NMTAP	39	48	0
NMTAP	39	96	2
NMTAP	39	96	4
NMTAP	39	144	7
NMTTP	39	192	1	E	0	M1
NMTTP	39	216	2	E	0	M1
NMTTP	39	240	3	E	0	M1
NMTTP	39	264	4	E	0	M1
NMTTP	39	288	5	E	0	M1
NMTTP	39	312	6	E	0	M1
NMTTP	39	336	7	E	0	M1
NMTTP	39	360	0	E	0	M1
NMTTP	40	0	1	E	0	M1
NMTTP	40	24	2	E	0	M1
NMTTP	40	48	3	E	0	M1
NMTTP	40	72	4	E	0	M1
NMTTP	40	96	0	C	0	M1
NMTAP	40	192	7
NMTAP	40	256	0
NMTAP	40	288	0
NMTAP	40	320	6
NMTAP	41	0	7
NMTAP	41	32	7
BRTAP	41	64	5
NMTTP	41	192	2	E	0	M1
NMTTP	41	336	3	E	0	M1
NMTTP	42	96	4	B	0	M1
NMTTP	42	96	4	E	0	M1
NMTTP	42	240	6	B	0	M1
NMTTP	42	240	6	E	0	M1
NMTHO	43	0	0	288	C	0	M1
NMTTP	43	0	3	A	0	M1
NMTTP	43	0	4	E	0	M1
NMTTP	43	0	4	D	0	M1
NMTTP	43	72	2	E	0	M1
NMTTP	43	72	2	A	0	M1
NMTTP	43	72	2	D	0	M1
NMTTP	43	144	0	A	0	M1
NMTTP	43	144	1	E	0	M1
NMTTP	43	144	1	D	0	M1
NMTTP	43	216	7	B	0	M1
NMTTP	43	216	7	A	0	M1
NMTTP	43	216	7	D	0	M1
NMTTP	43	288	5	A	0	M1
NMTTP	43	288	6	E	0	M1
NMTTP	43	288	6	D	0	M1
NMTAP	44	48	7
NMTAP	44	120	0
NMSTR	44	192	1
NMSI_	44	192	1	96	96	6
NMHLD	44	288	1	96
NMSTR	45	96	5
NMSI_	45	96	5	96	96	2
NMHLD	45	192	5	96
NMSTR	46	0	1
NMSCL	46	0	1	96	96	5
NMSV_	46	0	1	96	96	3
BRHLD	46	288	2	192
BRHLD	46	288	6	192
NMSTR	47	192	1
NMSCL	47	192	1	96	96	4
NMHLD	47	240	0	144
NMTAP	47	240	2
NMSTR	48	96	6
NMSCR	48	96	6	96	96	3
NMTAP	48	144	5
NMHLD	48	144	7	144
NMHLD	49	0	0	48
NMHLD	49	0	3	48
NMHLD	49	72	2	48
NMHLD	49	72	5	48
NMTAP	49	144	4
NMTAP	49	144	7
NMTAP	49	192	4
NMHLD	49	192	7	96
NMHLD	49	288	5	96
BRHLD	50	0	3	96
NMTAP	50	96	2
NMSTR	50	192	1
NMSI_	50	192	1	96	96	6
NMSTR	50	192	4
NMSLL	50	192	4	96	96	5
NMTAP	50	264	1
NMTAP	50	264	4
NMTAP	51	96	4
NMTAP	51	96	7
NMSTR	51	192	5
NMSI_	51	192	5	96	48	0
NMTAP	51	240	4
NMTAP	51	264	4
NMTAP	51	288	5
NMTAP	51	336	2
NMSTR	52	0	1
NMSI_	52	0	1	96	48	4
NMTAP	52	48	0
NMTAP	52	72	0
NMTAP	52	96	1
NMTAP	52	144	7
NMTAP	52	192	3
NMSTR	52	192	6
NMSI_	52	192	6	96	48	4
NMTAP	52	240	2
NMTAP	52	264	2
NMSTR	52	288	6
NMSI_	52	288	6	96	48	3
NMTAP	52	336	1
NMTAP	52	360	1
NMSTR	53	0	6
NMSI_	53	0	6	96	48	2
NMTAP	53	48	0
NMTAP	53	72	0
NMTAP	53	96	6
NMTAP	53	144	7
BRTAP	53	192	0
NMTAP	53	208	3
NMTAP	53	224	0
NMTAP	53	240	3
NMTAP	53	256	0
NMTAP	53	272	3
NMTAP	53	288	0
NMTAP	53	304	3
NMTAP	53	320	0
NMTAP	53	336	3
BRTAP	54	0	1
NMTAP	54	16	4
NMTAP	54	32	1
NMTAP	54	48	4
NMTAP	54	64	1
NMTAP	54	80	4
NMTAP	54	96	1
NMTAP	54	112	4
NMTAP	54	128	1
NMTAP	54	144	4
NMTAP	54	192	2
NMTAP	54	192	5
NMTAP	54	256	2
NMTAP	54	256	5
NMTAP	54	320	3
NMTAP	54	320	4
NMTAP	54	352	3
NMTAP	54	352	4
NMHLD	55	0	3	96
NMHLD	55	0	4	96
NMSTR	55	192	3
NMSCL	55	192	3	96	48	0
NMSTR	55	192	4
NMSCR	55	192	4	96	48	7
NMTAP	56	0	1
NMTAP	56	12	2
NMTAP	56	24	3
NMTAP	56	36	4
NMTAP	56	48	5
NMTAP	56	60	6
NMTAP	56	72	7
NMTAP	56	84	0
NMSTR	56	96	1
NMSI_	56	96	1	96	48	4
NMSTR	56	96	5
NMSV_	56	96	5	96	48	0
BRTAP	56	192	1
BRTAP	56	192	5
NMTAP	56	288	3
NMTAP	56	288	7
NMTAP	56	336	3
NMSTR	56	336	7
NMSUL	56	336	7	96	48	3
NMSTR	57	48	1
NMSUL	57	48	1	96	48	5
NMTAP	57	48	7
NMTAP	57	96	2
NMTAP	57	144	1
NMTAP	57	144	3
NMSTR	57	192	4
NMSI_	57	192	4	96	48	1
NMSI_	57	192	4	96	48	7
NMTAP	57	288	4
NMHLD	58	0	2	48
NMHLD	58	0	6	48
NMHLD	58	72	3	48
NMHLD	58	72	7	48
NMTAP	58	144	0
NMTAP	58	144	4
NMSTR	58	192	1
NMSI_	58	192	1	96	48	6
NMSTR	58	192	5
NMSI_	58	192	5	96	48	2
BRTAP	58	288	1
BRTAP	58	288	5
NMTAP	59	48	3
NMTAP	59	48	7
NMTAP	59	96	3
NMSTR	59	96	7
NMSLL	59	96	7	96	96	2
NMSTR	59	192	2
NMSLR	59	192	2	96	96	6
NMTAP	59	288	1
NMHLD	60	0	0	48
NMHLD	60	72	1	48
NMHLD	60	72	7	48
NMSTR	60	144	2
NMSI_	60	144	2	96	48	4
NMTAP	60	144	6
NMTAP	60	192	3
NMTAP	60	192	5
CNSV_	60	288	4	0	48	7
NMSTR	60	288	6
NMSI_	60	288	6	96	48	2
NMTAP	60	336	6
NMSTR	61	0	0
NMSI_	61	0	0	96	48	3
NMSI_	61	0	0	96	48	5
NMTAP	61	48	0
NMSTR	61	96	0
NMSCR	61	96	0	96	96	7
NMTAP	61	192	0
NMTAP	61	192	4
NMTAP	62	0	6
NMTAP	62	0	7
NMSTR	62	48	0
NMSI_	62	48	0	96	48	4
NMSTR	62	48	5
NMSI_	62	48	5	96	48	7
NMTAP	62	96	1
NMTAP	62	96	4
BRTAP	62	144	0
BRTAP	62	144	5
NMTAP	62	240	3
NMTAP	62	240	6
NMTAP	62	288	5
NMTAP	62	312	4
NMTAP	62	336	5
NMTAP	63	0	2
NMTAP	63	24	3
NMTAP	63	48	1
NMTAP	63	96	0
NMTAP	63	96	6
NMSTR	63	192	1
NMSI_	63	192	1	96	48	3
NMTAP	63	240	5
NMTAP	63	264	5
NMTAP	63	288	1
NMTAP	63	336	7
NMSTR	64	0	4
NMSI_	64	0	4	96	48	0
NMTAP	64	48	6
NMTAP	64	72	6
NMTAP	64	96	4
NMTAP	64	144	5
NMSTR	64	192	1
NMSI_	64	192	1	96	48	5
NMTAP	64	240	4
NMTAP	64	264	4
NMSTR	64	288	1
NMSI_	64	288	1	96	48	3
NMTAP	64	336	3
NMTAP	65	0	1
NMTAP	65	48	6
NMTAP	65	72	6
NMTAP	65	96	0
NMSTR	65	192	5
NMSI_	65	192	5	96	48	3
NMTAP	65	240	1
NMTAP	65	264	1
NMTAP	65	288	5
NMTAP	65	336	0
NMSTR	66	0	2
NMSI_	66	0	2	96	48	6
NMTAP	66	48	1
NMTAP	66	72	1
NMTAP	66	96	2
NMTAP	66	144	0
NMSTR	66	192	1
NMSCL	66	192	1	96	96	3
NMTTP	66	288	0	C	1	M1
CNSUL	67	0	3	0	96	2
NMSTR	67	192	2
NMSLL	67	192	2	96	96	6
NMTAP	67	240	2
NMTAP	67	288	3
NMTTP	67	336	4	B	0	M1
NMTTP	67	348	5	B	0	M1
NMTAP	68	0	3
CNSLR	68	0	6	0	96	2
NMTAP	68	48	3
NMTAP	68	96	3
NMSTR	68	192	5
NMSLR	68	192	5	96	96	1
NMTAP	68	240	5
NMTAP	68	288	4
NMTTP	68	336	3	B	0	M1
NMTTP	68	348	2	B	0	M1
CNSLL	69	0	1	0	96	5
NMTAP	69	0	4
NMTAP	69	48	4
NMTAP	69	96	4
NMTAP	69	192	6
NMTAP	69	216	5
NMTAP	69	240	4
NMTAP	69	264	3
NMTAP	69	288	0
NMTAP	69	312	1
NMTAP	69	336	2
NMTAP	69	360	3
NMTAP	70	0	7
NMTAP	70	12	6
NMTAP	70	24	5
NMTAP	70	36	4
NMTAP	70	48	3
NMTAP	70	60	2
NMTAP	70	72	1
NMTAP	70	84	0
NMTAP	70	96	7
NMTAP	70	108	6
NMTAP	70	120	5
NMTAP	70	132	4
BRTAP	70	144	0
BRTAP	70	144	3
NMTTP	70	336	5	B	0	M1
NMTTP	70	336	5	E	0	M1
NMTTP	70	336	6	B	0	M1
NMTTP	70	336	6	E	0	M1
NMTTP	70	336	7	E	0	M1
NMTTP	71	96	1	B	0	M1
NMTTP	71	96	1	E	0	M1
NMTTP	71	96	2	B	0	M1
NMTTP	71	96	2	E	0	M1
NMTTP	71	96	3	E	0	M1
NMTAP	71	192	6
NMTAP	71	224	4
NMTAP	71	256	6
NMTAP	71	288	4
NMTAP	71	320	5
NMTAP	71	352	1
NMTAP	72	0	3
NMTAP	72	32	1
NMTAP	72	64	3
NMTAP	72	96	2
NMTAP	72	128	5
NMTAP	72	160	4
NMTAP	72	192	5
NMTAP	72	224	4
NMTAP	72	256	3
NMTAP	72	288	2
NMTAP	72	320	3
NMTAP	72	352	2
NMTAP	73	0	1
NMTAP	73	0	4
NMTAP	73	96	3
NMTAP	73	96	6
NMHLD	73	192	0	96
NMTTP	73	192	4	B	1	M1
NMTTP	73	192	4	E	0	M1
NMTTP	73	192	5	E	0	M1
NMTAP	73	336	1
NMTAP	73	336	7
NMTAP	73	360	2
NMTAP	73	360	6
NMSTR	74	0	3
NMSUL	74	0	3	96	48	7
NMTAP	74	0	5
NMTAP	74	72	4
NMTAP	74	96	3
NMTAP	74	144	5
NMSTR	74	192	5
NMSUL	74	192	5	96	48	1
NMTAP	74	264	6
NMTAP	74	288	5
NMSTR	74	336	7
NMSI_	74	336	7	96	48	2
NMSI_	74	336	7	96	48	3
NMTAP	75	48	7
NMTAP	75	144	1
NMTAP	75	144	4
NMTAP	75	168	2
NMTAP	75	168	5
NMSTR	75	192	3
NMSI_	75	192	3	96	48	0
NMTAP	75	192	6
NMSTR	75	288	3
NMSI_	75	288	3	96	48	6
NMTAP	75	288	5
NMTAP	76	0	1
NMSTR	76	0	3
NMSLL	76	0	3	96	72	7
NMTAP	76	96	3
NMTAP	76	96	5
NMSTR	76	192	6
NMSUL	76	192	6	96	48	2
NMTAP	76	264	7
NMTAP	76	288	6
NMHLD	76	336	1	48
NMTAP	77	48	3
NMTAP	77	72	2
NMTAP	77	96	1
NMTAP	77	96	4
NMSTR	77	192	2
NMSCL	77	192	2	96	48	7
NMTAP	77	192	6
NMTAP	77	240	3
NMTAP	77	240	7
NMTAP	77	288	2
NMTAP	77	288	6
NMTAP	77	304	5
NMTAP	77	320	4
NMSTR	77	336	3
NMSLR	77	336	3	96	72	0
NMTAP	78	48	3
NMTAP	78	48	7
NMTAP	78	96	2
NMTAP	78	192	3
NMSTR	78	192	7
NMSV_	78	192	7	96	48	4
NMTAP	78	240	4
NMTAP	78	240	6
NMTAP	78	288	3
NMTAP	78	288	7
NMTAP	78	304	2
NMTAP	78	320	1
NMSTR	78	336	0
NMSLR	78	336	0	96	72	6
NMTAP	79	48	0
NMTAP	79	48	5
NMTAP	79	96	3
NMSTR	79	192	0
NMSI_	79	192	0	96	48	3
NMSTR	79	192	4
NMSI_	79	192	4	96	48	7
NMTAP	79	288	0
NMTAP	79	288	4
NMHLD	80	0	2	48
NMHLD	80	0	6	48
NMHLD	80	72	0	48
NMHLD	80	72	1	48
NMTAP	80	144	2
NMTAP	80	144	6
NMHLD	80	192	4	48
NMHLD	80	192	5	48
NMHLD	80	264	6	48
NMHLD	80	264	7	48
NMTAP	80	336	1
NMTAP	80	336	5
NMSTR	81	0	1
NMSI_	81	0	1	96	48	6
NMSTR	81	0	5
NMSI_	81	0	5	96	48	2
BRTAP	81	96	1
BRTAP	81	96	5
NMTAP	81	192	0
NMTAP	81	192	4
NMTAP	81	240	1
NMTAP	81	264	3
NMTAP	81	288	2
NMTAP	81	336	5
NMTAP	81	360	4
NMTAP	82	0	6
NMTAP	82	48	1
NMTAP	82	72	0
NMTAP	82	96	2
NMTAP	82	144	6
NMTAP	82	168	7
NMTAP	82	192	5
NMTAP	82	240	2
NMTAP	82	240	4
NMTAP	82	288	0
NMTAP	82	336	1
NMTAP	82	336	7
NMSTR	83	0	2
NMSI_	83	0	2	96	48	7
NMSTR	83	48	6
NMSI_	83	48	6	96	48	3
NMTAP	83	96	2
NMTAP	83	144	6
NMTAP	83	192	0
NMTAP	83	216	0
NMTAP	83	240	4
NMSTR	83	288	1
NMSI_	83	288	1	96	48	3
NMSTR	83	288	5
NMSI_	83	288	5	96	48	3
NMTAP	83	336	0
NMTAP	83	336	6
NMSTR	84	0	1
NMSI_	84	0	1	96	48	7
NMSTR	84	0	5
NMSI_	84	0	5	96	48	7
NMTAP	84	96	1
NMTAP	84	96	5
EXSTR	84	192	0
NMSI_	84	192	0	96	48	2
EXSTR	84	240	0
NMSI_	84	240	0	96	48	3
EXSTR	84	288	0
NMSI_	84	288	0	96	48	4
EXSTR	84	336	0
NMSI_	84	336	0	96	48	5
EXSTR	85	0	0
NMSCR	85	0	0	96	48	3
EXTAP	85	48	0
EXTAP	85	96	0
BRTAP	85	192	7
NMTAP	85	216	6
NMTAP	85	240	5
NMTAP	85	264	4
BRTAP	85	288	7
NMTAP	85	312	6
NMTAP	85	336	5
NMTAP	85	360	4
BRTAP	86	0	0
NMTAP	86	24	7
NMTAP	86	48	6
NMTAP	86	72	5
NMTAP	86	96	3
NMTAP	86	96	4
NMTAP	86	120	2
NMTAP	86	144	1
NMTAP	86	168	0
BRTAP	86	192	3
NMTAP	86	192	7
NMTAP	86	216	2
NMTAP	86	240	1
NMTAP	86	264	0
BRTAP	86	288	3
NMTAP	86	312	2
NMTAP	86	336	1
NMTAP	86	360	0
BRTAP	87	0	4
NMTAP	87	24	3
NMTAP	87	48	2
NMTAP	87	72	1
NMTAP	87	96	0
NMTAP	87	96	4
NMTAP	87	120	3
NMTAP	87	120	7
NMTAP	87	144	2
NMTAP	87	144	6
NMTAP	87	168	1
NMTAP	87	168	5
NMSTR	87	192	0
NMSCR	87	192	0	96	48	3
NMSTR	87	192	4
NMSCR	87	192	4	96	48	7
NMTAP	87	288	0
NMTAP	87	288	4
NMTAP	88	0	2
NMTAP	88	0	6
NMTAP	88	64	4
NMTAP	88	64	5
NMTAP	88	128	2
NMTAP	88	128	3
NMTAP	88	192	1
NMTAP	88	224	1
NMTAP	88	256	3
NMTAP	88	288	4
NMTAP	88	320	4
NMTAP	88	352	6
NMTAP	89	0	1
NMTAP	89	32	1
NMTAP	89	64	7
NMTAP	89	96	2
NMTAP	89	96	6
NMHLD	89	192	1	192
BXHLD	89	192	3	432
NMTAP	90	72	1
NMTAP	90	84	0
NMHLD	90	96	7	384
NMHLD	90	288	2	528
NMTAP	91	168	0
NMTAP	91	180	7
BRHLD	91	192	6	432
NMHLD	92	96	1	336
NMTAP	92	264	7
NMTAP	92	276	6
NMHLD	92	288	5	144
NMTTP	93	56	2	E	0	M1
NMTTP	93	56	6	E	0	M1
NMTTP	93	64	2	B	0	M1
NMTTP	93	64	6	B	0	M1
NMTTP	93	72	3	B	0	M1
NMTTP	93	72	7	B	0	M1
NMTTP	93	80	0	E	0	M1
NMTTP	93	80	4	E	0	M1
NMTAP	93	192	1
NMTAP	93	224	5
NMTAP	93	256	1
NMTAP	93	288	5
NMTAP	93	320	1
NMTAP	93	352	7
NMTAP	94	0	3
NMTAP	94	32	7
NMTAP	94	64	3
NMTAP	94	96	7
NMTAP	94	128	1
NMTAP	94	160	3
NMTAP	94	192	5
NMTAP	94	224	3
NMTAP	94	256	1
NMTAP	94	288	7
NMTAP	94	320	5
NMTAP	94	352	7
NMHLD	95	0	1	96
NMHLD	95	96	3	96
NMTAP	95	192	5
NMTAP	95	264	4
NMTAP	95	264	6
NMTAP	95	336	0
NMTAP	95	336	6
NMTAP	96	32	1
NMTAP	96	32	5
NMTAP	96	64	1
NMTAP	96	64	5
NMHLD	96	96	1	240
NMTAP	96	96	5
NMTTP	96	192	4	E	0	M1
NMTTP	96	192	4	D	1	M1
NMTTP	96	240	2	E	0	M1
NMTTP	96	240	2	D	1	M1
NMTTP	96	288	0	E	0	M1
NMTTP	96	288	0	D	1	M1
NMTTP	96	336	6	E	0	M1
NMTTP	96	336	6	D	1	M1
NMTAP	97	0	1
NMTAP	97	16	3
NMTAP	97	32	1
NMTAP	97	48	3
NMSTR	97	96	0
NMSUL	97	96	0	96	384	2
NMSTR	97	96	4
NMSUL	97	96	4	96	384	6
BRTAP	98	288	0
BRTAP	98	288	7
BRTAP	98	312	0
BRTAP	98	312	7
BRTAP	98	336	0
BRTAP	98	336	7
BRTAP	98	360	0
BRTAP	98	360	7

T_REC_TAP	559
T_REC_BRK	34
T_REC_XTP	5
T_REC_BXX	0
T_REC_HLD	59
T_REC_XHO	0
T_REC_BHO	4
T_REC_BXH	1
T_REC_STR	92
T_REC_BST	0
T_REC_XST	5
T_REC_XBS	0
T_REC_TTP	82
T_REC_THO	1
T_REC_SLD	101
T_REC_BSL	0
T_REC_ALL	943
T_NUM_TAP	743
T_NUM_BRK	39
T_NUM_HLD	60
T_NUM_SLD	101
T_NUM_ALL	943
T_JUDGE_TAP	777
T_JUDGE_HLD	168
T_JUDGE_SLD	101
T_JUDGE_ALL	1046
TTM_EACHPAIRS	151
TTM_SCR_TAP	371500
TTM_SCR_BRK	101400
TTM_SCR_HLD	60000
TTM_SCR_SLD	151500
TTM_SCR_ALL	684400
TTM_SCR_S	660100
TTM_SCR_SS	680500
TTM_RAT_ACV	10057

