VERSION	0.00.00	1.04.00
FES_MODE	0
BPM_DEF	176.000	176.000	176.000	176.000
MET_DEF	4	4
RESOLUTION	384
CLK_DEF	384
COMPATIBLE_CODE	MA2

BPM	0	0	176.000
MET	0	0	4	4
MET	9	0	4	6
MET	10	192	4	4
MET	41	192	4	3
MET	47	192	4	4
MET	93	192	4	6
MET	95	0	4	4

NMTTP	1	0	3	B	0	M1
NMTTP	1	0	4	B	0	M1
NMTTP	1	288	2	E	0	M1
NMTTP	2	96	3	E	0	M1
NMTTP	3	0	3	B	0	M1
NMTTP	3	0	4	B	0	M1
NMTTP	3	288	6	E	0	M1
NMTTP	4	96	5	E	0	M1
EXHLD	5	0	2	480
EXTAP	5	0	4
EXHLD	5	288	3	192
NMTAP	6	256	4
NMTAP	6	320	4
NMTAP	7	0	3
NMHLD	7	0	5	456
NMHLD	7	288	4	168
EXTAP	8	240	3
EXTAP	8	240	6
NMTTP	9	0	6	B	0	M1
NMTTP	9	0	6	E	0	M1
NMTTP	9	0	7	B	0	M1
NMTTP	9	0	7	E	0	M1
NMTTP	9	160	2	B	0	M1
NMTTP	9	160	2	E	0	M1
NMTTP	9	160	3	B	0	M1
NMTTP	9	160	3	E	0	M1
NMTHO	9	320	0	128	C	0	M1
NMTTP	9	320	4	B	0	M1
NMTTP	9	320	4	E	0	M1
NMTTP	9	320	5	B	0	M1
NMTTP	9	320	5	E	0	M1
EXTAP	10	192	0
EXTAP	10	192	7
EXTAP	10	288	1
EXTAP	10	288	6
EXTAP	11	0	2
EXTAP	11	0	5
EXTAP	11	72	2
EXTAP	11	72	5
EXTAP	11	144	2
EXTAP	11	144	5
EXTAP	11	224	3
EXTAP	11	256	4
EXTAP	11	288	3
NMTAP	12	0	5
NMTAP	12	48	5
NMTAP	12	96	4
NMTAP	12	144	4
NMHLD	12	192	6	96
NMHLD	12	288	7	96
NMHLD	13	0	0	96
NMHLD	13	96	1	96
NMHLD	13	192	2	96
NMHLD	13	288	3	96
NMHLD	14	0	4	96
NMTAP	14	96	5
BXHLD	14	192	6	96
NMHLD	14	288	5	96
NMHLD	15	0	4	96
NMHLD	15	96	3	96
NMTAP	15	192	2
NMTAP	15	240	2
NMTAP	15	288	2
NMTAP	16	0	0
NMTAP	16	0	1
BRTAP	16	96	2
BRTAP	16	96	7
NMSTR	16	192	3
NMSI_	16	192	3	96	48	7
NMHLD	17	0	6	72
NMHLD	17	72	5	72
NMTAP	17	144	4
NMHLD	17	192	1	72
NMHLD	17	264	2	72
NMTAP	17	336	3
NMTAP	18	48	3
NMTAP	18	48	5
NMTAP	18	96	3
NMTAP	18	96	5
NMSTR	18	192	4
NMSI_	18	192	4	96	48	0
NMHLD	19	0	1	72
NMHLD	19	72	2	72
NMTAP	19	144	3
NMHLD	19	192	6	72
NMHLD	19	264	5	72
NMTAP	19	336	4
NMTAP	20	48	2
NMTAP	20	48	3
NMTAP	20	96	2
NMTAP	20	96	3
NMHLD	20	192	0	96
NMHLD	20	192	1	96
NMTAP	20	336	0
NMTAP	20	336	1
NMTAP	21	48	7
NMTAP	21	96	7
NMHLD	21	192	0	96
NMHLD	21	192	6	96
NMTAP	21	336	0
NMTAP	21	336	6
NMTAP	22	48	1
NMTAP	22	48	5
NMTAP	22	96	1
NMTAP	22	96	5
BRTAP	22	192	3
BRTAP	22	192	7
NMTAP	22	336	2
NMHLD	23	0	2	72
NMHLD	23	72	1	72
NMTAP	23	144	0
NMHLD	23	192	5	72
NMHLD	23	264	6	72
NMTAP	23	336	7
NMTAP	24	48	0
NMTAP	24	48	5
NMTAP	24	96	0
NMTAP	24	96	5
BRSTR	24	192	2
NMSXL	24	192	2	96	480	5
BRTAP	24	192	3
NMSTR	26	192	6
NMSCR	26	192	6	96	192	1
NMHLD	27	192	2	240
NMTAP	28	48	3
NMTAP	28	96	2
NMTAP	28	96	3
NMTAP	28	192	5
NMTAP	28	288	4
NMTAP	28	288	6
NMTAP	29	0	7
NMTAP	29	48	7
NMTAP	29	96	0
NMTAP	29	192	2
NMTAP	29	288	1
NMTAP	29	288	3
NMTAP	30	0	0
NMTAP	30	48	0
NMTAP	30	96	7
NMHLD	30	192	6	96
NMTAP	30	288	4
NMTAP	31	0	2
NMTAP	31	48	2
NMSTR	31	96	3
NMSI_	31	96	3	96	144	0
NMSUR	31	96	3	96	144	7
EXTAP	32	96	0
EXTAP	32	96	7
NMTAP	32	192	1
NMTAP	32	240	1
NMTAP	32	288	0
NMTAP	32	336	0
NMTAP	33	0	2
NMTAP	33	48	2
NMTAP	33	96	3
NMTAP	33	144	3
NMTAP	33	192	1
NMTAP	33	240	1
NMTAP	33	288	3
NMTAP	33	336	2
NMHLD	34	0	1	96
NMTAP	34	96	0
BRTAP	34	192	6
NMTAP	34	240	6
NMTAP	34	288	7
NMTAP	34	336	7
NMTAP	35	0	5
NMTAP	35	48	5
EXTAP	35	96	4
EXTAP	35	96	6
NMSTR	35	192	1
NMSCR	35	192	1	96	96	4
NMSTR	35	192	5
NMSCR	35	192	5	96	96	0
EXTAP	36	96	3
EXTAP	36	96	7
NMTAP	36	192	2
NMTAP	36	288	1
NMTAP	36	288	3
NMTAP	37	0	0
NMTAP	37	48	0
NMTAP	37	96	7
NMTAP	37	192	5
NMTAP	37	288	4
NMTAP	37	288	6
NMTAP	38	0	7
NMTAP	38	48	7
NMTAP	38	96	0
NMSTR	38	192	1
NMSCR	38	192	1	96	96	4
NMSTR	39	0	5
NMSCR	39	0	5	96	96	0
NMHLD	39	192	1	96
NMTAP	39	288	0
NMTAP	39	336	0
NMTAP	40	0	1
NMTAP	40	96	2
NMSTR	40	96	7
BRSI_	40	96	7	96	48	3
BXTAP	41	64	0
NMTTP	41	192	7	E	0	M1
NMTTP	41	336	0	C	0	M1
NMTTP	42	96	3	E	0	M1
NMTTP	42	240	2	E	0	M1
NMTTP	42	240	4	E	0	M1
NMTTP	43	0	6	E	0	M1
NMTTP	43	72	7	E	0	M1
NMTTP	43	144	0	E	0	M1
NMTTP	43	216	1	E	0	M1
NMTTP	43	288	2	E	0	M1
NMTAP	44	48	1
NMTAP	44	120	1
NMHLD	44	192	1	192
NMTAP	44	288	3
NMTAP	45	0	5
NMTAP	45	96	3
NMHLD	45	96	6	192
NMTAP	45	192	4
NMSTR	45	288	2
NMSCL	45	288	2	96	192	4
NMTAP	46	192	7
BRTAP	46	288	7
NMTAP	47	96	3
NMTAP	47	96	6
NMHLD	47	192	2	96
NMTAP	47	288	0
NMHLD	47	336	0	96
NMTAP	48	48	7
NMHLD	48	96	7	96
NMTAP	48	192	5
NMHLD	48	240	5	96
NMTAP	48	336	3
EXTAP	49	0	3
EXTAP	49	72	2
EXTAP	49	72	4
EXTAP	49	144	1
EXTAP	49	144	5
NMSTR	49	192	1
NMSCL	49	192	1	96	96	6
EXHLD	49	192	5	288
CNSUR	50	0	6	0	144	3
EXTAP	50	192	5
EXTAP	50	264	4
EXTAP	50	264	6
EXHLD	50	336	3	96
EXHLD	50	336	7	96
BXTAP	51	96	3
BXTAP	51	96	7
NMTAP	51	192	4
NMTAP	51	192	6
NMTAP	51	288	3
NMTAP	51	288	5
NMTAP	52	0	1
NMTAP	52	48	1
NMTAP	52	96	3
NMTAP	52	192	6
NMTAP	52	240	6
NMTAP	52	288	4
NMTAP	53	0	3
NMTAP	53	0	5
NMTAP	53	96	2
NMTAP	53	96	4
NMTAP	53	192	1
NMTAP	53	240	1
NMTAP	53	288	5
NMTAP	53	336	5
NMTAP	54	0	0
NMTAP	54	24	6
NMTAP	54	48	0
NMTAP	54	72	6
NMTAP	54	96	0
NMTAP	54	120	6
NMTAP	54	144	0
NMTAP	54	168	6
NMHLD	54	192	0	120
EXTAP	54	312	7
EXTAP	55	0	1
EXTAP	55	0	6
EXHLD	55	192	0	96
EXHLD	55	192	5	96
NMTAP	56	0	6
NMTAP	56	0	7
NMTAP	56	72	0
NMTAP	56	72	5
BRTAP	56	144	1
BRSTR	56	144	4
BRSCR	56	144	4	96	96	7
NMTAP	57	0	1
NMTAP	57	48	1
NMTAP	57	96	0
NMTAP	57	96	2
NMSTR	57	192	3
NMSI_	57	192	3	96	48	7
NMTAP	57	192	4
NMHLD	58	0	6	72
NMTAP	58	72	7
NMTAP	58	144	0
NMTAP	58	144	5
NMTAP	58	192	0
NMTAP	58	192	5
NMTAP	58	288	2
NMTAP	58	288	7
NMTAP	58	336	2
NMTAP	58	336	7
NMTAP	59	48	3
NMTAP	59	48	4
BRTAP	59	96	2
BRTAP	59	96	5
NMTAP	59	192	0
NMTAP	59	192	1
NMTAP	59	288	4
NMTAP	59	288	6
NMSTR	60	0	2
NMSCL	60	0	2	96	96	7
NMSTR	60	0	3
NMSUL	60	0	3	96	96	6
NMSTR	60	288	6
NMSCL	60	288	6	96	96	3
NMSTR	60	288	7
NMSUL	60	288	7	96	96	2
BRTAP	61	192	0
BRTAP	61	192	5
NMTAP	61	288	1
NMTAP	61	288	7
NMSTR	61	336	1
NMSI_	61	336	1	96	96	5
NMHLD	61	336	7	192
CNSI_	62	144	5	0	96	7
CNSI_	62	240	7	0	72	3
NMTAP	63	0	4
NMTAP	63	0	5
NMTAP	63	96	6
NMTAP	63	144	6
BRTAP	63	192	6
BRTAP	63	192	7
NMTAP	63	288	0
NMTAP	63	288	7
NMHLD	64	0	1	72
NMHLD	64	72	2	72
NMTAP	64	144	3
NMSTR	64	240	1
NMSCR	64	240	1	96	72	3
NMSTR	64	240	4
NMSCR	64	240	4	96	72	6
NMTAP	65	96	7
NMTAP	65	144	7
NMTAP	65	192	0
NMTAP	65	192	6
NMTAP	65	288	3
NMTAP	65	288	4
NMHLD	66	0	2	72
NMHLD	66	72	1	72
NMTAP	66	144	0
NMTAP	66	240	7
NMTAP	66	288	7
NMTAP	66	336	0
NMTAP	66	336	6
NMTAP	67	48	2
NMTAP	67	48	4
NMTAP	67	96	2
NMTAP	67	96	4
BRTAP	67	192	0
BRTAP	67	192	1
NMTAP	67	288	4
NMTAP	67	288	6
NMTAP	68	0	1
NMTAP	68	0	3
NMTAP	68	96	6
NMTAP	68	96	7
NMTAP	68	192	0
NMTAP	68	192	1
NMTAP	68	288	4
NMTAP	68	288	6
NMTAP	69	0	2
NMTAP	69	0	3
NMTAP	69	96	0
NMTAP	69	96	6
BRTAP	69	144	0
BRTAP	69	144	6
NMTAP	69	240	1
NMTAP	69	288	2
NMTAP	69	336	3
NMTAP	70	0	4
EXTAP	70	48	3
EXTAP	70	48	5
EXTAP	70	96	3
EXTAP	70	96	5
EXTAP	70	144	2
EXHLD	70	144	6	288
NMTAP	71	48	7
BRTAP	71	96	0
BRTAP	71	96	5
NMTTP	71	192	1	B	0	M1
NMTTP	71	192	2	B	0	M1
NMTTP	71	192	2	E	0	M1
NMTTP	71	192	3	E	0	M1
NMTTP	71	352	5	B	0	M1
NMTTP	71	352	5	E	0	M1
NMTTP	71	352	6	B	0	M1
NMTTP	71	352	6	E	0	M1
NMTHO	72	128	0	128	C	0	M1
NMTTP	72	128	3	B	0	M1
NMTTP	72	128	4	B	0	M1
NMTTP	72	128	4	E	0	M1
EXTAP	73	0	0
EXTAP	73	0	7
EXTAP	73	96	0
EXTAP	73	96	7
NMSTR	73	192	0
BRSI_	73	192	0	96	48	4
NMSTR	73	192	1
BRSI_	73	192	1	96	48	4
NMHLD	74	0	5	72
NMHLD	74	72	6	72
NMTAP	74	144	7
NMHLD	74	192	1	72
NMHLD	74	264	2	72
NMTAP	74	336	3
NMTAP	75	48	1
NMTAP	75	48	4
NMTAP	75	144	6
NMTAP	75	144	7
NMSTR	75	192	6
NMSI_	75	192	6	96	48	2
NMTAP	75	192	7
NMTAP	75	336	1
NMHLD	76	0	1	72
NMTAP	76	72	0
NMTAP	76	144	2
NMTAP	76	144	7
NMHLD	76	192	6	72
NMTAP	76	264	7
NMTAP	76	336	0
NMTAP	76	336	5
NMTAP	77	48	2
NMTAP	77	48	3
NMTAP	77	96	2
NMTAP	77	96	3
NMHLD	77	192	4	96
NMHLD	77	192	5	96
NMTAP	77	336	4
NMTAP	77	336	5
NMTAP	78	48	2
NMSTR	78	96	1
NMSXL	78	96	1	96	192	6
NMTAP	78	96	3
EXTAP	79	48	7
EXSTR	79	96	7
NMSCL	79	96	7	96	96	4
NMSTR	79	288	2
NMSCL	79	288	2	96	96	7
NMTAP	80	96	6
NMTAP	80	192	6
NMTAP	80	192	7
NMTAP	80	264	0
NMTAP	80	264	6
BRTAP	80	336	1
BRTAP	80	336	5
NMTAP	81	48	3
NMTAP	81	48	4
NMTAP	81	96	3
NMTAP	81	96	4
NMSTR	81	192	1
NMSI_	81	192	1	96	48	3
NMSTR	81	288	0
NMSI_	81	288	0	96	48	4
NMSTR	82	0	1
NMSI_	82	0	1	96	48	5
NMSTR	82	96	0
NMSI_	82	96	0	96	48	6
NMSTR	82	192	1
NMSI_	82	192	1	96	48	4
NMSTR	82	288	0
NMSI_	82	288	0	96	48	5
NMTAP	83	0	3
NMTAP	83	96	2
NMTAP	83	96	4
NMSTR	83	192	6
NMSI_	83	192	6	96	48	4
NMSTR	83	288	7
NMSI_	83	288	7	96	48	3
NMSTR	84	0	6
NMSI_	84	0	6	96	48	2
NMSTR	84	96	7
NMSI_	84	96	7	96	48	1
NMSTR	84	192	6
NMSI_	84	192	6	96	48	3
NMSTR	84	288	7
NMSI_	84	288	7	96	48	2
NMTAP	85	0	4
NMTAP	85	96	3
NMTAP	85	96	5
NMTAP	85	192	6
NMTAP	85	192	7
NMTAP	85	288	1
NMTAP	85	288	2
NMTAP	86	0	4
NMTAP	86	0	5
NMTAP	86	96	2
NMTAP	86	96	4
NMTAP	86	144	1
NMTAP	86	192	0
NMTAP	86	192	6
NMTAP	86	288	4
NMTAP	86	288	5
NMTAP	87	0	1
NMTAP	87	0	2
NMTAP	87	96	0
NMTAP	87	96	6
NMTAP	87	144	5
NMTAP	87	192	2
NMTAP	87	192	4
NMTAP	87	288	1
NMTAP	87	288	7
NMTAP	87	336	2
NMTAP	88	0	3
NMSTR	88	0	5
NMSI_	88	0	5	96	48	7
NMSTR	88	96	4
NMSI_	88	96	4	96	72	2
CNSI_	88	264	2	0	72	0
CNSI_	88	336	0	0	96	5
BXHLD	89	192	6	192
BXTAP	89	192	7
NMTAP	90	0	4
BXHLD	90	96	1	192
NMTAP	90	96	3
BRTAP	90	288	0
EXTAP	91	0	7
EXTAP	91	32	0
EXTAP	91	64	7
EXTAP	91	96	0
BXHLD	91	192	2	192
BXTAP	91	192	5
NMTAP	92	0	3
BXHLD	92	96	4	96
BXHLD	92	96	5	96
EXHLD	92	256	3	104
EXHLD	92	256	6	104
EXTAP	93	32	2
EXTAP	93	32	7
NMTTP	93	192	2	B	0	M1
NMTTP	93	192	3	B	0	M1
NMTTP	93	192	3	E	0	M1
NMTTP	93	192	4	E	0	M1
NMTTP	93	352	5	B	0	M1
NMTTP	93	352	5	E	0	M1
NMTTP	93	352	6	B	0	M1
NMTTP	93	352	6	E	0	M1
NMTHO	94	128	0	128	C	0	M1
NMTTP	94	128	1	B	0	M1
NMTTP	94	128	1	E	0	M1
NMTTP	94	128	2	B	0	M1
NMTTP	94	128	2	E	0	M1
EXTAP	95	0	7
EXTAP	95	96	0
EXTAP	95	96	6
EXTAP	95	192	1
EXTAP	95	192	3
EXTAP	95	264	3
EXTAP	95	264	4
EXTAP	95	336	4
EXTAP	95	336	6
EXTAP	96	32	7
EXTAP	96	64	7
EXTAP	96	96	0
NMTAP	96	192	0
NMTAP	96	192	1
NMTAP	96	240	0
NMTAP	96	240	1
NMTAP	96	288	2
NMTAP	96	288	7
NMTAP	96	336	3
NMTAP	96	336	6
NMTAP	97	0	4
NMSTR	97	0	5
NMSI_	97	0	5	96	48	1
BRSTR	97	96	3
BRSF_	97	96	3	96	288	7
BRTAP	98	288	0
NMTAP	98	312	6
NMTAP	98	336	0
NMTAP	98	360	6

T_REC_TAP	276
T_REC_BRK	24
T_REC_XTP	61
T_REC_BXX	5
T_REC_HLD	53
T_REC_XHO	10
T_REC_BHO	0
T_REC_BXH	6
T_REC_STR	39
T_REC_BST	3
T_REC_XST	1
T_REC_XBS	0
T_REC_TTP	53
T_REC_THO	3
T_REC_SLD	39
T_REC_BSL	5
T_REC_ALL	578
T_NUM_TAP	430
T_NUM_BRK	43
T_NUM_HLD	66
T_NUM_SLD	39
T_NUM_ALL	578
T_JUDGE_TAP	462
T_JUDGE_HLD	193
T_JUDGE_SLD	44
T_JUDGE_ALL	699
TTM_EACHPAIRS	134
TTM_SCR_TAP	215000
TTM_SCR_BRK	111800
TTM_SCR_HLD	66000
TTM_SCR_SLD	58500
TTM_SCR_ALL	451300
TTM_SCR_S	433600
TTM_SCR_SS	447000
TTM_RAT_ACV	10096

