VERSION	0.00.00	1.05.00
FES_MODE	0
BPM_DEF	176.000	176.000	176.000	176.000
MET_DEF	4	4
RESOLUTION	384
CLK_DEF	384
COMPATIBLE_CODE	MA2

BPM	0	0	176.000
MET	0	0	4	4
MET	9	0	4	6
MET	10	192	4	4
MET	41	192	4	3
MET	47	192	4	4
MET	93	192	4	6
MET	95	0	4	4

NMSTR	5	0	1
NMSI_	5	0	1	96	288	4
NMSTR	7	0	6
NMSI_	7	0	6	96	288	3
NMSTR	9	0	1
NMSUR	9	0	1	96	672	4
EXTAP	12	192	5
EXTAP	12	288	5
EXTAP	13	0	5
NMTAP	13	192	4
NMTAP	13	288	4
NMTAP	14	0	4
NMTAP	14	192	3
NMTAP	14	288	3
NMTAP	15	0	3
NMTAP	15	192	2
NMTAP	15	192	3
NMTAP	16	0	2
NMTAP	16	0	3
NMTAP	16	192	1
NMTAP	16	288	1
NMTAP	17	0	0
NMTAP	17	0	1
NMTAP	17	192	2
NMTAP	17	288	2
NMTAP	18	0	2
NMTAP	18	0	3
NMTAP	18	192	4
NMTAP	18	288	4
NMTAP	19	0	4
NMTAP	19	0	5
NMTAP	19	192	6
NMTAP	19	192	7
NMTAP	19	288	6
NMTAP	19	288	7
NMTAP	20	0	6
NMTAP	20	0	7
NMTAP	20	192	6
NMTAP	20	288	6
NMTAP	21	0	6
NMTAP	21	0	7
NMTAP	21	192	5
NMTAP	21	288	5
NMTAP	22	0	4
NMTAP	22	0	5
NMTAP	22	192	3
NMTAP	22	288	3
NMTAP	23	0	2
NMTAP	23	0	3
NMTAP	23	192	0
NMTAP	23	192	1
NMTAP	23	288	0
NMTAP	23	288	1
NMTAP	24	0	0
NMTAP	24	0	1
NMHLD	24	192	1	192
NMTAP	25	0	0
NMTAP	25	192	1
NMTAP	25	288	1
NMTAP	26	0	0
NMTAP	26	0	1
NMHLD	26	192	2	192
NMTAP	27	0	3
NMTAP	27	192	2
NMTAP	27	288	2
NMTAP	28	0	2
NMTAP	28	0	3
NMHLD	28	192	5	192
NMTAP	29	0	4
NMTAP	29	192	5
NMTAP	29	288	5
NMTAP	30	0	4
NMTAP	30	0	5
NMHLD	30	192	6	192
NMTAP	31	0	7
NMTAP	31	192	6
NMTAP	31	288	6
NMTAP	32	0	6
NMTAP	32	0	7
BRTAP	32	192	5
NMTAP	32	288	5
NMTAP	33	0	6
NMTAP	33	96	6
NMTAP	33	192	7
NMTAP	33	288	7
NMTAP	34	0	0
NMTAP	34	0	1
NMTAP	34	192	2
NMTAP	34	288	2
NMTAP	35	0	1
NMTAP	35	96	1
NMTAP	35	192	0
NMTAP	35	288	0
NMTAP	36	0	6
NMTAP	36	0	7
NMTAP	36	192	6
NMTAP	36	288	6
NMTAP	37	0	5
NMTAP	37	96	5
NMTAP	37	192	4
NMTAP	37	288	4
NMTAP	38	0	2
NMTAP	38	0	3
NMTAP	38	192	1
NMTAP	38	288	1
NMTAP	39	0	2
NMTAP	39	96	2
NMTAP	39	192	3
NMTAP	39	288	3
NMTAP	40	0	4
NMTAP	40	0	5
NMTAP	40	192	3
NMTAP	40	192	4
EXHLD	41	192	2	288
EXHLD	42	96	3	288
EXHLD	43	0	4	288
EXTAP	43	288	5
NMHLD	44	192	5	288
NMHLD	45	96	4	288
NMHLD	46	0	3	288
NMTAP	46	288	2
NMTTP	47	192	1	B	0	L1
NMTTP	48	0	2	B	0	L1
NMTTP	48	192	3	B	0	L1
NMTTP	49	0	4	B	0	L1
NMTTP	49	192	5	B	0	L1
NMTTP	50	0	6	B	0	L1
NMTTP	50	192	0	C	1	L1
NMTTP	51	192	6	B	0	L1
NMTTP	52	0	5	B	0	L1
NMTTP	52	192	4	B	0	L1
NMTTP	53	0	3	B	0	L1
NMTTP	53	192	2	B	0	L1
NMTTP	54	0	1	B	0	L1
NMTTP	54	192	0	C	1	L1
EXTAP	55	192	6
EXTAP	55	288	6
NMTAP	56	0	6
NMTAP	56	0	7
NMTAP	56	96	6
NMTAP	56	96	7
NMTAP	56	192	0
NMTAP	56	288	0
NMTAP	57	0	0
NMTAP	57	0	1
NMTAP	57	192	2
NMTAP	57	288	2
NMTAP	58	0	0
NMTAP	58	0	1
NMTAP	58	96	0
NMTAP	58	96	1
NMTAP	58	192	7
NMTAP	58	288	7
NMTAP	59	0	6
NMTAP	59	0	7
NMTAP	59	192	6
NMTAP	59	288	6
NMTAP	60	0	4
NMTAP	60	0	5
NMTAP	60	96	4
NMTAP	60	96	5
NMTAP	60	192	3
NMTAP	60	288	3
NMTAP	61	0	2
NMTAP	61	0	3
NMTAP	61	192	1
NMTAP	61	288	1
NMTAP	62	0	2
NMTAP	62	0	3
NMTAP	62	96	2
NMTAP	62	96	3
NMTAP	62	192	4
NMTAP	62	288	4
NMTAP	63	0	4
NMTAP	63	0	5
BRTAP	63	192	5
NMTAP	63	288	5
NMTAP	64	0	6
NMTAP	64	0	7
NMTAP	64	96	6
NMTAP	64	96	7
NMTAP	64	192	0
NMTAP	64	288	0
NMTAP	65	0	0
NMTAP	65	0	1
NMTAP	65	96	0
NMTAP	65	96	1
NMTAP	65	192	2
NMTAP	65	288	2
NMTAP	66	0	0
NMTAP	66	0	1
NMTAP	66	96	0
NMTAP	66	96	1
NMTAP	66	192	7
NMTAP	66	288	7
NMTAP	67	0	6
NMTAP	67	0	7
NMTAP	67	192	6
NMTAP	67	288	6
NMTAP	68	0	4
NMTAP	68	0	5
NMTAP	68	96	4
NMTAP	68	96	5
NMTAP	68	192	3
NMTAP	68	288	3
NMTAP	69	0	2
NMTAP	69	0	3
NMTAP	69	96	2
NMTAP	69	96	3
NMTAP	69	192	1
NMTAP	69	288	1
NMTAP	70	0	2
NMTAP	70	0	3
NMTAP	70	96	2
NMTAP	70	96	3
NMTAP	70	192	4
NMTAP	70	288	4
NMTAP	71	0	4
NMTAP	71	0	5
NMSTR	71	192	3
NMSI_	71	192	3	96	288	0
NMSTR	71	192	4
NMSI_	71	192	4	96	288	7
EXTAP	73	192	1
EXTAP	73	240	1
EXTAP	73	288	1
NMTAP	74	0	0
NMTAP	74	0	1
NMTAP	74	96	0
NMTAP	74	96	1
NMTAP	74	192	7
NMTAP	74	240	7
NMTAP	74	288	7
NMTAP	75	0	6
NMTAP	75	0	7
NMTAP	75	192	5
NMTAP	75	240	5
NMTAP	75	288	5
NMTAP	76	0	6
NMTAP	76	0	7
NMTAP	76	96	6
NMTAP	76	96	7
NMTAP	76	192	0
NMTAP	76	240	0
NMTAP	76	288	0
NMTAP	77	0	0
NMTAP	77	0	1
NMTAP	77	192	1
NMTAP	77	240	1
NMTAP	77	288	1
NMTAP	78	0	2
NMTAP	78	0	3
NMTAP	78	96	2
NMTAP	78	96	3
NMTAP	78	192	4
NMTAP	78	240	4
NMTAP	78	288	4
NMTAP	79	0	4
NMTAP	79	0	5
NMTAP	79	192	6
NMTAP	79	240	6
NMTAP	79	288	6
NMTAP	80	0	4
NMTAP	80	0	5
NMTAP	80	96	4
NMTAP	80	96	5
NMTAP	80	192	3
NMTAP	80	240	3
NMTAP	80	288	3
NMTAP	81	0	2
NMTAP	81	0	3
NMTAP	81	192	2
NMTAP	81	240	2
NMTAP	81	288	2
NMTAP	82	0	0
NMTAP	82	0	1
NMTAP	82	96	0
NMTAP	82	96	1
NMTAP	82	192	2
NMTAP	82	192	7
NMTAP	82	288	3
NMTAP	82	288	6
NMTAP	83	0	4
NMTAP	83	0	5
NMTAP	83	192	5
NMTAP	83	240	5
NMTAP	83	288	5
NMTAP	84	0	6
NMTAP	84	0	7
NMTAP	84	96	6
NMTAP	84	96	7
NMTAP	84	192	0
NMTAP	84	192	5
NMTAP	84	288	1
NMTAP	84	288	4
NMTAP	85	0	2
NMTAP	85	0	3
NMTAP	85	192	1
NMTAP	85	240	1
NMTAP	85	288	1
NMTAP	86	0	2
NMTAP	86	0	3
NMTAP	86	96	2
NMTAP	86	96	3
NMTAP	86	192	1
NMTAP	86	192	4
NMTAP	86	288	0
NMTAP	86	288	5
NMTAP	87	0	6
NMTAP	87	0	7
NMTAP	87	192	6
NMTAP	87	240	6
NMTAP	87	288	6
NMTAP	88	0	4
NMTAP	88	0	5
NMTAP	88	96	4
NMTAP	88	96	5
NMTAP	88	192	3
NMTAP	88	192	6
NMTAP	88	288	2
NMTAP	88	288	7
BXTAP	89	0	0
BXTAP	89	0	1
NMSTR	89	192	1
NMSXR	89	192	1	96	480	4
NMSTR	91	192	6
NMSXL	91	192	6	96	480	3
NMSTR	93	192	1
NMSI_	93	192	1	96	288	4
NMSTR	95	0	6
NMSI_	95	0	6	96	288	3
EXTAP	96	192	3
EXTAP	96	192	4
EXSTR	96	336	3
NMSI_	96	336	3	96	432	0
EXSTR	96	336	4
NMSI_	96	336	4	96	432	7
NMTAP	98	288	1
NMTAP	98	288	6
NMTAP	98	336	1
NMTAP	98	336	6

T_REC_TAP	280
T_REC_BRK	2
T_REC_XTP	11
T_REC_BXX	2
T_REC_HLD	7
T_REC_XHO	3
T_REC_BHO	0
T_REC_BXH	0
T_REC_STR	9
T_REC_BST	0
T_REC_XST	2
T_REC_XBS	0
T_REC_TTP	14
T_REC_THO	0
T_REC_SLD	11
T_REC_BSL	0
T_REC_ALL	341
T_NUM_TAP	316
T_NUM_BRK	4
T_NUM_HLD	10
T_NUM_SLD	11
T_NUM_ALL	341
T_JUDGE_TAP	320
T_JUDGE_HLD	52
T_JUDGE_SLD	11
T_JUDGE_ALL	383
TTM_EACHPAIRS	86
TTM_SCR_TAP	158000
TTM_SCR_BRK	10400
TTM_SCR_HLD	10000
TTM_SCR_SLD	16500
TTM_SCR_ALL	194900
TTM_SCR_S	188700
TTM_SCR_SS	194500
TTM_RAT_ACV	10020

