VERSION	0.00.00	1.04.00
FES_MODE	0
BPM_DEF	176.000	176.000	176.000	176.000
MET_DEF	4	4
RESOLUTION	384
CLK_DEF	384
COMPATIBLE_CODE	MA2

BPM	0	0	176.000
MET	0	0	4	4
MET	9	0	4	6
MET	10	192	4	4
MET	41	192	4	3
MET	47	192	4	4
MET	93	192	4	6
MET	95	0	4	4

NMHLD	5	0	0	288
NMHLD	7	0	7	288
NMHLD	9	0	0	576
NMHLD	9	0	7	576
NMTAP	12	192	7
NMTAP	13	0	7
NMTAP	13	192	0
NMTAP	14	0	0
NMTAP	14	192	7
NMTAP	15	0	7
NMTAP	15	192	0
NMTAP	15	192	7
NMTAP	16	192	0
NMTAP	17	0	0
NMTAP	17	192	1
NMTAP	18	0	1
NMTAP	18	192	2
NMTAP	19	0	2
NMTAP	19	192	2
NMTAP	19	192	3
NMTAP	20	192	4
NMTAP	21	0	4
NMTAP	21	192	5
NMTAP	22	0	5
NMTAP	22	192	6
NMTAP	23	0	6
NMTAP	23	192	6
NMTAP	23	192	7
NMSTR	24	192	6
NMSI_	24	192	6	96	288	2
NMSTR	26	192	1
NMSI_	26	192	1	96	288	5
NMTAP	28	192	6
NMTAP	29	0	6
NMTAP	29	192	0
NMTAP	29	192	7
NMTAP	30	0	0
NMTAP	30	0	7
NMTAP	30	192	1
NMTAP	31	0	1
NMTAP	31	192	0
NMTAP	31	192	7
NMTAP	32	192	7
NMTAP	32	288	7
NMTAP	33	0	7
NMTAP	33	192	6
NMTAP	34	0	6
NMTAP	34	192	5
NMTAP	34	288	5
NMTAP	35	0	5
NMTAP	35	192	3
NMTAP	35	192	4
NMTAP	36	192	3
NMTAP	36	288	3
NMTAP	37	0	3
NMTAP	37	192	2
NMTAP	38	0	2
NMTAP	38	192	1
NMTAP	38	288	1
NMTAP	39	0	1
NMTAP	39	192	0
NMTAP	40	0	0
NMTAP	40	192	0
NMTAP	40	192	7
NMTTP	41	192	0	B	0	L1
NMTTP	41	192	7	B	0	L1
NMTTP	43	0	1	B	0	L1
NMTTP	43	0	6	B	0	L1
NMTTP	44	192	2	B	0	L1
NMTTP	44	192	5	B	0	L1
NMTTP	46	0	0	C	0	L1
EXSTR	47	192	0
NMSI_	47	192	0	96	288	4
NMSTR	49	192	5
NMSI_	49	192	5	96	288	0
NMSTR	51	192	1
NMSI_	51	192	1	96	288	5
EXSTR	53	192	6
NMSI_	53	192	6	96	288	2
NMHLD	55	192	0	192
BXTAP	56	192	1
NMTAP	56	288	1
NMTAP	57	0	1
NMTAP	57	192	2
NMTAP	57	288	2
NMTAP	58	0	2
NMTAP	58	192	2
NMTAP	58	192	3
NMTAP	59	0	2
NMTAP	59	0	3
NMTAP	59	192	4
NMTAP	59	288	4
NMTAP	60	0	4
NMTAP	60	192	5
NMTAP	60	288	5
NMTAP	61	0	5
NMTAP	61	192	6
NMTAP	61	288	6
NMTAP	62	0	6
NMTAP	62	192	6
NMTAP	62	192	7
NMTAP	63	0	6
NMTAP	63	0	7
NMTAP	63	192	7
NMTAP	63	288	7
NMTAP	64	0	7
NMTAP	64	192	6
NMTAP	64	288	6
NMTAP	65	0	6
NMTAP	65	0	7
NMTAP	65	192	5
NMTAP	65	288	5
NMTAP	66	0	5
NMTAP	66	192	4
NMTAP	66	288	4
NMTAP	67	0	3
NMTAP	67	0	4
NMTAP	67	192	3
NMTAP	67	288	3
NMTAP	68	0	3
NMTAP	68	192	2
NMTAP	68	288	2
NMTAP	69	0	2
NMTAP	69	0	3
NMTAP	69	192	1
NMTAP	69	288	1
NMTAP	70	0	1
BXTAP	70	192	0
BXTAP	70	192	7
NMHLD	71	192	0	320
NMHLD	71	192	7	320
NMTAP	73	192	0
NMTAP	73	288	0
NMTAP	74	0	0
NMTAP	74	96	0
NMTAP	74	192	1
NMTAP	74	288	1
NMTAP	75	0	0
NMTAP	75	0	1
NMTAP	75	192	2
NMTAP	75	288	2
NMTAP	76	0	2
NMTAP	76	96	2
NMTAP	76	192	3
NMTAP	76	288	3
NMTAP	77	0	3
NMTAP	77	0	4
NMTAP	77	192	4
NMTAP	77	288	4
NMTAP	78	0	4
NMTAP	78	96	4
NMTAP	78	192	5
NMTAP	78	288	5
NMTAP	79	0	4
NMTAP	79	0	5
NMTAP	79	192	6
NMTAP	79	288	6
NMTAP	80	0	6
NMTAP	80	96	6
NMTAP	80	192	7
NMTAP	80	288	7
NMTAP	81	0	0
NMTAP	81	0	7
BRTAP	81	192	7
NMTAP	81	288	7
NMTAP	82	0	6
NMTAP	82	96	6
NMTAP	82	192	5
NMTAP	82	288	5
NMTAP	83	0	4
NMTAP	83	0	5
NMTAP	83	192	3
NMTAP	83	288	3
NMTAP	84	0	2
NMTAP	84	96	2
NMTAP	84	192	1
NMTAP	84	288	1
NMTAP	85	0	0
NMTAP	85	0	1
NMTAP	85	192	1
NMTAP	85	288	1
NMTAP	86	0	2
NMTAP	86	96	2
NMTAP	86	192	3
NMTAP	86	288	3
NMTAP	87	0	4
NMTAP	87	96	4
NMTAP	87	192	5
NMTAP	87	288	5
NMTAP	88	0	6
NMTAP	88	96	6
NMTAP	88	192	0
NMTAP	88	192	7
NMTAP	88	288	0
NMTAP	88	288	7
NMTAP	89	0	0
NMTAP	89	0	7
NMSTR	89	192	6
NMSI_	89	192	6	96	384	2
NMSTR	91	192	1
NMSI_	91	192	1	96	384	5
NMSTR	93	192	0
NMSI_	93	192	0	96	672	3
NMSTR	93	192	7
NMSI_	93	192	7	96	672	4
NMTHO	97	96	0	576	C	1	L1
NMTTP	97	96	3	B	0	L1
NMTTP	97	96	4	B	0	L1

T_REC_TAP	167
T_REC_BRK	1
T_REC_XTP	0
T_REC_BXX	3
T_REC_HLD	7
T_REC_XHO	0
T_REC_BHO	0
T_REC_BXH	0
T_REC_STR	8
T_REC_BST	0
T_REC_XST	2
T_REC_XBS	0
T_REC_TTP	9
T_REC_THO	1
T_REC_SLD	10
T_REC_BSL	0
T_REC_ALL	208
T_NUM_TAP	186
T_NUM_BRK	4
T_NUM_HLD	8
T_NUM_SLD	10
T_NUM_ALL	208
T_JUDGE_TAP	190
T_JUDGE_HLD	66
T_JUDGE_SLD	10
T_JUDGE_ALL	266
TTM_EACHPAIRS	28
TTM_SCR_TAP	93000
TTM_SCR_BRK	10400
TTM_SCR_HLD	8000
TTM_SCR_SLD	15000
TTM_SCR_ALL	126400
TTM_SCR_S	122250
TTM_SCR_SS	126000
TTM_RAT_ACV	10031

