VERSION	0.00.00	1.04.00
FES_MODE	0
BPM_DEF	174.000	174.000	174.000	174.000
MET_DEF	4	4
RESOLUTION	384
CLK_DEF	384
COMPATIBLE_CODE	MA2

BPM	0	0	174.000
MET	0	0	4	4

NMTHO	1	192	0	96	C	0	M1
NMTTP	1	192	3	B	0	M1
NMTTP	1	192	4	B	0	M1
EXSTR	2	0	7
NMSSR	2	0	7	96	576	3
EXSTR	2	1	0
BRSSL	2	1	0	96	575	4
NMTAP	4	0	2
NMTAP	4	0	4
NMHLD	4	72	2	96
NMHLD	4	72	4	72
NMHLD	4	192	5	120
NMHLD	4	216	3	96
EXSTR	5	0	3
NMSUL	5	0	3	96	228	4
EXSTR	5	0	4
NMSCR	5	0	4	96	228	3
NMTTP	6	0	4	E	1	M1
NMTTP	6	0	4	D	0	M1
NMTAP	6	192	4
NMTAP	6	264	3
NMHLD	6	264	5	216
NMTAP	7	0	1
NMTAP	7	48	2
NMHLD	7	96	3	96
NMTAP	7	192	4
NMTAP	7	216	4
NMHLD	7	264	3	72
NMHLD	7	264	5	72
NMHLD	8	0	4	48
NMHLD	8	0	6	72
NMHLD	8	96	3	48
NMHLD	8	96	5	72
NMHLD	8	192	2	48
NMHLD	8	192	4	72
NMTAP	8	288	1
NMSTR	8	288	3
NMSCR	8	288	3	96	96	6
NMTAP	8	336	2
NMSTR	9	0	1
NMSUR	9	0	1	96	144	4
EXTAP	9	192	0
NMTAP	9	264	7
NMTAP	9	336	6
NMTAP	10	0	4
NMSTR	10	0	5
NMSLR	10	0	5	96	96	1
NMTTP	10	96	4	E	0	M1
NMSTR	10	192	2
NMSLR	10	192	2	96	96	6
NMTTP	10	288	0	C	0	M1
NMTAP	11	0	0
NMTAP	11	48	0
NMTAP	11	96	0
NMTAP	11	144	1
NMTAP	11	144	7
NMTAP	11	192	2
NMTAP	11	192	6
NMTAP	11	240	1
NMTAP	11	240	5
NMTAP	11	288	0
NMHLD	11	288	4	96
NMTAP	12	0	1
NMTAP	12	48	1
NMTAP	12	72	2
NMTAP	12	96	3
NMTAP	12	144	3
NMTAP	12	168	4
NMTAP	12	192	5
NMTAP	12	240	3
NMTAP	12	240	6
NMTAP	12	288	0
NMTAP	12	312	1
NMTAP	12	336	0
NMTAP	12	360	1
NMSTR	13	0	0
NMSI_	13	0	0	96	48	6
NMSTR	13	48	0
NMSI_	13	48	0	96	48	3
EXSTR	13	96	0
NMSXR	13	96	0	96	96	4
EXTAP	13	144	0
EXTAP	13	192	0
BRTAP	13	288	1
EXTAP	13	296	2
EXTAP	13	304	3
NMTAP	14	0	3
NMTAP	14	0	4
NMTAP	14	48	2
NMTAP	14	72	3
NMSTR	14	96	1
NMSI_	14	96	1	96	48	3
NMTAP	14	144	0
NMSTR	14	192	1
NMSI_	14	192	1	96	48	5
NMTAP	14	192	7
NMTAP	14	240	7
NMTAP	14	288	1
NMTAP	14	288	7
NMTAP	14	336	7
NMTAP	15	0	6
NMTAP	15	24	4
NMTAP	15	48	6
NMTAP	15	72	4
NMSTR	15	96	5
NMSI_	15	96	5	96	48	0
NMSI_	15	96	5	96	48	7
NMTAP	15	144	4
NMTAP	15	144	6
NMSTR	15	192	5
NMSI_	15	192	5	96	48	2
NMSI_	15	192	5	96	48	3
NMTAP	16	0	1
NMTAP	16	0	4
NMTAP	16	48	2
NMTAP	16	72	3
NMSTR	16	96	1
NMSI_	16	96	1	96	48	3
NMTAP	16	144	0
NMSTR	16	192	1
NMSI_	16	192	1	96	48	5
NMTAP	16	192	7
NMTAP	16	240	7
NMTAP	16	288	7
NMTAP	16	336	7
NMTAP	17	0	6
NMTAP	17	24	4
NMTAP	17	48	6
NMTAP	17	72	4
NMTAP	17	96	5
NMTAP	17	144	0
NMTAP	17	168	0
NMTAP	17	192	7
NMTAP	17	216	7
NMTAP	17	240	1
NMTAP	17	264	1
NMTTP	17	288	5	B	0	M1
NMTTP	17	288	6	B	0	M1
NMTTP	17	336	1	B	0	M1
NMTTP	17	336	2	B	0	M1
NMSTR	18	0	0
NMSI_	18	0	0	96	48	4
NMSTR	18	0	7
NMSUL	18	0	7	96	48	2
NMHLD	18	192	3	48
NMHLD	18	192	5	48
NMHLD	18	264	3	48
NMHLD	18	264	5	48
NMTAP	18	336	3
NMTAP	18	336	5
NMSTR	19	0	6
NMSV_	19	0	6	96	48	1
NMSTR	19	48	7
NMSSL	19	48	7	96	96	3
NMSTR	19	192	0
NMSI_	19	192	0	96	48	4
NMSTR	20	0	7
NMSCR	20	0	7	96	96	4
NMTAP	20	48	6
NMSTR	20	96	5
NMSI_	20	96	5	96	24	7
CNSI_	20	216	7	0	72	1
CNSI_	20	288	1	0	48	3
CNSI_	20	336	3	0	48	5
EXTAP	21	0	0
NMTAP	21	96	1
NMTAP	21	120	1
NMTAP	21	144	4
NMTAP	21	168	4
NMSTR	21	192	2
NMSI_	21	192	2	96	48	6
NMSTR	21	288	5
NMSCR	21	288	5	96	24	7
NMTTP	22	0	3	E	0	M1
NMTTP	22	12	2	B	0	M1
NMTTP	22	24	1	B	0	M1
NMTAP	22	96	7
NMTAP	22	120	7
NMTAP	22	144	0
NMTAP	22	168	0
NMSTR	22	192	6
NMSI_	22	192	6	96	48	2
NMTAP	22	288	6
NMTAP	22	288	7
NMSTR	23	0	1
NMSV_	23	0	1	96	48	7
NMSTR	23	48	5
NMSSR	23	48	5	96	96	1
NMSTR	23	192	0
NMSI_	23	192	0	96	48	4
NMTAP	23	288	0
NMSTR	24	0	7
NMSI_	24	0	7	96	48	2
NMTAP	24	48	6
NMSTR	24	96	5
NMSI_	24	96	5	96	48	0
NMTAP	24	144	4
NMTAP	24	192	3
EXTAP	24	288	1
EXTAP	24	288	7
BXTAP	25	0	2
BXTAP	25	0	5
NMTTP	25	48	3	E	0	M1
NMTTP	25	60	3	B	0	M1
NMTTP	25	72	4	B	0	M1
NMTTP	25	84	5	E	0	M1
NMTTP	25	96	0	C	0	M1
EXTAP	25	144	7
NMTTP	25	192	1	A	0	M1
NMTTP	25	216	6	A	0	M1
NMTTP	25	240	2	B	0	M1
NMTTP	25	264	5	B	0	M1
BRSTR	25	288	0
NMSI_	25	288	0	96	48	4
BRTAP	26	0	0
NMHLD	26	0	7	96
NMTAP	26	96	3
NMTAP	26	112	2
NMTAP	26	112	6
NMTAP	26	128	1
NMTAP	26	128	5
NMTAP	26	144	0
NMTAP	26	144	4
NMTAP	26	192	4
NMTAP	26	240	4
NMTAP	26	264	2
NMTAP	26	288	4
NMTAP	26	336	1
NMTAP	26	336	4
NMTAP	27	0	3
NMTAP	27	0	5
NMTAP	27	48	5
NMTAP	27	72	4
NMTAP	27	96	5
NMTAP	27	144	1
NMTAP	27	144	5
BRTAP	27	192	0
BRTAP	27	192	6
NMTAP	27	240	5
NMTAP	27	264	4
NMSTR	27	288	7
NMSI_	27	288	7	96	48	3
NMTAP	27	336	2
NMHLD	28	0	0	96
BRTAP	28	0	7
NMTAP	28	96	4
NMTAP	28	112	1
NMTAP	28	112	5
NMTAP	28	128	2
NMTAP	28	128	6
NMTAP	28	144	3
NMTAP	28	144	7
NMTAP	28	192	3
NMTAP	28	240	3
NMTAP	28	264	5
NMTAP	28	288	3
NMTAP	28	336	3
NMTAP	28	336	6
NMTAP	29	0	2
NMTAP	29	0	4
NMTAP	29	48	2
NMTAP	29	72	7
NMTAP	29	96	2
NMTAP	29	144	2
NMTAP	29	144	3
BRTAP	29	192	1
BRTAP	29	192	5
NMTAP	29	240	2
NMTAP	29	264	4
NMSTR	29	288	0
NMSI_	29	288	0	96	48	4
NMTAP	29	336	5
BRTAP	30	0	0
NMHLD	30	0	7	96
NMTAP	30	96	3
NMTAP	30	112	2
NMTAP	30	112	6
NMTAP	30	128	1
NMTAP	30	128	5
NMTAP	30	144	0
NMTAP	30	144	4
NMTAP	30	192	0
NMTAP	30	240	0
NMTAP	30	264	2
NMTAP	30	288	0
NMTAP	30	336	0
NMTAP	30	336	3
NMTAP	31	0	4
NMTAP	31	0	7
NMTAP	31	48	7
NMTAP	31	72	6
NMTAP	31	96	7
NMTAP	31	144	4
NMTAP	31	144	7
BRTAP	31	192	0
BRTAP	31	192	3
NMTAP	31	240	0
NMTAP	31	264	2
NMTAP	31	288	0
NMTAP	31	336	1
NMTAP	31	336	3
NMTAP	32	0	2
NMTAP	32	0	3
NMTAP	32	48	6
NMTAP	32	72	4
NMHLD	32	96	5	48
NMTAP	32	144	1
NMTAP	32	168	3
NMHLD	32	192	2	48
NMTAP	32	240	5
NMTAP	32	264	4
NMHLD	32	288	6	48
NMTAP	32	336	3
NMTAP	32	360	4
NMTAP	33	0	2
NMTAP	33	48	1
NMTAP	33	48	3
NMSTR	33	96	0
NMSI_	33	96	0	96	48	2
NMSTR	33	96	4
NMSI_	33	96	4	96	48	6
NMTAP	33	144	3
NMTAP	33	144	7
NMSTR	33	192	0
NMSI_	33	192	0	96	48	4
NMTAP	33	192	4
EXTAP	33	288	0
NMSTR	33	288	4
NMSCL	33	288	4	96	1440	7
NMTTP	34	0	5	B	0	M1
NMTTP	34	0	6	B	0	M1
NMTTP	34	0	6	E	1	M1
EXTAP	36	0	5
EXHLD	36	96	5	192
NMHLD	37	0	5	288
NMHLD	38	0	0	48
NMHLD	38	0	6	48
NMTAP	38	72	1
NMHLD	38	72	5	120
NMHLD	38	192	3	192
NMTAP	38	336	2
NMSTR	39	0	2
NMSCR	39	0	2	96	192	7
NMSTR	39	192	2
NMSI_	39	192	2	96	48	4
NMTAP	40	0	1
NMTAP	40	0	7
NMTAP	40	48	1
NMTAP	40	48	7
NMTAP	40	96	2
NMTAP	40	96	6
NMTAP	40	144	2
NMTAP	40	144	6
NMTAP	40	192	3
NMTAP	40	192	5
NMTAP	40	240	3
NMTAP	40	240	5
NMTAP	40	288	4
NMTAP	40	336	3
NMTAP	40	336	5
BRTAP	41	0	2
BRTAP	41	0	6
NMTAP	41	48	5
NMTAP	41	72	4
NMTAP	41	96	3
BRTAP	41	144	1
BRTAP	41	144	5
NMTAP	41	192	2
NMTAP	41	216	3
NMTAP	41	240	4
NMTTP	41	288	2	B	0	M1
NMTTP	41	288	3	B	0	M1
NMTTP	41	288	3	E	0	M1
NMTTP	41	288	5	B	0	M1
NMTTP	41	288	6	B	0	M1
NMTTP	41	288	6	E	1	M1
BRTAP	42	0	1
BRTAP	42	0	7
NMTAP	42	48	0
NMTAP	42	72	0
NMTAP	42	96	0
NMTAP	42	144	1
NMTAP	42	144	7
BRTAP	42	192	0
NMTAP	42	216	0
NMTAP	42	240	0
NMTAP	42	288	2
NMTAP	42	288	6
NMTAP	42	336	2
NMTAP	42	336	6
NMTAP	43	0	3
NMTAP	43	0	5
EXTAP	43	48	1
NMTAP	43	72	3
NMTAP	43	96	1
EXTAP	43	120	3
NMTAP	43	144	2
NMTAP	43	168	3
BXTAP	43	192	2
NMTAP	43	216	3
NMTAP	43	240	1
NMTAP	43	264	3
NMTTP	43	288	0	A	0	M1
NMTTP	43	296	0	D	0	M1
NMTTP	43	304	7	A	0	M1
NMTTP	43	312	7	D	0	M1
NMTTP	43	320	6	A	0	M1
NMTTP	43	328	6	D	0	M1
NMTTP	43	336	5	A	0	M1
NMTTP	43	344	5	D	0	M1
NMTTP	43	352	4	A	0	M1
NMTTP	43	360	4	D	0	M1
NMTTP	43	368	3	A	0	M1
NMTTP	43	376	3	D	0	M1
NMTTP	44	0	2	A	0	M1
BXTAP	44	0	7
NMTAP	44	48	0
NMTAP	44	72	0
NMTAP	44	96	0
NMTAP	44	144	1
NMTAP	44	144	7
NMTAP	44	192	0
NMTAP	44	216	0
NMTAP	44	240	0
NMTAP	44	288	2
NMTAP	44	288	7
NMTAP	44	336	0
NMTAP	44	360	0
NMTAP	45	0	0
NMTAP	45	48	3
NMTAP	45	48	7
NMTAP	45	96	0
NMTAP	45	120	0
NMTAP	45	144	0
NMTAP	45	192	7
EXTAP	45	208	6
EXTAP	45	224	5
NMTAP	45	240	1
EXTAP	45	256	2
EXTAP	45	272	3
NMSTR	45	288	0
BRSSL	45	288	0	96	48	4
EXTAP	45	320	1
EXTAP	45	320	7
EXTAP	45	352	1
EXTAP	45	352	7
NMTTP	46	96	3	E	0	M1
NMTTP	46	96	3	A	0	M1
NMTTP	46	96	3	D	0	M1
NMTTP	46	96	5	B	1	M1
NMTTP	46	96	5	A	0	M1
NMTTP	46	96	6	E	0	M1
NMTAP	46	192	2
EXHLD	46	192	6	96
NMTAP	46	288	0
NMTAP	46	336	7
NMTAP	46	360	7
NMTAP	47	0	7
NMTAP	47	48	6
NMTAP	47	72	0
NMTAP	47	96	6
NMTAP	47	120	0
NMTAP	47	144	5
NMTAP	47	168	0
NMTTP	47	192	1	E	0	M1
NMTAP	47	192	6
NMTAP	47	264	2
NMTTP	47	264	7	E	0	M1
NMTTP	47	336	4	E	0	M1
NMTAP	47	336	5
NMTTP	48	0	7	A	0	M1
NMTTP	48	8	0	D	0	M1
NMTTP	48	16	0	A	0	M1
NMTTP	48	24	1	D	0	M1
NMTTP	48	32	1	A	0	M1
NMTTP	48	40	2	D	0	M1
NMTTP	48	48	2	A	0	M1
NMTTP	48	56	3	D	0	M1
NMTTP	48	64	3	A	0	M1
NMTTP	48	72	4	D	0	M1
NMTTP	48	80	4	A	0	M1
NMTTP	48	88	5	D	0	M1
BXTAP	48	96	0
NMTTP	48	96	5	A	0	M1
NMTAP	48	144	7
NMTAP	48	168	7
NMTAP	48	192	7
NMTAP	48	240	1
NMTAP	48	240	5
NMTAP	48	288	3
NMTAP	48	312	3
NMTAP	48	336	3
NMTAP	49	0	4
NMTAP	49	24	4
NMTAP	49	48	4
NMTAP	49	72	4
NMSTR	49	96	4
BRSCL	49	96	4	96	144	1
NMSTR	49	120	4
NMSCR	49	120	4	96	120	7
NMTAP	49	144	4
NMTAP	49	168	4
BRSTR	50	0	0
BRSI_	50	0	0	96	24	4
NMTAP	50	96	0
BRSTR	50	96	6
BRSI_	50	96	6	96	24	2
BRSTR	50	168	1
BRSI_	50	168	1	96	24	4
BRSTR	50	240	7
BRSI_	50	240	7	96	24	3
BRSTR	50	312	0
BRSI_	50	312	0	96	24	5
BRSTR	51	0	6
BRSI_	51	0	6	96	24	4
BRSTR	51	72	3
BRSI_	51	72	3	96	24	7
BRSTR	51	144	0
BRSI_	51	144	0	96	24	2
BRTAP	51	216	6
NMTAP	51	288	3
NMTAP	51	312	4
NMTAP	51	336	5
NMTAP	51	360	6
BRSTR	52	0	7
NMSI_	52	0	7	96	24	3
BRSTR	52	96	1
NMSI_	52	96	1	96	24	5
NMTAP	52	96	7
BRSTR	52	168	6
NMSI_	52	168	6	96	24	3
BRSTR	52	240	0
NMSI_	52	240	0	96	24	4
BRSTR	52	312	7
NMSI_	52	312	7	96	24	2
BRSTR	53	0	3
NMSI_	53	0	3	96	24	0
BRSTR	53	72	5
NMSI_	53	72	5	96	24	1
BRSTR	53	144	7
NMSCL	53	144	7	96	96	2
NMTTP	54	0	0	E	0	M1
NMTTP	54	0	0	D	1	M1
NMTTP	54	8	0	A	1	M1
NMTTP	54	16	1	E	0	M1
NMTTP	54	16	1	D	1	M1
NMTTP	54	24	1	A	1	M1
NMTTP	54	32	2	E	0	M1
NMTTP	54	32	2	D	1	M1
NMTTP	54	40	2	A	1	M1
NMTTP	54	48	3	E	0	M1
NMTTP	54	48	3	D	1	M1
NMTTP	54	56	3	A	1	M1
NMTTP	54	64	4	E	0	M1
NMTTP	54	64	4	D	1	M1
NMTTP	54	72	4	A	1	M1
NMTTP	54	80	5	E	0	M1
NMTTP	54	80	5	D	1	M1
NMTTP	54	88	5	A	1	M1
NMTTP	54	96	6	E	0	M1
NMTTP	54	96	6	D	1	M1
NMTTP	54	104	6	A	1	M1
NMTTP	54	112	7	E	0	M1
NMTTP	54	112	7	D	1	M1
NMTTP	54	120	7	A	1	M1
NMTAP	54	192	0
NMTAP	54	216	0
NMTAP	54	240	0
NMTAP	54	264	0
NMSTR	54	288	0
NMSI_	54	288	0	96	48	2
NMSI_	54	288	0	96	48	3
NMTAP	54	312	0
NMTAP	54	336	0
NMTAP	54	360	0
BRSTR	55	0	0
NMSI_	55	0	0	96	48	5
NMSI_	55	0	0	96	48	6
BRTAP	55	96	0
NMTAP	55	192	0
NMTAP	55	216	0
NMTAP	55	240	7
NMTAP	55	264	7
EXSTR	55	288	0
NMSI_	55	288	0	96	48	3
EXSTR	55	289	7
BRSI_	55	289	7	96	47	4
BRTAP	56	0	0
CNSI_	56	48	4	0	1584	7
NMHLD	58	0	3	672
NMTAP	60	0	3
NMHLD	60	96	2	144
NMTAP	60	240	3
NMTAP	60	288	1
NMTAP	60	288	4
NMTAP	61	0	3
NMTAP	61	48	3
NMTAP	61	96	1
NMHLD	61	96	4	144
NMTAP	61	240	3
NMTAP	61	288	1
NMTAP	61	288	4
NMTAP	62	0	3
NMTAP	62	48	3
NMTAP	62	96	1
NMHLD	62	96	4	144
NMTAP	62	240	3
NMTAP	62	288	1
NMTAP	62	288	4
NMTTP	63	0	1	E	0	M1
NMTTP	63	0	1	D	0	M1
NMTAP	63	0	5
NMTAP	63	72	2
NMTTP	63	72	7	E	0	M1
NMTTP	63	72	7	D	0	M1
NMTAP	63	192	5
NMTAP	63	216	4
NMTAP	63	216	6
NMTAP	63	264	2
NMTAP	63	288	1
NMTAP	63	288	3
NMTAP	64	0	6
NMTAP	64	24	2
NMTAP	64	48	4
NMTAP	64	72	1
NMTAP	64	96	5
NMTAP	64	120	3
NMTAP	64	144	7
NMSTR	64	192	0
NMSI_	64	192	0	96	48	5
NMSTR	64	192	4
NMSI_	64	192	4	96	48	1
NMHLD	64	216	0	48
NMHLD	64	216	4	48
BRHLD	65	0	2	48
BRHLD	65	0	6	48
BRHLD	65	96	3	48
BRHLD	65	96	5	48
BRHLD	65	192	4	48
BRHLD	65	192	6	48
BRHLD	65	288	5	48
BRHLD	65	288	7	48
BRHLD	66	0	0	48
BRHLD	66	0	6	48
BRHLD	66	96	1	48
BRHLD	66	96	3	48
BRHLD	66	192	4	48
BRHLD	66	192	6	48
BRTAP	66	288	2
NMHLD	66	288	3	288
NMTAP	67	0	4
NMTAP	67	48	4
NMTAP	67	96	4
NMTAP	67	144	4
NMTAP	67	192	4
NMTAP	67	216	3
NMTAP	67	240	4
NMTAP	67	264	3
NMSTR	67	288	4
BRSUL	67	288	4	96	192	0
NMTAP	67	312	3
NMSTR	67	336	4
NMSUR	67	336	4	96	144	0
NMTAP	67	360	3
NMTAP	68	288	0
EXSTR	68	288	7
BRSCR	68	288	7	96	48	2
NMTAP	68	312	6
NMTAP	68	336	5
NMTAP	68	360	4
BRSTR	69	0	3
NMSCR	69	0	3	96	48	6
BRTAP	69	0	7
NMTAP	69	96	3
NMTAP	69	96	7
NMTAP	69	144	7
NMTAP	69	160	0
NMTAP	69	176	1
NMTAP	69	192	2
NMTAP	69	240	2
NMTAP	69	240	3
BRTAP	69	288	1
BRTAP	69	288	4
NMTAP	69	336	3
NMTAP	69	336	6
NMTAP	70	0	5
NMTAP	70	24	4
NMTAP	70	48	6
NMTAP	70	72	3
NMTAP	70	96	7
NMTAP	70	120	6
NMTAP	70	144	5
NMTAP	70	168	4
NMTAP	70	192	2
NMTAP	70	216	3
NMTAP	70	240	1
NMTAP	70	264	4
NMSTR	70	288	0
NMSI_	70	288	0	96	48	5
NMTAP	70	312	1
NMTAP	70	336	2
NMTAP	70	360	3
BRSTR	71	0	0
BRSCR	71	0	0	96	48	3
NMTAP	71	0	4
NMTAP	71	96	0
NMTAP	71	96	4
NMTAP	71	144	4
NMTAP	71	160	5
NMTAP	71	176	6
NMTAP	71	192	7
NMTAP	71	240	2
NMTAP	71	240	7
BRTAP	71	288	4
BRTAP	71	288	5
NMTAP	71	336	2
NMTAP	71	336	3
NMTAP	72	0	1
NMTAP	72	24	0
NMTAP	72	48	2
NMTAP	72	72	7
NMTAP	72	96	4
NMTAP	72	120	5
NMTAP	72	144	2
NMTAP	72	168	3
NMTAP	72	192	7
NMTAP	72	216	6
NMTAP	72	240	0
NMTAP	72	264	5
NMTAP	72	288	2
NMTAP	72	312	4
NMTAP	72	336	3
NMTAP	72	360	5
NMTAP	73	0	4
NMSTR	73	0	6
NMSCL	73	0	6	96	48	3
NMTAP	73	96	6
NMTAP	73	96	7
NMTAP	73	144	7
NMTAP	73	160	0
NMTAP	73	176	1
NMSTR	73	192	2
BRSI_	73	192	2	96	48	7
NMTAP	73	240	4
BRTAP	73	288	2
NMTAP	73	288	5
NMTAP	73	336	5
NMTAP	74	0	0
NMTAP	74	0	6
NMTAP	74	24	1
NMTAP	74	48	2
NMTAP	74	72	3
NMTAP	74	96	0
NMTAP	74	96	4
NMTAP	74	120	5
NMTAP	74	144	6
NMTAP	74	168	7
NMTAP	74	192	0
NMTAP	74	192	4
NMTAP	74	216	1
NMTAP	74	240	2
NMTAP	74	264	3
NMTAP	74	288	4
NMTAP	74	288	5
NMTAP	74	336	4
NMTAP	74	336	5
NMTAP	75	0	2
NMTAP	75	0	7
NMTAP	75	32	1
NMTAP	75	64	0
NMTAP	75	96	3
NMTAP	75	96	6
NMTAP	75	128	5
NMTAP	75	160	4
NMTAP	75	192	0
NMTAP	75	192	5
NMTAP	75	224	7
NMTAP	75	256	6
BRTAP	75	288	1
BRTAP	75	288	4
NMTAP	75	320	2
NMTAP	75	352	3
NMTAP	76	0	1
NMTAP	76	24	0
NMTAP	76	48	1
NMTAP	76	72	7
NMTAP	76	96	1
NMTAP	76	120	6
NMTAP	76	144	1
NMTAP	76	168	5
NMTTP	76	192	2	E	0	M1
NMTTP	76	204	3	E	0	M1
NMTTP	76	216	4	E	0	M1
NMTTP	76	228	5	E	0	M1
NMTTP	76	240	6	E	0	M1
NMTTP	76	252	7	E	0	M1
NMTTP	76	264	0	E	0	M1
NMTTP	76	276	1	E	0	M1
NMTTP	76	288	2	D	0	M1
NMTTP	76	300	3	D	0	M1
NMTTP	76	312	4	D	0	M1
NMTTP	76	324	5	D	0	M1
NMTTP	76	336	6	D	0	M1
NMTTP	76	348	7	D	0	M1
NMTTP	76	360	0	D	0	M1
NMTTP	76	372	1	D	0	M1
NMTTP	77	0	1	A	0	M1
NMTTP	77	0	2	E	1	M1
NMTTP	77	0	2	A	0	M1
NMTTP	77	0	2	D	0	M1
BXTAP	77	0	4
NMTAP	77	96	1
NMTAP	77	96	7
NMTAP	77	144	1
NMTAP	77	144	7
NMTAP	77	160	2
NMTAP	77	176	3
NMSTR	77	192	4
BRSCL	77	192	4	96	48	0
NMTAP	77	240	2
NMTAP	77	240	6
BRTAP	77	288	4
NMTAP	77	288	5
NMTAP	77	336	6
NMTAP	78	0	6
NMTAP	78	24	7
NMTAP	78	48	5
NMTAP	78	72	0
NMTAP	78	96	4
NMTAP	78	120	5
NMTAP	78	144	6
NMTAP	78	168	7
NMTAP	78	192	1
NMTAP	78	216	0
NMTAP	78	240	2
NMTAP	78	264	7
NMSTR	78	288	3
NMSI_	78	288	3	96	48	7
NMTAP	78	312	2
NMTAP	78	336	1
NMTAP	78	360	0
BRSTR	79	0	3
BRSCL	79	0	3	96	48	0
NMTAP	79	0	7
NMTAP	79	96	3
NMTAP	79	96	6
NMTAP	79	144	6
NMTAP	79	160	5
NMTAP	79	176	4
NMSTR	79	192	3
NMSCR	79	192	3	96	48	7
NMTAP	79	240	1
NMTAP	79	240	5
NMTAP	79	288	2
BRTAP	79	288	3
NMTAP	79	336	1
NMTAP	80	0	1
NMTAP	80	24	0
NMTAP	80	48	1
NMTAP	80	72	0
NMHLD	80	96	1	0
NMTAP	80	120	2
NMHLD	80	144	0	0
NMTAP	80	144	3
NMTAP	80	168	7
NMHLD	80	192	2	0
NMTAP	80	192	6
NMTAP	80	216	3
NMTAP	80	240	4
NMHLD	80	240	7	0
NMTAP	80	264	6
NMSTR	80	288	0
BRSI_	80	288	0	96	48	4
NMHLD	80	288	5	0
NMTAP	80	312	1
NMTAP	80	336	2
NMHLD	80	336	6	0
NMTAP	80	360	5
BRTAP	81	0	0
NMTAP	81	0	4
NMSTR	81	96	1
NMSI_	81	96	1	96	48	5
NMTAP	81	96	5
NMTAP	81	144	5
NMTAP	81	160	6
NMTAP	81	176	7
NMTAP	81	192	0
NMSTR	81	192	1
BRSCR	81	192	1	96	48	4
NMTAP	81	240	0
BRTAP	81	288	1
NMTAP	81	288	7
NMTAP	81	336	7
NMTAP	82	0	6
NMTAP	82	24	4
NMTAP	82	48	5
NMTAP	82	72	2
NMTAP	82	96	0
NMTAP	82	120	1
NMTAP	82	144	7
NMTAP	82	168	4
NMTAP	82	192	3
NMTAP	82	192	6
NMTAP	82	216	2
NMTAP	82	216	5
NMTAP	82	240	1
NMTAP	82	240	4
NMTAP	82	264	0
NMTAP	82	264	3
NMTAP	82	288	2
NMTAP	82	288	7
NMTAP	82	312	1
NMTAP	82	336	0
NMTAP	82	360	7
NMTAP	83	0	0
NMTAP	83	0	6
BRTAP	83	48	0
BRTAP	83	48	6
BRTAP	83	64	1
BRTAP	83	64	5
BRTAP	83	80	2
BRTAP	83	80	4
BRSTR	83	96	3
NMSUR	83	96	3	96	48	7
NMTAP	83	144	1
NMTAP	83	144	5
NMSTR	83	192	0
BRSCL	83	192	0	96	48	5
NMTAP	83	216	1
NMTAP	83	240	2
NMTAP	83	264	3
BRSTR	83	288	4
NMSF_	83	288	4	96	48	0
BRTAP	84	0	4
BRTAP	84	144	2
BRTAP	84	144	6
NMTAP	84	192	2
NMTAP	84	192	6
NMTAP	84	208	7
NMTAP	84	224	0
NMTAP	84	240	1
NMTAP	84	256	2
NMTAP	84	272	3
BXTAP	84	288	4
BRSTR	84	288	7
BRSI_	84	288	7	96	48	3
NMTAP	84	304	0
NMTAP	84	320	1
NMTAP	84	336	2
NMTAP	84	352	3
NMTAP	84	368	4
BXTAP	85	0	5
BRTAP	85	0	7
NMSTR	85	96	1
BRSI_	85	96	1	96	48	3
NMSTR	85	96	5
NMSI_	85	96	5	96	48	7
NMSTR	85	192	1
NMSI_	85	192	1	96	48	7
NMSTR	85	192	5
BRSI_	85	192	5	96	48	3
NMSTR	85	288	1
BRSI_	85	288	1	96	48	4
NMSTR	85	288	5
NMSI_	85	288	5	96	48	0
NMTAP	86	0	1
NMTAP	86	0	5
NMTAP	86	96	3
NMTAP	86	96	6
NMTAP	86	192	5
NMTAP	86	204	4
NMTAP	86	216	5
NMTAP	86	264	2
NMTAP	86	276	3
NMTAP	86	288	2
NMSTR	86	336	4
BRSCR	86	336	4	96	156	0
NMSTR	86	348	0
NMSCR	86	348	0	96	144	4
NMTAP	86	360	4
NMTTP	87	276	0	B	0	M1
NMTTP	87	276	4	B	0	M1
NMTTP	87	288	0	C	0	M1
NMTAP	88	0	6
NMTAP	88	24	7
NMTAP	88	48	6
NMTAP	88	72	7
NMTAP	88	96	5
NMTAP	88	120	0
NMTAP	88	144	3
NMTAP	88	168	2
NMTAP	88	192	6
NMTAP	88	216	4
NMTAP	88	240	0
NMTAP	88	264	1
NMTAP	88	288	5
NMTAP	88	312	7
NMTAP	88	336	4
NMTAP	88	360	2
NMTAP	89	0	6
NMTAP	89	24	3
NMTAP	89	48	4
NMTAP	89	72	1
NMTAP	89	96	5
NMTAP	89	120	0
NMTAP	89	144	5
NMTAP	89	168	0
NMTAP	89	192	5
NMTAP	89	204	4
NMTAP	89	216	3
NMTAP	89	228	2
NMTAP	89	240	1
NMTAP	89	252	0
NMTAP	89	264	7
NMTAP	89	276	6
BRTAP	89	288	1
BXTAP	89	288	5
NMTAP	90	0	2
NMTAP	90	0	6
NMTAP	90	32	2
NMTAP	90	32	6
NMTAP	90	64	2
NMTAP	90	64	6
NMTAP	90	96	2
NMTAP	90	96	6
NMTAP	90	128	7
NMTAP	90	144	1
NMTAP	90	160	7
NMTAP	90	176	1
NMTAP	90	192	7
NMTAP	90	208	1
NMTAP	90	224	7
NMTAP	90	240	1
NMTAP	90	256	0
NMTAP	90	272	0
NMSTR	90	288	0
BRSI_	90	288	0	96	48	4
NMTAP	90	304	0
NMTAP	90	320	0
NMTAP	90	336	0
NMTTP	91	0	0	A	1	M1
BXSTR	91	0	6
NMSI_	91	0	6	96	48	2
BRSTR	91	96	2
BRSLR	91	96	2	96	288	6
BXTAP	91	96	6
NMTAP	91	352	0
NMTAP	91	368	1
NMSTR	92	0	2
NMSLL	92	0	2	96	1056	3
CNSLR	92	96	6	0	1512	5

T_REC_TAP	595
T_REC_BRK	44
T_REC_XTP	21
T_REC_BXX	10
T_REC_HLD	43
T_REC_XHO	2
T_REC_BHO	14
T_REC_BXH	0
T_REC_STR	63
T_REC_BST	25
T_REC_XST	8
T_REC_XBS	1
T_REC_TTP	118
T_REC_THO	1
T_REC_SLD	73
T_REC_BSL	28
T_REC_ALL	1046
T_NUM_TAP	805
T_NUM_BRK	122
T_NUM_HLD	46
T_NUM_SLD	73
T_NUM_ALL	1046
T_JUDGE_TAP	885
T_JUDGE_HLD	118
T_JUDGE_SLD	101
T_JUDGE_ALL	1104
TTM_EACHPAIRS	166
TTM_SCR_TAP	402500
TTM_SCR_BRK	317200
TTM_SCR_HLD	46000
TTM_SCR_SLD	109500
TTM_SCR_ALL	875200
TTM_SCR_S	837150
TTM_SCR_SS	863000
TTM_RAT_ACV	10141

