VERSION	0.00.00	1.04.00
FES_MODE	0
BPM_DEF	174.000	174.000	174.000	174.000
MET_DEF	4	4
RESOLUTION	384
CLK_DEF	384
COMPATIBLE_CODE	MA2

BPM	0	0	174.000
MET	0	0	4	4

NMTTP	1	192	2	B	0	M1
NMTTP	1	192	3	B	0	M1
NMTTP	1	192	4	B	0	M1
NMTTP	1	192	5	B	0	M1
NMTHO	2	0	0	768	C	0	M1
EXSTR	5	0	0
NMSI_	5	0	0	96	192	4
NMHLD	6	0	6	576
NMTAP	6	192	4
NMTAP	6	288	3
NMTAP	7	0	4
NMTAP	7	96	3
NMHLD	7	192	2	192
NMTAP	7	288	5
NMTAP	8	0	6
NMTAP	8	48	6
NMTAP	8	96	4
NMTAP	8	144	4
NMTAP	8	192	7
NMTAP	8	240	7
NMSTR	8	288	5
NMSUL	8	288	5	96	240	3
NMHLD	10	0	1	576
NMTAP	10	192	3
NMTAP	10	288	4
NMTAP	11	0	3
NMTAP	11	96	4
NMHLD	11	192	5	192
NMTAP	11	288	2
NMTAP	12	0	1
NMTAP	12	48	1
NMTAP	12	96	3
NMTAP	12	144	3
NMTAP	12	192	0
NMTAP	12	240	0
NMSTR	12	288	2
NMSI_	12	288	2	96	96	0
CNSI_	13	96	0	0	96	4
CNSI_	13	192	4	0	48	6
BXTAP	13	288	7
NMTAP	14	0	1
NMTAP	14	48	1
NMTAP	14	96	2
NMTAP	14	96	4
NMTAP	14	192	4
NMTAP	14	192	6
NMTAP	14	288	1
NMTAP	14	288	3
NMTAP	15	0	3
NMTAP	15	0	5
NMTAP	15	48	3
NMTAP	15	48	5
NMSTR	15	96	2
NMSCR	15	96	2	96	96	5
NMSTR	15	96	6
NMSCR	15	96	6	96	96	1
NMTAP	16	0	7
NMTAP	16	48	7
NMTAP	16	96	0
NMTAP	16	96	6
NMTAP	16	192	1
NMTAP	16	192	3
NMTAP	16	288	4
NMTAP	16	288	6
NMTAP	17	0	2
NMTAP	17	0	4
NMTAP	17	48	2
NMTAP	17	48	4
NMTAP	17	96	1
NMTAP	17	96	5
NMHLD	17	192	2	48
NMHLD	17	192	6	48
BRHLD	17	288	1	48
BRHLD	17	288	5	48
NMSTR	18	0	2
NMSCL	18	0	2	96	96	7
NMSTR	18	0	3
NMSUL	18	0	3	96	96	6
EXTAP	18	288	6
EXTAP	18	288	7
NMSTR	19	0	4
NMSUR	19	0	4	96	96	1
NMSTR	19	0	5
NMSCR	19	0	5	96	96	0
EXTAP	19	288	0
EXTAP	19	288	1
NMSTR	20	0	2
NMSLL	20	0	2	96	96	6
NMSTR	20	96	3
NMSV_	20	96	3	96	96	5
EXTAP	20	288	6
NMSTR	21	0	5
NMSLR	21	0	5	96	96	1
NMSTR	21	96	4
NMSV_	21	96	4	96	96	2
EXTAP	21	288	1
BRHLD	22	0	0	48
BRHLD	22	0	1	48
NMHLD	22	96	1	48
NMHLD	22	96	3	48
NMHLD	22	192	3	48
NMHLD	22	192	6	48
EXTAP	22	288	4
EXTAP	22	288	5
NMSTR	23	0	6
NMSUR	23	0	6	96	96	3
NMSTR	23	0	7
NMSCR	23	0	7	96	96	2
EXTAP	23	288	2
EXTAP	23	288	3
NMSTR	24	0	1
NMSLR	24	0	1	96	96	5
NMSTR	24	96	0
NMSV_	24	96	0	96	96	6
EXTAP	24	288	5
BRTAP	25	0	6
BRTAP	25	0	7
BRTAP	25	96	2
BRTAP	25	96	3
NMTAP	25	192	5
NMTAP	25	216	4
NMTAP	25	240	5
NMTAP	25	264	4
BRTAP	25	288	6
NMTAP	26	0	4
NMTAP	26	0	5
NMTAP	26	96	2
NMTAP	26	96	3
NMTAP	26	192	1
NMTAP	26	192	4
NMTAP	26	264	2
NMTAP	26	264	5
NMTAP	26	336	3
NMTAP	26	336	6
NMTAP	27	0	3
NMTAP	27	0	6
NMTAP	27	72	2
NMTAP	27	72	5
NMTAP	27	144	1
NMTAP	27	144	4
NMSTR	27	192	1
NMSI_	27	192	1	96	48	7
NMSTR	27	192	4
NMSI_	27	192	4	96	48	6
EXTAP	28	0	0
EXTAP	28	0	5
NMTAP	28	96	4
NMTAP	28	96	5
NMTAP	28	192	3
NMTAP	28	192	6
NMTAP	28	264	2
NMTAP	28	264	5
NMTAP	28	336	1
NMTAP	28	336	4
NMTAP	29	0	1
NMTAP	29	0	4
NMTAP	29	72	2
NMTAP	29	72	5
NMTAP	29	144	3
NMTAP	29	144	6
NMSTR	29	192	3
NMSI_	29	192	3	96	48	1
NMSTR	29	192	6
NMSI_	29	192	6	96	48	0
EXTAP	30	0	2
EXTAP	30	0	7
NMTAP	30	96	0
NMTAP	30	96	1
NMTAP	30	192	2
NMTAP	30	192	7
NMTAP	30	264	1
NMTAP	30	264	6
NMTAP	30	336	0
NMTAP	30	336	5
NMTAP	31	0	0
NMTAP	31	0	5
NMTAP	31	72	1
NMTAP	31	72	6
NMTAP	31	144	2
NMTAP	31	144	7
NMTAP	31	192	2
NMTAP	31	192	7
NMTAP	31	264	1
NMTAP	31	264	6
NMTAP	31	336	0
NMTAP	31	336	5
NMTAP	32	0	0
NMSTR	32	0	5
NMSI_	32	0	5	96	48	7
NMSTR	32	96	1
NMSI_	32	96	1	96	48	3
NMSTR	32	192	4
NMSI_	32	192	4	96	48	0
EXTAP	32	288	2
NMTAP	33	0	1
NMTAP	33	48	1
NMTAP	33	96	3
NMTAP	33	144	3
NMTAP	33	192	4
NMTAP	33	240	4
NMSTR	33	288	6
NMSCL	33	288	6	96	576	0
NMTTP	34	0	0	C	1	M1
NMHLD	36	0	1	576
NMHLD	37	0	3	192
NMTAP	38	0	4
NMTAP	38	72	3
NMTAP	38	72	5
NMTAP	38	336	2
NMTAP	38	336	6
NMTAP	39	72	1
NMTAP	39	72	4
NMTAP	39	144	0
NMTAP	39	144	3
NMTAP	39	288	2
NMTAP	39	288	3
NMTAP	39	336	2
NMTAP	39	336	3
NMTAP	40	0	4
NMTAP	40	48	5
NMTAP	40	96	6
NMTAP	40	144	7
NMTAP	40	192	0
NMTAP	40	240	1
NMTAP	40	288	2
NMTAP	40	336	3
NMTAP	41	0	4
NMHLD	41	0	6	96
EXTAP	41	96	4
NMHLD	41	144	1	96
EXTAP	41	144	3
EXTAP	41	240	3
NMTAP	41	288	0
EXTAP	41	288	4
NMTAP	42	0	2
NMTAP	42	0	6
NMSTR	42	96	1
BRSI_	42	96	1	96	48	4
NMSTR	42	96	5
BRSI_	42	96	5	96	48	0
NMTAP	42	144	1
NMTAP	42	144	5
EXTAP	42	288	3
EXTAP	42	288	7
NMHLD	43	0	4	48
NMHLD	43	0	6	48
NMHLD	43	96	3	48
NMHLD	43	96	5	48
NMHLD	43	192	2	48
NMHLD	43	192	4	48
NMHLD	43	288	1	48
NMHLD	43	288	3	48
NMTAP	44	0	0
NMSTR	44	48	0
NMSI_	44	48	0	96	48	3
NMTAP	44	144	6
NMSTR	44	192	6
NMSI_	44	192	6	96	48	4
NMTAP	44	288	1
NMSTR	44	336	1
NMSI_	44	336	1	96	48	3
NMTAP	45	48	7
NMSTR	45	96	7
NMSI_	45	96	7	96	48	4
NMTAP	45	192	0
NMSTR	45	240	0
NMSLR	45	240	0	96	96	4
NMTHO	46	0	0	96	C	0	M1
NMTTP	46	192	1	B	0	M1
NMTTP	46	192	1	E	0	M1
NMTTP	46	192	2	E	0	M1
NMTTP	46	192	6	B	0	M1
NMTTP	46	192	6	E	0	M1
NMTTP	46	192	7	E	0	M1
EXTAP	46	288	7
EXTAP	46	336	7
EXTAP	47	0	7
EXTAP	47	48	2
EXTAP	47	96	2
EXTAP	47	144	2
NMTAP	47	192	3
NMTAP	47	192	5
NMTAP	47	264	3
NMTAP	47	264	5
NMTAP	47	336	2
NMTAP	47	336	6
NMTAP	48	0	2
NMTAP	48	0	6
NMTAP	48	96	1
NMTAP	48	96	3
NMTAP	48	144	0
NMTAP	48	192	7
NMTAP	48	240	4
NMTAP	48	240	6
NMTAP	48	288	7
NMTAP	48	336	0
NMTAP	49	0	1
NMTAP	49	0	3
NMTAP	49	48	1
NMTAP	49	48	3
NMTAP	49	144	4
NMTAP	49	144	6
NMHLD	49	192	4	96
NMHLD	49	192	6	96
EXTAP	50	0	0
EXTAP	50	0	5
BRTAP	50	96	6
BRTAP	50	96	7
BRTAP	50	168	0
BRTAP	50	168	7
BRTAP	50	240	0
BRTAP	50	240	1
BRTAP	50	312	2
BRTAP	50	312	3
BRTAP	51	0	4
BRTAP	51	0	5
BRTAP	51	72	6
BRTAP	51	72	7
BRTAP	51	144	2
BRTAP	51	144	3
BRHLD	51	216	0	72
BRHLD	51	216	1	72
EXTAP	52	0	2
EXTAP	52	0	7
BRTAP	52	96	0
BRTAP	52	96	1
BRTAP	52	168	0
BRTAP	52	168	7
BRTAP	52	240	6
BRTAP	52	240	7
BRTAP	52	312	4
BRTAP	52	312	5
BRTAP	53	0	2
BRTAP	53	0	3
BRTAP	53	72	0
BRTAP	53	72	1
BRTAP	53	144	4
BRTAP	53	144	5
BRTAP	53	216	6
BRTAP	53	216	7
BRSTR	53	288	0
NMSI_	53	288	0	96	48	4
BRSTR	53	288	7
NMSI_	53	288	7	96	48	3
NMTAP	54	192	3
NMTAP	54	216	4
NMTAP	54	240	3
NMTAP	54	264	4
NMTAP	54	288	3
NMTAP	54	312	4
NMTAP	54	336	3
EXTAP	55	0	0
EXTAP	55	0	2
EXTAP	55	96	5
EXTAP	55	96	7
NMTAP	55	192	1
NMTAP	55	216	3
NMTAP	55	240	1
NMTAP	55	264	3
NMHLD	55	288	1	480
NMTHO	56	0	0	2688	C	1	M1
NMTTP	58	0	2	E	0	M1
NMTTP	59	0	1	E	0	M1
NMTTP	60	0	0	E	0	M1
NMTTP	61	0	7	E	0	M1
NMTTP	62	0	6	E	0	M1
NMTTP	63	0	0	A	0	M1
NMTTP	63	0	0	D	0	M1
NMTTP	63	0	7	A	0	M1
NMHLD	64	0	1	192
NMHLD	64	96	7	192
NMSTR	64	288	4
NMSI_	64	288	4	96	48	1
NMSTR	65	0	6
NMSI_	65	0	6	96	48	3
NMSTR	65	96	0
NMSI_	65	96	0	96	48	5
NMSTR	65	192	2
NMSI_	65	192	2	96	48	7
NMSTR	65	288	4
NMSI_	65	288	4	96	48	1
NMSTR	66	0	6
NMSI_	66	0	6	96	48	3
NMSTR	66	96	0
NMSI_	66	96	0	96	48	5
NMSTR	66	192	2
NMSI_	66	192	2	96	48	7
NMSTR	66	288	4
NMSI_	66	288	4	96	48	1
NMSTR	67	0	6
NMSI_	67	0	6	96	48	3
NMSTR	67	96	0
NMSI_	67	96	0	96	48	5
NMSTR	67	192	2
NMSI_	67	192	2	96	48	7
NMSTR	67	288	4
NMSUR	67	288	4	96	192	7
EXSTR	68	288	0
BRSLR	68	288	0	96	48	4
NMSTR	69	96	6
NMSI_	69	96	6	96	48	3
NMTAP	69	144	6
NMTAP	69	192	2
NMTAP	69	288	1
NMTAP	70	0	1
NMTAP	70	24	0
NMTAP	70	48	1
NMTAP	70	72	0
NMTAP	70	96	2
NMTAP	70	120	7
NMTAP	70	144	2
NMTAP	70	168	7
NMTAP	70	192	3
NMTAP	70	216	6
NMTAP	70	240	3
NMTAP	70	264	6
NMTAP	70	288	4
BRTAP	71	0	2
BRTAP	71	0	4
NMSTR	71	96	1
NMSCR	71	96	1	96	48	4
NMTAP	71	144	1
NMTAP	71	192	5
NMTAP	71	288	6
NMTAP	72	0	6
NMTAP	72	24	7
NMTAP	72	48	6
NMTAP	72	72	7
NMTAP	72	96	5
NMTAP	72	120	0
NMTAP	72	144	5
NMTAP	72	168	0
NMTAP	72	192	4
NMTAP	72	216	1
NMTAP	72	240	4
NMTAP	72	264	1
NMTAP	72	288	3
BRTAP	73	0	3
BRTAP	73	0	5
NMSTR	73	96	6
NMSCL	73	96	6	96	48	3
NMTAP	73	144	6
NMTAP	73	192	2
NMTAP	73	288	1
NMTAP	74	0	1
NMTAP	74	24	7
NMTAP	74	48	1
NMTAP	74	72	7
NMTAP	74	96	2
NMTAP	74	120	6
NMTAP	74	144	2
NMTAP	74	168	6
NMTAP	74	192	3
NMTAP	74	216	5
NMTAP	74	240	3
NMTAP	74	264	5
NMTAP	74	288	4
NMTAP	75	0	6
NMTAP	75	32	6
NMTAP	75	64	6
NMTAP	75	96	4
NMTAP	75	128	4
NMTAP	75	160	4
NMTAP	75	192	3
NMTAP	75	224	3
NMTAP	75	256	3
NMTAP	75	288	1
EXSTR	76	0	2
NMSI_	76	0	2	96	48	7
NMSTR	76	96	6
NMSI_	76	96	6	96	48	3
EXHLD	76	192	0	96
EXSTR	76	288	4
BRSLR	76	288	4	96	48	0
NMSTR	77	96	2
NMSI_	77	96	2	96	48	7
NMTAP	77	144	2
NMTAP	77	192	4
NMTAP	77	288	5
NMTAP	78	0	5
NMTAP	78	24	4
NMTAP	78	48	5
NMTAP	78	72	4
NMTAP	78	96	6
NMTAP	78	120	3
NMTAP	78	144	6
NMTAP	78	168	3
NMTAP	78	192	7
NMTAP	78	216	2
NMTAP	78	240	7
NMTAP	78	264	2
NMTAP	78	288	0
BRTAP	79	0	2
BRTAP	79	0	4
NMSTR	79	96	5
NMSCR	79	96	5	96	48	0
NMTAP	79	144	5
NMTAP	79	192	3
NMTAP	79	288	2
NMTAP	80	0	2
NMTAP	80	24	3
NMTAP	80	48	2
NMTAP	80	72	3
NMTAP	80	96	1
NMTAP	80	120	4
NMTAP	80	144	1
NMTAP	80	168	4
NMTAP	80	192	0
NMTAP	80	216	5
NMTAP	80	240	0
NMTAP	80	264	5
NMTAP	80	288	7
BRTAP	81	0	3
BRTAP	81	0	5
NMSTR	81	96	2
NMSCL	81	96	2	96	48	7
NMTAP	81	144	2
NMTAP	81	192	4
NMTAP	81	288	5
NMTAP	82	0	5
NMTAP	82	24	3
NMTAP	82	48	5
NMTAP	82	72	3
NMTAP	82	96	6
NMTAP	82	120	2
NMTAP	82	144	6
NMTAP	82	168	2
NMTAP	82	192	7
NMTAP	82	216	1
NMTAP	82	240	7
NMTAP	82	264	1
NMTAP	82	288	0
NMTAP	83	0	2
NMTAP	83	32	2
NMTAP	83	64	2
NMTAP	83	96	0
NMTAP	83	128	0
NMTAP	83	160	0
NMTAP	83	192	7
NMTAP	83	224	7
NMTAP	83	256	7
NMTAP	83	288	5
BXSTR	84	0	6
NMSUL	84	0	6	96	48	2
BXSTR	84	144	0
NMSUR	84	144	0	96	48	4
BRTAP	84	288	7
NMTAP	85	0	7
NMTAP	85	48	6
NMTAP	85	96	5
NMTAP	85	144	4
NMTAP	85	192	3
NMTAP	85	240	2
NMTAP	85	288	1
NMTAP	85	336	0
NMTAP	86	0	1
NMTAP	86	48	2
NMTAP	86	96	3
NMTAP	86	144	4
NMTAP	86	192	5
NMTAP	86	240	6
NMSTR	86	288	7
NMSI_	86	288	7	96	96	2
CNSI_	87	96	2	0	96	5
CNSI_	87	192	5	0	96	0
BXTAP	87	288	2
NMSTR	88	0	1
NMSI_	88	0	1	96	48	5
NMTAP	88	48	1
NMSTR	88	96	7
NMSI_	88	96	7	96	48	3
NMTAP	88	144	7
NMSTR	88	192	0
NMSI_	88	192	0	96	48	4
NMTAP	88	240	0
NMSTR	88	288	6
NMSI_	88	288	6	96	48	2
NMTAP	88	336	6
NMSTR	89	0	1
NMSI_	89	0	1	96	48	4
NMTAP	89	48	1
NMSTR	89	96	7
NMSI_	89	96	7	96	48	3
NMTAP	89	144	7
NMTAP	89	192	2
NMTAP	89	240	2
NMTAP	89	288	4
NMTAP	89	336	4
EXTAP	90	0	2
NMTAP	90	32	3
NMTAP	90	64	4
EXTAP	90	96	2
NMTAP	90	128	3
NMTAP	90	160	4
EXTAP	90	192	2
NMTAP	90	224	3
NMTAP	90	256	4
EXTAP	90	288	2
NMTAP	90	320	3
NMTAP	90	352	4
BRSTR	91	0	2
NMSCL	91	0	2	96	1920	3
BXHLD	91	96	7	1920

T_REC_TAP	322
T_REC_BRK	44
T_REC_XTP	40
T_REC_BXX	2
T_REC_HLD	27
T_REC_XHO	1
T_REC_BHO	6
T_REC_BXH	1
T_REC_STR	58
T_REC_BST	3
T_REC_XST	4
T_REC_XBS	2
T_REC_TTP	19
T_REC_THO	3
T_REC_SLD	63
T_REC_BSL	4
T_REC_ALL	599
T_NUM_TAP	443
T_NUM_BRK	62
T_NUM_HLD	31
T_NUM_SLD	63
T_NUM_ALL	599
T_JUDGE_TAP	494
T_JUDGE_HLD	212
T_JUDGE_SLD	67
T_JUDGE_ALL	773
TTM_EACHPAIRS	108
TTM_SCR_TAP	221500
TTM_SCR_BRK	161200
TTM_SCR_HLD	31000
TTM_SCR_SLD	94500
TTM_SCR_ALL	508200
TTM_SCR_S	486950
TTM_SCR_SS	502000
TTM_RAT_ACV	10123

