VERSION	0.00.00	1.04.00
FES_MODE	0
BPM_DEF	174.000	174.000	174.000	174.000
MET_DEF	4	4
RESOLUTION	384
CLK_DEF	384
COMPATIBLE_CODE	MA2

BPM	0	0	174.000
MET	0	0	4	4

NMTAP	6	0	4
NMTAP	6	96	4
NMTAP	6	192	4
NMTAP	7	0	5
NMTAP	7	96	5
NMTAP	7	192	5
NMTAP	8	0	6
NMTAP	8	96	6
NMTAP	8	192	6
NMTAP	9	0	0
NMTAP	9	0	7
NMTAP	9	192	0
NMTAP	9	192	7
NMTAP	10	0	0
NMTAP	10	96	0
NMTAP	10	192	0
NMTAP	11	0	1
NMTAP	11	96	1
NMTAP	11	192	1
NMTAP	12	0	2
NMTAP	12	96	2
NMTAP	12	192	2
NMTAP	13	0	3
NMTAP	13	0	4
NMTAP	14	0	2
NMTAP	14	96	2
NMTAP	14	192	1
NMTAP	14	288	1
NMTAP	15	0	0
NMTAP	15	96	0
NMTAP	15	192	6
NMTAP	15	192	7
NMTAP	16	0	5
NMTAP	16	96	5
NMTAP	16	192	6
NMTAP	16	288	6
NMTAP	17	0	7
NMTAP	17	96	7
NMTAP	17	192	0
NMTAP	17	192	1
NMTAP	18	0	1
NMTAP	18	96	1
NMTAP	18	192	2
NMTAP	18	288	2
NMTAP	19	0	3
NMTAP	19	96	3
NMTAP	19	192	4
NMTAP	19	192	5
NMTAP	20	0	6
NMTAP	20	96	6
NMTAP	20	192	5
NMTAP	20	288	5
NMTAP	21	0	4
NMTAP	21	96	4
NMTAP	21	192	2
NMTAP	21	192	3
NMTAP	22	0	1
NMTAP	22	96	2
NMTAP	22	192	3
NMTAP	22	288	4
NMTAP	23	0	5
NMTAP	23	96	6
NMTAP	23	192	0
NMTAP	23	192	7
NMTAP	24	0	6
NMTAP	24	96	5
NMTAP	24	192	4
NMTAP	24	288	3
NMTAP	25	0	2
NMTAP	25	96	1
NMTAP	25	192	0
NMTAP	25	192	7
NMTAP	26	0	1
NMTAP	26	96	1
NMTAP	26	192	1
NMTAP	26	288	0
NMTAP	26	288	1
NMTAP	27	0	2
NMTAP	27	96	2
NMTAP	27	192	2
NMTAP	27	288	2
NMTAP	27	288	3
NMTAP	28	0	4
NMTAP	28	96	4
NMTAP	28	192	4
NMTAP	28	288	4
NMTAP	28	288	5
NMTAP	29	0	6
NMTAP	29	0	7
NMTAP	29	96	6
NMTAP	29	96	7
NMTAP	29	192	6
NMTAP	29	192	7
NMTAP	30	0	6
NMTAP	30	96	6
NMTAP	30	192	6
NMTAP	30	288	6
NMTAP	30	288	7
NMTAP	31	0	5
NMTAP	31	96	5
NMTAP	31	192	5
NMTAP	31	288	4
NMTAP	31	288	5
NMTAP	32	0	3
NMTAP	32	96	3
NMTAP	32	192	3
NMTAP	32	288	2
NMTAP	32	288	3
NMTAP	33	0	0
NMTAP	33	0	1
NMTAP	33	96	0
NMTAP	33	96	1
NMTAP	33	192	0
NMTAP	33	192	1
NMTTP	34	0	1	B	0	L1
NMTTP	34	96	2	B	0	L1
NMTTP	34	192	3	B	0	L1
NMTTP	35	0	6	B	0	L1
NMTTP	35	96	5	B	0	L1
NMTTP	35	192	4	B	0	L1
NMTTP	36	0	1	B	0	L1
NMTTP	36	96	2	B	0	L1
NMTTP	36	192	3	B	0	L1
NMTTP	36	288	4	B	0	L1
NMTTP	37	0	5	B	0	L1
NMTTP	37	96	6	B	0	L1
NMTTP	37	192	0	C	0	L1
NMTTP	38	0	7	B	0	L1
NMTTP	38	96	6	B	0	L1
NMTTP	38	192	4	B	0	L1
NMTTP	38	192	5	B	0	L1
NMTTP	39	0	0	B	0	L1
NMTTP	39	96	1	B	0	L1
NMTTP	39	192	2	B	0	L1
NMTTP	39	192	3	B	0	L1
NMTTP	40	0	6	B	0	L1
NMTTP	40	96	5	B	0	L1
NMTTP	40	192	4	B	0	L1
NMTTP	40	288	3	B	0	L1
NMTTP	41	0	2	B	0	L1
NMTTP	41	96	1	B	0	L1
NMTTP	41	192	0	C	0	L1
NMHLD	42	0	6	192
NMHLD	42	192	7	192
NMHLD	43	0	0	192
NMTAP	43	192	1
NMHLD	44	0	1	192
NMHLD	44	192	0	192
NMHLD	45	0	7	192
NMTAP	45	192	6
NMHLD	46	0	5	192
NMHLD	46	192	4	192
NMHLD	47	0	3	192
NMTAP	47	192	2
NMHLD	48	0	2	192
NMHLD	48	192	3	192
NMHLD	49	0	4	192
NMTAP	49	192	5
NMTAP	50	0	6
NMTAP	50	0	7
NMTAP	50	96	6
NMTAP	50	96	7
NMTAP	50	192	5
NMTAP	50	288	4
NMTAP	51	0	3
NMTAP	51	96	2
NMTAP	51	192	0
NMTAP	51	192	1
NMTAP	52	0	0
NMTAP	52	0	1
NMTAP	52	96	0
NMTAP	52	96	1
NMTAP	52	192	2
NMTAP	52	288	3
NMTAP	53	0	4
NMTAP	53	96	5
NMTAP	53	192	6
NMTAP	53	192	7
NMTAP	54	0	6
NMTAP	54	0	7
NMTAP	54	96	6
NMTAP	54	96	7
NMTAP	54	192	5
NMTAP	54	288	4
NMTAP	55	0	3
NMTAP	55	96	2
NMTAP	55	192	0
NMTAP	55	192	1
NMSTR	56	0	2
NMSI_	56	0	2	96	192	5
NMSTR	57	0	6
NMSI_	57	0	6	96	192	3
NMSTR	58	0	1
NMSI_	58	0	1	96	192	5
NMTAP	59	0	6
NMTAP	59	192	6
NMTAP	59	192	7
NMSTR	60	0	6
NMSI_	60	0	6	96	192	2
NMSTR	61	0	0
NMSI_	61	0	0	96	192	4
NMSTR	62	0	6
NMSI_	62	0	6	96	192	3
NMTAP	63	0	2
NMTAP	63	192	2
NMTAP	63	192	3
NMHLD	64	0	3	192
NMHLD	64	0	4	192
NMHLD	65	0	5	192
NMTAP	65	192	4
NMHLD	66	0	2	192
NMTAP	66	192	3
NMHLD	67	0	5	192
NMTAP	67	192	4
NMHLD	68	0	3	192
NMTAP	68	192	4
BXTAP	69	0	2
NMTAP	69	48	2
NMTAP	69	96	2
NMTAP	69	192	1
NMTAP	69	240	1
NMTAP	69	288	1
NMTAP	70	0	0
NMTAP	70	48	0
NMTAP	70	96	0
NMTAP	70	192	6
NMTAP	70	192	7
NMTAP	71	0	5
NMTAP	71	48	5
NMTAP	71	96	5
NMTAP	71	192	6
NMTAP	71	240	6
NMTAP	71	288	6
NMTAP	72	0	7
NMTAP	72	48	7
NMTAP	72	96	7
NMTAP	72	192	0
NMTAP	72	192	1
NMTAP	73	0	1
NMTAP	73	48	1
NMTAP	73	96	1
NMTAP	73	192	2
NMTAP	73	240	2
NMTAP	73	288	2
NMTAP	74	0	3
NMTAP	74	48	3
NMTAP	74	96	3
NMTAP	74	192	4
NMTAP	74	192	5
NMTAP	75	0	6
NMTAP	75	48	6
NMTAP	75	96	6
NMTAP	75	192	5
NMTAP	75	240	5
NMTAP	75	288	5
NMTAP	76	0	4
NMTAP	76	48	4
NMTAP	76	96	4
NMTAP	76	192	2
NMTAP	76	192	3
NMTAP	77	0	2
NMTAP	77	48	2
NMTAP	77	96	2
NMTAP	77	192	0
NMTAP	77	192	1
NMTAP	77	240	0
NMTAP	77	240	1
NMTAP	77	288	0
NMTAP	77	288	1
NMTAP	78	0	7
NMTAP	78	48	7
NMTAP	78	96	7
NMTAP	78	192	6
NMTAP	78	192	7
NMTAP	79	0	5
NMTAP	79	48	5
NMTAP	79	96	5
NMTAP	79	192	6
NMTAP	79	192	7
NMTAP	79	240	6
NMTAP	79	240	7
NMTAP	79	288	6
NMTAP	79	288	7
NMTAP	80	0	0
NMTAP	80	48	0
NMTAP	80	96	0
NMTAP	80	192	0
NMTAP	80	192	1
NMTAP	81	0	1
NMTAP	81	48	1
NMTAP	81	96	1
NMTAP	81	192	2
NMTAP	81	192	3
NMTAP	81	240	2
NMTAP	81	240	3
NMTAP	81	288	2
NMTAP	81	288	3
NMTAP	82	0	4
NMTAP	82	48	4
NMTAP	82	96	4
NMTAP	82	192	4
NMTAP	82	192	5
NMTAP	83	0	6
NMTAP	83	48	6
NMTAP	83	96	6
NMTAP	83	192	4
NMTAP	83	192	5
NMTAP	83	240	4
NMTAP	83	240	5
NMTAP	83	288	4
NMTAP	83	288	5
NMTAP	84	0	3
NMTAP	84	48	3
NMTAP	84	96	3
BRTAP	84	192	2
BRTAP	84	192	3
NMSTR	85	0	1
NMSI_	85	0	1	96	192	4
NMSTR	86	0	6
NMSI_	86	0	6	96	192	3
NMHLD	87	0	3	192
NMHLD	87	0	4	192
NMTAP	88	0	4
NMTAP	88	0	5
NMTAP	88	48	4
NMTAP	88	48	5
NMTAP	88	96	4
NMTAP	88	96	5
NMTAP	88	192	3
NMTAP	88	192	6
NMTAP	88	240	3
NMTAP	88	240	6
NMTAP	88	288	3
NMTAP	88	288	6
NMTAP	89	0	2
NMTAP	89	0	7
NMTAP	89	48	2
NMTAP	89	48	7
NMTAP	89	96	2
NMTAP	89	96	7
NMTAP	89	192	0
NMTAP	89	192	1
NMTAP	89	240	0
NMTAP	89	240	1
NMTAP	89	288	0
NMTAP	89	288	1
NMTAP	90	0	0
NMTAP	90	0	7
NMTAP	90	96	0
NMTAP	90	96	7
NMTAP	90	192	1
NMTAP	90	192	6
NMTAP	90	288	2
NMTAP	90	288	5
NMSTR	91	0	3
NMSXR	91	0	3	96	672	0
NMSTR	91	0	4
NMSXL	91	0	4	96	672	7

T_REC_TAP	287
T_REC_BRK	2
T_REC_XTP	0
T_REC_BXX	1
T_REC_HLD	20
T_REC_XHO	0
T_REC_BHO	0
T_REC_BXH	0
T_REC_STR	10
T_REC_BST	0
T_REC_XST	0
T_REC_XBS	0
T_REC_TTP	28
T_REC_THO	0
T_REC_SLD	10
T_REC_BSL	0
T_REC_ALL	358
T_NUM_TAP	325
T_NUM_BRK	3
T_NUM_HLD	20
T_NUM_SLD	10
T_NUM_ALL	358
T_JUDGE_TAP	328
T_JUDGE_HLD	80
T_JUDGE_SLD	10
T_JUDGE_ALL	418
TTM_EACHPAIRS	71
TTM_SCR_TAP	162500
TTM_SCR_BRK	7800
TTM_SCR_HLD	20000
TTM_SCR_SLD	15000
TTM_SCR_ALL	205300
TTM_SCR_S	198850
TTM_SCR_SS	205000
TTM_RAT_ACV	10014

