VERSION	0.00.00	1.04.00
FES_MODE	0
BPM_DEF	174.000	174.000	174.000	174.000
MET_DEF	4	4
RESOLUTION	384
CLK_DEF	384
COMPATIBLE_CODE	MA2

BPM	0	0	174.000
MET	0	0	4	4

NMTAP	6	0	7
NMTAP	6	192	7
NMTAP	7	0	6
NMTAP	7	192	6
NMTAP	8	0	5
NMTAP	8	192	5
NMTAP	9	0	4
NMTAP	9	192	4
NMTAP	10	0	3
NMTAP	10	192	3
NMTAP	11	0	2
NMTAP	11	192	2
NMTAP	12	0	1
NMTAP	12	192	1
BRTAP	13	0	0
BRTAP	13	0	7
NMTAP	14	0	1
NMTAP	14	96	1
NMTAP	14	192	1
NMTAP	15	0	0
NMTAP	15	0	1
NMTAP	16	0	6
NMTAP	16	96	6
NMTAP	16	192	6
NMTAP	17	0	6
NMTAP	17	0	7
NMHLD	18	0	6	192
NMHLD	18	0	7	192
NMTAP	19	0	6
NMTAP	19	0	7
NMHLD	20	0	4	192
NMHLD	20	0	5	192
NMTAP	21	0	4
NMTAP	21	0	5
NMHLD	22	0	2	192
NMHLD	22	0	3	192
NMTAP	23	0	2
NMTAP	23	0	3
NMHLD	24	0	0	192
NMHLD	24	0	1	192
BRTAP	25	0	0
BRTAP	25	0	1
NMTAP	26	0	0
NMTAP	26	96	0
NMTAP	26	192	0
NMTAP	27	0	1
NMTAP	27	96	1
NMTAP	27	192	1
NMTAP	28	0	2
NMTAP	28	96	2
NMTAP	28	192	2
NMTAP	29	0	3
NMTAP	29	0	4
NMTAP	29	192	3
NMTAP	29	192	4
NMTAP	30	0	4
NMTAP	30	96	4
NMTAP	30	192	4
NMTAP	31	0	5
NMTAP	31	96	5
NMTAP	31	192	5
NMTAP	32	0	6
NMTAP	32	96	6
NMTAP	32	192	6
BRTAP	33	0	0
BRTAP	33	0	7
NMTTP	34	0	7	E	0	L1
NMTTP	35	0	6	E	0	L1
NMTTP	36	0	5	E	0	L1
NMTTP	37	0	4	E	0	L1
NMTTP	38	0	3	E	0	L1
NMTTP	39	0	2	E	0	L1
NMTTP	40	0	1	E	0	L1
NMTTP	41	0	0	C	1	L1
NMTAP	42	0	7
NMTAP	42	96	7
NMTAP	42	192	7
NMTAP	43	0	6
NMTAP	43	96	6
NMTAP	43	192	6
NMTAP	44	0	5
NMTAP	44	96	5
NMTAP	44	192	5
NMTAP	45	0	3
NMTAP	45	0	4
NMTAP	45	96	3
NMTAP	45	96	4
NMTAP	45	192	3
NMTAP	45	192	4
NMTAP	46	0	3
NMTAP	46	96	3
NMTAP	46	192	3
NMTAP	47	0	2
NMTAP	47	96	2
NMTAP	47	192	2
NMTAP	48	0	1
NMTAP	48	96	1
NMTAP	48	192	1
NMTAP	49	0	0
NMTAP	49	0	7
NMTAP	49	96	0
NMTAP	49	96	7
NMTAP	49	192	0
NMTAP	49	192	7
BRTAP	50	0	1
NMTAP	50	96	1
NMTAP	50	192	1
NMTAP	50	288	1
NMTAP	51	0	2
NMTAP	51	96	2
NMTAP	51	192	2
NMTAP	51	192	3
NMTAP	52	0	4
NMTAP	52	96	4
NMTAP	52	192	4
NMTAP	52	288	4
NMTAP	53	0	5
NMTAP	53	96	5
NMTAP	53	192	4
NMTAP	53	192	5
NMHLD	54	0	6	192
NMHLD	54	0	7	192
NMTAP	55	0	0
NMTAP	55	96	0
BRTAP	55	192	0
BRTAP	55	192	7
NMSTR	56	0	7
NMSI_	56	0	7	96	288	3
NMSTR	58	0	0
NMSI_	58	0	0	96	288	4
NMSTR	60	0	6
NMSI_	60	0	6	96	288	2
NMSTR	62	0	1
NMSI_	62	0	1	96	288	5
BRTAP	64	0	7
NMTAP	65	0	6
NMTAP	65	0	7
NMTAP	65	96	6
NMTAP	65	96	7
NMTAP	65	192	6
NMTAP	65	192	7
NMTAP	66	0	0
NMTAP	66	0	1
NMTAP	66	96	0
NMTAP	66	96	1
NMTAP	66	192	0
NMTAP	66	192	1
NMTAP	67	0	7
NMTAP	67	96	7
NMTAP	67	192	0
NMTAP	67	288	0
NMTAP	68	0	0
NMTAP	68	0	7
BRTAP	69	0	0
NMTAP	69	96	0
NMTAP	69	192	1
NMTAP	69	288	1
NMTAP	70	0	2
NMTAP	70	96	2
NMTAP	70	192	2
NMTAP	70	192	3
NMTAP	71	0	4
NMTAP	71	96	4
NMTAP	71	192	5
NMTAP	71	288	5
NMTAP	72	0	6
NMTAP	72	96	6
NMTAP	72	192	6
NMTAP	72	192	7
NMTAP	73	0	7
NMTAP	73	96	7
NMTAP	73	192	6
NMTAP	73	288	6
NMTAP	74	0	5
NMTAP	74	96	5
NMTAP	74	192	4
NMTAP	74	192	5
NMTAP	75	0	3
NMTAP	75	96	3
NMTAP	75	192	2
NMTAP	75	288	2
NMTAP	76	0	1
NMTAP	76	96	1
NMTAP	76	192	0
NMTAP	76	192	1
BRTAP	77	0	0
NMTAP	77	96	0
NMTAP	77	192	1
NMTAP	77	288	1
NMTAP	78	0	2
NMTAP	78	96	2
NMTAP	78	192	3
NMTAP	78	288	3
NMTAP	79	0	4
NMTAP	79	96	4
NMTAP	79	192	5
NMTAP	79	288	5
NMTAP	80	0	6
NMTAP	80	0	7
NMTAP	80	96	6
NMTAP	80	96	7
NMTAP	80	192	6
NMTAP	80	192	7
NMTAP	81	0	6
NMTAP	81	96	6
NMTAP	81	192	5
NMTAP	81	288	5
NMTAP	82	0	4
NMTAP	82	96	4
NMTAP	82	192	3
NMTAP	82	288	3
NMTAP	83	0	2
NMTAP	83	96	2
NMTAP	83	192	1
NMTAP	83	288	1
BRTAP	84	0	0
BRTAP	84	0	7
NMTAP	85	0	0
NMTAP	85	0	7
NMTAP	85	192	0
NMTAP	85	192	7
NMSTR	86	0	0
NMSI_	86	0	0	96	288	3
NMSTR	86	0	7
NMSI_	86	0	7	96	288	4
NMTAP	88	0	3
NMTAP	88	0	4
NMTAP	88	96	3
NMTAP	88	96	4
NMTAP	88	192	2
NMTAP	88	192	5
NMTAP	88	288	2
NMTAP	88	288	5
NMTAP	89	0	1
NMTAP	89	0	6
NMTAP	89	96	1
NMTAP	89	96	6
NMTAP	89	192	0
NMTAP	89	192	7
NMTAP	89	288	0
NMTAP	89	288	7
NMHLD	90	0	0	480
NMHLD	90	0	7	480

T_REC_TAP	197
T_REC_BRK	14
T_REC_XTP	0
T_REC_BXX	0
T_REC_HLD	12
T_REC_XHO	0
T_REC_BHO	0
T_REC_BXH	0
T_REC_STR	6
T_REC_BST	0
T_REC_XST	0
T_REC_XBS	0
T_REC_TTP	8
T_REC_THO	0
T_REC_SLD	6
T_REC_BSL	0
T_REC_ALL	243
T_NUM_TAP	211
T_NUM_BRK	14
T_NUM_HLD	12
T_NUM_SLD	6
T_NUM_ALL	243
T_JUDGE_TAP	225
T_JUDGE_HLD	60
T_JUDGE_SLD	6
T_JUDGE_ALL	291
TTM_EACHPAIRS	51
TTM_SCR_TAP	105500
TTM_SCR_BRK	36400
TTM_SCR_HLD	12000
TTM_SCR_SLD	9000
TTM_SCR_ALL	162900
TTM_SCR_S	156700
TTM_SCR_SS	161500
TTM_RAT_ACV	10086

