VERSION	0.00.00	1.04.00
FES_MODE	0
BPM_DEF	150.000	150.000	150.000	150.000
MET_DEF	4	4
RESOLUTION	384
CLK_DEF	384
COMPATIBLE_CODE	MA2

BPM	0	0	150.000
MET	0	0	4	4

NMTTP	1	192	1	A	0	M1
NMTTP	1	208	2	D	0	M1
NMTTP	1	224	2	A	0	M1
NMTTP	1	240	3	D	0	M1
NMTTP	1	256	3	A	0	M1
NMTTP	1	272	4	D	0	M1
NMTTP	1	288	4	A	0	M1
NMTAP	2	0	2
NMTAP	2	0	4
NMTAP	2	24	1
NMTAP	2	48	0
NMTAP	2	72	7
NMTAP	2	96	6
NMTAP	2	120	5
NMTAP	2	144	2
NMTAP	2	168	1
NMTAP	2	192	0
NMTAP	2	216	7
NMTAP	2	240	6
NMTAP	2	264	5
NMTAP	2	288	2
NMTAP	2	312	1
NMTAP	2	336	0
NMTAP	2	360	7
NMTAP	3	0	6
NMTAP	3	24	5
NMTAP	3	48	2
NMTAP	3	72	1
NMTAP	3	96	0
NMTAP	3	120	7
NMTAP	3	144	6
NMTAP	3	168	5
NMTAP	3	192	2
NMTAP	3	216	1
NMTAP	3	240	0
NMTAP	3	264	7
NMTAP	3	288	6
NMTAP	3	312	5
NMTAP	3	336	4
NMTAP	3	360	3
NMTAP	4	0	2
NMTAP	4	0	6
NMTAP	4	24	5
NMTAP	4	48	4
NMTAP	4	72	3
NMTAP	4	96	2
NMTAP	4	120	1
NMTAP	4	144	6
NMTAP	4	168	5
NMTAP	4	192	4
NMTAP	4	216	3
NMTAP	4	240	2
NMTAP	4	264	1
NMTAP	4	288	6
NMTAP	4	312	5
NMTAP	4	336	4
NMTAP	4	360	3
NMTAP	5	0	2
NMTAP	5	24	1
NMTAP	5	48	6
NMTAP	5	72	5
NMTAP	5	96	4
NMTAP	5	120	3
NMTAP	5	144	2
NMTAP	5	168	1
NMTAP	5	192	6
NMTAP	5	216	5
NMTAP	5	240	4
NMTAP	5	264	3
NMSTR	5	288	2
NMSXL	5	288	2	96	576	5
NMTAP	5	312	1
NMTAP	5	336	0
NMTAP	5	360	7
EXHLD	6	0	6	96
NMHLD	6	144	7	96
NMHLD	6	288	0	96
NMHLD	7	48	1	96
NMTAP	7	192	0
CNSXR	7	192	5	0	576	2
NMTAP	7	288	7
NMHLD	8	0	6	96
NMTAP	8	144	7
NMTAP	8	240	0
NMTAP	8	288	0
NMTAP	9	0	1
NMTAP	9	48	1
NMTAP	9	96	1
NMTAP	9	144	0
NMTAP	9	168	0
NMSTR	9	192	0
BRSI_	9	192	0	96	48	4
NMTAP	9	240	1
NMTAP	9	240	7
BRTAP	9	288	0
BRHLD	10	0	7	96
NMTAP	10	96	4
NMTAP	10	144	4
NMTAP	10	168	5
NMTAP	10	192	4
NMTAP	10	240	4
NMTAP	10	264	6
NMTAP	10	288	4
NMTAP	10	312	6
NMTAP	10	336	4
NMTAP	11	0	4
NMTAP	11	0	5
NMTAP	11	48	4
NMHLD	11	48	6	96
NMTAP	11	96	4
NMTAP	11	144	4
NMTAP	11	192	4
NMTAP	11	216	5
NMTAP	11	240	4
NMTAP	11	288	4
NMTAP	11	288	6
NMTAP	11	336	4
NMTAP	12	0	4
NMTTP	12	0	6	E	0	M1
NMTAP	12	48	4
NMTTP	12	48	7	E	0	M1
NMTTP	12	96	0	E	0	M1
NMTAP	12	96	4
NMTTP	12	144	1	E	0	M1
NMTAP	12	144	4
NMTTP	12	192	2	E	0	M1
NMTAP	12	192	4
NMTAP	12	240	4
NMTAP	12	288	4
NMTAP	12	312	0
NMTAP	12	336	4
NMHLD	13	0	1	48
NMTAP	13	0	4
NMTAP	13	48	4
NMTAP	13	96	4
NMHLD	13	96	7	48
NMTAP	13	144	4
NMTAP	13	192	4
NMTAP	13	192	5
NMTTP	13	288	4	B	0	M1
NMTTP	13	288	5	B	0	M1
NMTTP	13	288	5	E	0	M1
NMTTP	13	288	5	A	0	M1
NMTTP	13	288	6	B	0	M1
NMTTP	13	288	6	A	0	M1
NMTTP	13	288	7	E	0	M1
BRHLD	14	0	0	96
NMTAP	14	96	3
NMTAP	14	144	3
NMTAP	14	168	2
NMTAP	14	192	3
NMTAP	14	240	3
NMTAP	14	264	1
NMTAP	14	288	3
NMTAP	14	312	1
NMTAP	14	336	3
NMTAP	15	0	2
NMTAP	15	0	3
NMTAP	15	48	2
NMTAP	15	48	3
NMTAP	15	96	1
NMTAP	15	96	3
NMTAP	15	144	1
NMTAP	15	144	3
NMTAP	15	192	0
NMTAP	15	192	3
NMTAP	15	240	0
NMTAP	15	240	3
NMTAP	15	288	3
NMTAP	15	288	7
NMTAP	15	336	3
NMTAP	15	336	7
NMTAP	15	360	0
NMTAP	16	0	1
NMTAP	16	0	3
NMTAP	16	48	3
NMTTP	16	96	1	E	0	M1
NMTAP	16	96	3
NMTTP	16	144	0	E	0	M1
NMTAP	16	144	3
NMTAP	16	192	3
NMTTP	16	192	7	E	0	M1
NMTAP	16	240	3
NMTTP	16	240	6	E	0	M1
NMTAP	16	288	3
NMTAP	16	312	4
NMTAP	16	336	3
NMTAP	17	0	3
NMHLD	17	0	6	48
NMTAP	17	48	3
NMHLD	17	96	0	48
NMTAP	17	96	3
NMTAP	17	144	3
NMTAP	17	192	2
NMTAP	17	192	3
NMTAP	17	288	1
NMSTR	17	288	7
BRSI_	17	288	7	96	48	3
NMTAP	17	336	1
NMTAP	17	336	7
BRSTR	18	0	0
NMSCR	18	0	0	96	240	4
NMTAP	18	96	5
NMTAP	18	144	5
NMTAP	18	192	6
NMTAP	18	240	6
NMTAP	18	288	7
NMTAP	18	336	7
NMSTR	19	0	7
NMSI_	19	0	7	96	96	3
NMHLD	19	96	2	96
CNSXL	19	192	3	0	144	3
NMTAP	19	288	1
NMSTR	20	0	0
NMSXL	20	0	0	96	192	4
NMHLD	20	96	5	96
NMTAP	20	288	6
NMSTR	21	0	7
NMSV_	21	0	7	96	144	2
NMSV_	21	0	7	96	144	4
NMSTR	21	288	1
NMSI_	21	288	1	96	48	4
NMSTR	21	288	5
NMSI_	21	288	5	96	48	0
NMTAP	21	312	2
NMTAP	21	312	6
BRTAP	22	0	1
BRTAP	22	0	5
NMSTR	22	96	7
NMSCL	22	96	7	96	96	3
NMSTR	22	192	3
NMSCL	22	192	3	96	96	7
NMTAP	22	288	7
NMSTR	23	0	3
NMSI_	23	0	3	96	48	6
NMHLD	23	96	1	96
CNSI_	23	144	6	0	48	2
CNSI_	23	192	2	0	96	7
NMTAP	23	288	3
NMSTR	24	0	4
NMSI_	24	0	4	96	48	1
NMHLD	24	96	6	96
CNSI_	24	144	1	0	48	5
CNSI_	24	192	5	0	96	0
NMTAP	24	288	4
NMSTR	25	0	4
NMSLR	25	0	4	96	96	0
NMSTR	25	96	0
NMSLR	25	96	0	96	96	4
NMTAP	25	192	4
NMTAP	25	288	0
NMTAP	25	336	0
BRSTR	26	0	1
NMSCR	26	0	1	96	96	5
NMTAP	26	96	6
NMTAP	26	144	7
NMSTR	26	192	0
NMSLR	26	192	0	96	96	4
NMTAP	26	288	5
NMTAP	26	336	6
NMSTR	27	0	7
NMSCR	27	0	7	96	96	3
NMTAP	27	96	4
NMTAP	27	144	5
NMSTR	27	192	6
NMSLR	27	192	6	96	96	2
NMTAP	27	288	3
NMTAP	27	336	4
NMSTR	28	0	5
NMSCR	28	0	5	96	96	1
NMTAP	28	96	2
NMTAP	28	144	3
NMSTR	28	192	4
NMSLR	28	192	4	96	96	0
NMTAP	28	288	1
NMTAP	28	336	2
NMSTR	29	0	3
NMSI_	29	0	3	96	48	1
NMSI_	29	0	3	96	48	5
NMSTR	29	96	3
NMSI_	29	96	3	96	48	7
NMTTP	29	288	0	B	0	M1
NMTTP	29	288	1	B	0	M1
NMTTP	29	288	1	E	0	M1
NMTTP	29	288	2	B	0	M1
NMTTP	29	288	2	A	0	M1
NMTTP	29	288	3	B	0	M1
NMTTP	29	288	3	E	0	M1
NMSTR	30	0	7
NMSUR	30	0	7	96	96	3
NMTAP	30	96	6
NMSTR	30	192	5
NMSUR	30	192	5	96	96	1
NMTAP	30	288	4
NMSTR	31	0	3
NMSUR	31	0	3	96	96	7
NMTAP	31	96	2
NMSTR	31	192	1
NMSUR	31	192	1	96	96	5
NMTAP	31	288	0
BRSTR	32	0	7
BRSI_	32	0	7	96	48	3
BRSTR	32	96	6
BRSI_	32	96	6	96	48	2
BRSTR	32	192	5
BRSI_	32	192	5	96	48	1
BRSTR	32	288	4
BRSI_	32	288	4	96	48	0
BRTAP	33	0	3
BRSTR	33	96	2
BRSI_	33	96	2	96	96	5
BRSSR	33	96	2	96	96	6
NMSTR	34	0	1
NMSI_	34	0	1	96	48	5
NMSTR	34	0	5
NMSI_	34	0	5	96	48	2
NMSTR	34	96	1
NMSXR	34	96	1	96	96	3
NMTAP	34	96	5
NMTAP	34	192	3
NMSTR	34	240	4
NMSXL	34	240	4	96	48	6
NMSTR	34	288	4
NMSXR	34	288	4	96	48	2
NMSTR	35	96	6
NMSCL	35	96	6	96	48	3
NMSTR	35	144	7
NMSV_	35	144	7	96	48	2
NMTAP	35	192	6
NMTAP	35	240	7
NMTAP	35	336	3
NMSTR	36	0	4
NMSI_	36	0	4	96	48	6
NMSTR	36	96	4
NMSI_	36	96	4	96	48	2
NMSTR	36	192	4
NMSCR	36	192	4	96	48	7
NMSTR	36	288	4
NMSCL	36	288	4	96	48	1
NMTAP	37	0	5
NMTAP	37	48	6
NMSTR	37	96	7
NMSCL	37	96	7	96	48	4
NMSTR	37	144	1
NMSCR	37	144	1	96	48	4
NMTAP	37	192	7
NMTAP	37	240	1
NMSTR	37	288	0
BRSI_	37	288	0	96	48	4
BRTAP	38	0	0
NMSTR	38	96	6
NMSI_	38	96	6	96	48	2
NMTAP	38	144	4
NMTAP	38	192	2
NMSTR	38	240	0
BRSF_	38	240	0	96	48	4
NMTAP	38	288	6
BRTAP	38	336	0
EXTAP	39	48	3
EXTAP	39	48	5
EXTAP	39	96	3
EXTAP	39	96	5
NMSTR	39	192	2
NMSI_	39	192	2	96	48	0
NMSTR	39	192	6
NMSI_	39	192	6	96	48	0
NMTTP	39	240	0	C	0	M1
NMTAP	39	240	4
EXTAP	40	0	1
NMTAP	40	24	2
NMTAP	40	48	1
NMTAP	40	72	2
EXTAP	40	96	0
NMTAP	40	120	3
NMTAP	40	144	0
NMTAP	40	168	3
EXTAP	40	192	7
NMTAP	40	216	4
NMTAP	40	240	6
NMTAP	40	264	5
EXTAP	40	288	7
NMTAP	40	312	4
NMTAP	40	336	0
NMTAP	40	360	3
EXTAP	41	0	1
NMTAP	41	24	2
NMTAP	41	48	1
NMTAP	41	72	2
EXTAP	41	96	0
NMTAP	41	120	3
NMTAP	41	144	0
NMTAP	41	168	3
EXTAP	41	192	7
NMTAP	41	216	4
NMTAP	41	240	6
NMTAP	41	264	5
EXTAP	41	288	7
NMTAP	41	312	4
NMTAP	41	336	0
NMTAP	41	360	3
BRSTR	42	0	1
NMSCR	42	0	1	96	96	5
NMSTR	42	96	7
NMSV_	42	96	7	96	48	4
NMSTR	42	144	7
NMSV_	42	144	7	96	48	2
NMTAP	42	336	7
NMTAP	43	0	1
NMTAP	43	48	3
NMSTR	43	96	4
NMSCR	43	96	4	96	48	7
NMSTR	43	144	2
NMSV_	43	144	2	96	48	7
BRTAP	43	192	4
BRTAP	43	240	2
NMTAP	43	336	4
NMSTR	44	0	3
NMSXR	44	0	3	96	48	1
NMSTR	44	96	3
NMSXL	44	96	3	96	48	5
NMSTR	44	192	3
NMSCL	44	192	3	96	48	0
NMSTR	44	288	3
NMSCR	44	288	3	96	48	6
NMTAP	45	0	2
NMTAP	45	48	1
NMSTR	45	96	0
NMSCR	45	96	0	96	48	3
NMSTR	45	144	6
NMSCL	45	144	6	96	48	3
NMTAP	45	192	0
NMTAP	45	240	6
NMSTR	45	288	7
BRSI_	45	288	7	96	48	3
BRTAP	46	0	7
NMSTR	46	96	1
NMSI_	46	96	1	96	48	5
NMTAP	46	144	3
NMTAP	46	192	5
NMSTR	46	240	7
BRSF_	46	240	7	96	48	3
NMTAP	46	288	1
BRTAP	46	336	7
EXTAP	47	48	2
EXTAP	47	48	4
EXTAP	47	96	2
EXTAP	47	96	4
NMSTR	47	192	1
NMSXR	47	192	1	96	48	7
NMSTR	47	192	3
NMSCR	47	192	3	96	48	6
NMTTP	47	240	0	C	0	M1
NMTAP	47	240	2
NMSTR	48	0	0
NMSCL	48	0	0	96	144	4
NMHLD	48	72	0	72
NMSTR	48	192	0
NMSCR	48	192	0	96	144	4
NMHLD	48	264	0	72
BRTAP	49	0	6
NMHLD	49	96	6	24
NMHLD	49	144	6	24
NMHLD	49	192	3	24
NMHLD	49	192	5	24
NMHLD	49	240	3	24
NMHLD	49	240	5	24
NMHLD	49	288	2	24
NMHLD	49	336	2	24
NMHLD	49	336	4	24
NMSTR	50	0	1
NMSI_	50	0	1	96	48	5
NMSTR	50	0	5
NMSI_	50	0	5	96	48	1
NMTAP	50	96	1
NMTAP	50	96	5
NMSTR	50	192	3
NMSI_	50	192	3	96	48	7
NMSTR	50	192	7
NMSI_	50	192	7	96	48	3
NMTAP	50	240	1
NMTAP	50	240	5
NMTAP	50	288	3
NMTAP	50	288	7
NMSTR	51	0	1
NMSI_	51	0	1	96	48	5
NMTAP	51	48	0
NMSTR	51	96	5
NMSI_	51	96	5	96	48	1
NMTAP	51	144	6
NMSTR	51	192	3
NMSI_	51	192	3	96	48	7
NMSV_	51	192	3	96	48	0
NMTAP	51	240	4
NMSTR	52	0	2
NMSI_	52	0	2	96	48	6
NMSTR	52	0	6
NMSI_	52	0	6	96	48	2
NMTAP	52	96	2
NMTAP	52	96	6
NMSTR	52	192	0
NMSI_	52	192	0	96	48	4
NMSTR	52	192	4
NMSI_	52	192	4	96	48	0
NMTAP	52	240	2
NMTAP	52	240	6
NMTAP	52	288	0
NMTAP	52	288	4
NMSTR	53	0	6
NMSI_	53	0	6	96	48	2
NMTAP	53	48	4
NMSTR	53	96	2
NMSI_	53	96	2	96	48	6
NMTAP	53	144	1
NMTAP	53	192	4
NMTAP	53	240	4
NMSTR	53	288	0
NMSI_	53	288	0	96	48	3
NMSTR	53	336	3
NMSI_	53	336	3	96	48	0
NMSTR	54	0	0
NMSI_	54	0	0	96	48	5
NMSTR	54	48	5
NMSI_	54	48	5	96	48	1
NMSTR	54	96	7
NMSI_	54	96	7	96	48	4
NMSTR	54	144	7
NMSI_	54	144	7	96	48	2
NMSTR	54	192	7
NMSI_	54	192	7	96	48	3
NMTAP	54	288	7
NMTAP	55	0	2
NMTAP	55	24	4
NMTAP	55	48	3
NMTAP	55	72	4
NMTAP	55	96	1
NMTAP	55	120	3
NMTAP	55	144	2
NMTAP	55	168	3
NMSTR	55	192	0
NMSI_	55	192	0	96	48	4
NMTAP	55	216	3
NMTAP	55	240	2
NMTAP	55	264	3
NMSTR	56	0	0
NMSUR	56	0	0	96	48	4
NMSTR	56	0	6
NMSI_	56	0	6	96	48	1
NMTAP	56	96	0
NMTAP	56	96	6
NMSTR	56	192	1
NMSV_	56	192	1	96	48	4
NMSTR	56	192	5
NMSV_	56	192	5	96	48	4
NMTAP	56	240	7
NMTAP	57	0	2
NMTAP	57	24	3
NMTAP	57	48	3
NMTAP	57	72	3
NMTAP	57	96	1
NMTAP	57	120	3
NMTAP	57	144	3
NMTAP	57	168	3
NMSTR	57	192	0
NMSI_	57	192	0	96	48	4
NMSI_	57	192	0	96	48	6
NMTAP	57	216	3
NMTAP	57	240	3
NMTAP	57	264	3
NMSTR	57	288	0
NMSI_	57	288	0	96	48	3
BRTAP	58	0	0
NMHLD	58	0	5	96
EXTAP	58	96	4
NMTAP	58	120	6
NMTAP	58	144	4
NMTAP	58	168	6
EXTAP	58	192	4
NMTAP	58	216	7
NMTAP	58	240	4
NMTAP	58	264	7
EXTAP	58	288	4
NMTAP	58	312	0
NMTAP	58	336	3
NMTAP	58	360	0
NMHLD	59	0	2	96
EXTAP	59	96	3
NMTAP	59	120	1
NMTAP	59	144	3
NMTAP	59	168	1
EXTAP	59	192	3
NMTAP	59	216	0
NMTAP	59	240	3
NMTAP	59	264	0
EXTAP	59	288	3
NMTAP	59	312	7
NMTAP	59	336	4
NMTAP	59	360	7
NMHLD	60	0	5	96
EXTAP	60	96	7
NMTAP	60	120	4
NMTAP	60	144	7
NMTAP	60	168	4
EXTAP	60	192	7
NMTAP	60	216	3
NMTAP	60	240	7
NMTAP	60	264	3
EXTAP	60	288	7
NMTAP	60	312	2
NMTAP	60	336	0
NMTAP	60	360	2
NMHLD	61	0	1	96
EXTAP	61	96	0
NMTAP	61	120	3
NMTAP	61	144	0
NMTAP	61	168	3
EXSTR	61	192	0
NMSI_	61	192	0	96	48	4
NMTAP	61	216	4
NMTAP	61	240	0
NMTAP	61	264	4
EXSTR	61	288	0
BRSF_	61	288	0	96	48	4
BRTAP	62	0	0
NMSTR	62	96	6
NMSCR	62	96	6	96	48	1
NMTAP	62	144	4
NMSTR	62	192	2
NMSI_	62	192	2	96	48	7
NMSTR	62	240	4
NMSI_	62	240	4	96	48	6
NMTAP	63	0	0
NMSTR	63	96	1
NMSCL	63	96	1	96	48	6
NMTAP	63	144	3
NMSTR	63	192	5
NMSI_	63	192	5	96	48	0
NMSTR	63	240	3
NMSI_	63	240	3	96	48	1
NMTAP	64	0	7
NMSTR	64	96	5
NMSCR	64	96	5	96	48	0
NMTAP	64	144	4
NMSTR	64	192	2
NMSI_	64	192	2	96	48	7
NMTAP	64	240	3
NMSTR	64	288	6
NMSI_	64	288	6	96	48	3
NMTAP	64	336	5
NMSTR	65	0	1
NMSCR	65	0	1	96	48	4
NMTAP	65	48	7
NMSTR	65	96	6
NMSCL	65	96	6	96	48	3
NMTAP	65	144	0
BRTAP	65	192	2
BRTAP	65	240	0
BRTAP	65	288	6
BRHLD	66	0	2	96
BRTAP	66	0	7
NMTAP	66	96	0
NMTAP	66	120	3
NMTAP	66	144	1
NMTAP	66	168	3
NMTAP	66	192	0
NMTAP	66	192	2
NMTAP	66	216	1
NMTAP	66	216	7
NMTAP	66	240	0
NMTAP	66	240	6
NMTAP	66	264	5
NMTAP	66	264	7
NMTAP	66	288	4
NMTAP	66	288	6
NMTAP	66	336	5
NMTAP	66	360	5
NMTAP	67	0	5
NMTAP	67	48	7
NMTAP	67	72	7
NMTAP	67	96	7
NMTAP	67	144	0
NMTAP	67	168	0
NMTAP	67	192	7
NMSTR	67	216	6
NMSXL	67	216	6	96	168	1
NMTAP	67	240	5
NMTAP	67	264	4
NMTAP	67	312	4
NMTAP	68	120	7
NMTAP	68	144	0
NMTAP	68	168	7
NMSTR	68	192	2
NMSI_	68	192	2	96	48	7
NMTAP	68	224	2
NMTAP	68	256	2
NMSTR	68	288	5
NMSI_	68	288	5	96	48	0
NMTAP	68	320	5
NMTAP	68	352	5
NMTAP	69	0	2
NMHLD	69	32	3	64
NMTAP	69	96	0
NMTAP	69	120	7
NMTAP	69	144	6
NMTAP	69	168	5
NMTAP	69	192	3
NMTAP	69	216	2
NMTAP	69	240	1
NMTAP	69	264	0
EXTAP	69	288	7
EXTAP	69	336	4
NMTAP	70	0	3
NMTAP	70	0	6
NMTAP	70	48	1
NMTAP	70	48	4
NMTAP	70	96	3
NMHLD	70	120	2	48
NMSTR	70	168	3
NMSCR	70	168	3	96	72	7
NMTAP	70	216	0
NMTAP	70	216	1
NMTAP	70	264	2
NMTAP	70	336	2
NMTAP	70	360	3
NMTAP	71	0	4
NMTAP	71	48	7
NMHLD	71	96	6	72
NMTAP	71	168	4
NMTAP	71	216	5
NMTAP	71	240	6
NMTAP	71	264	7
NMTAP	71	288	3
NMTAP	71	312	2
NMTAP	71	336	1
NMTAP	71	360	0
EXTAP	72	0	7
NMTAP	72	24	4
NMTAP	72	48	7
NMTAP	72	72	4
EXTAP	72	96	7
NMTAP	72	120	3
NMTAP	72	144	7
NMTAP	72	168	3
EXTAP	72	192	7
NMTAP	72	216	4
NMTAP	72	240	7
NMTAP	72	264	5
EXTAP	72	288	7
NMTAP	72	312	4
NMTAP	72	336	7
NMTAP	72	360	3
EXTAP	73	0	7
NMTAP	73	24	2
NMTAP	73	48	7
NMTAP	73	72	1
EXTAP	73	96	7
NMTAP	73	120	0
NMTAP	73	144	7
NMTAP	73	168	6
EXTAP	73	192	7
NMTAP	73	216	5
NMTAP	73	240	7
NMTAP	73	264	4
EXTAP	73	288	7
NMTAP	73	312	3
NMTAP	73	336	7
NMTAP	73	360	2
BRSTR	74	0	6
NMSUL	74	0	6	96	192	3
NMTAP	74	336	2
NMSTR	75	0	2
NMSV_	75	0	2	96	96	4
NMSTR	75	96	4
NMSF_	75	96	4	96	48	0
NMTAP	75	336	0
NMTAP	76	0	0
NMTAP	76	96	1
NMTAP	76	96	7
BRTAP	76	192	4
BRTAP	76	192	6
BRSTR	76	288	2
NMSUR	76	288	2	96	192	4
BRTAP	76	288	4
EXTAP	77	240	7
EXSTR	77	288	7
NMSI_	77	288	7	96	48	2
NMSI_	77	288	7	96	48	3
BRTAP	78	0	7
NMSTR	78	96	0
NMSI_	78	96	0	96	48	4
BRTAP	78	192	0
NMTAP	78	192	5
NMSTR	78	240	6
NMSI_	78	240	6	96	48	2
NMSI_	78	240	6	96	48	3
BRTAP	78	336	6
EXTAP	79	48	1
EXTAP	79	48	4
NMSTR	79	96	1
NMSCR	79	96	1	96	48	4
NMSTR	79	96	4
NMSCR	79	96	4	96	48	7
NMTAP	79	192	1
NMSTR	79	192	4
NMSXR	79	192	4	96	48	3
NMHLD	79	288	6	96
EXTAP	80	0	5
NMTAP	80	24	6
NMTAP	80	48	5
NMTAP	80	72	6
EXTAP	80	96	4
NMTAP	80	120	7
NMTAP	80	144	4
NMTAP	80	168	7
EXTAP	80	192	3
NMTAP	80	216	0
NMTAP	80	240	2
NMTAP	80	264	1
EXTAP	80	288	3
NMTAP	80	312	0
NMTAP	80	336	4
NMTAP	80	360	7
EXTAP	81	0	5
NMTAP	81	24	6
NMTAP	81	48	5
NMTAP	81	72	6
EXTAP	81	96	4
NMTAP	81	120	7
NMTAP	81	144	4
NMTAP	81	168	7
EXTAP	81	192	3
NMTAP	81	216	0
NMTAP	81	240	2
NMTAP	81	264	1
EXTAP	81	288	3
NMTAP	81	312	0
NMTAP	81	336	3
NMSTR	82	0	4
NMSI_	82	0	4	96	48	7
NMSTR	82	0	7
NMSI_	82	0	7	96	48	4
NMTAP	82	48	5
NMTAP	82	48	6
NMTAP	82	96	4
NMSTR	82	96	7
NMSCR	82	96	7	96	96	4
NMTAP	82	192	5
NMTAP	82	240	5
NMTAP	82	336	1
NMSTR	83	0	0
NMSI_	83	0	0	96	48	3
NMSTR	83	0	3
NMSI_	83	0	3	96	48	0
NMTAP	83	48	1
NMTAP	83	48	2
NMTAP	83	96	0
NMSTR	83	96	3
NMSCR	83	96	3	96	96	0
NMTAP	83	192	1
NMTAP	83	240	1
NMTAP	83	336	7
NMSTR	84	0	7
NMSCL	84	0	7	96	48	4
NMSTR	84	48	4
NMSI_	84	48	4	96	48	0
NMSTR	84	96	0
NMSCR	84	96	0	96	48	3
NMSTR	84	144	3
NMSI_	84	144	3	96	48	7
NMHLD	84	288	0	96
NMSTR	85	0	3
NMSCL	85	0	3	96	48	0
NMSCR	85	0	3	96	48	6
NMTAP	85	48	3
NMSTR	85	96	3
NMSI_	85	96	3	96	48	7
NMTAP	85	192	3
NMTAP	85	240	1
NMSTR	85	288	0
BRSI_	85	288	0	96	48	4
BRTAP	86	0	0
NMTAP	86	0	5
NMSTR	86	96	6
NMSI_	86	96	6	96	48	2
NMTAP	86	144	4
NMTAP	86	192	2
NMSTR	86	240	0
BRSF_	86	240	0	96	48	4
NMTAP	86	288	6
BRTAP	86	336	0
EXTAP	87	48	3
EXTAP	87	48	5
EXTAP	87	96	3
EXTAP	87	96	5
NMSTR	87	192	4
NMSCL	87	192	4	96	48	1
NMSTR	87	192	6
NMSXL	87	192	6	96	48	0
NMTTP	87	240	0	C	0	M1
NMTAP	87	240	5
NMSTR	88	0	7
NMSCR	88	0	7	96	144	3
NMHLD	88	72	7	72
NMSTR	88	192	7
NMSCL	88	192	7	96	144	3
NMHLD	88	264	7	72
BRTAP	89	0	1
NMTTP	89	96	1	E	0	M1
NMTTP	89	96	6	E	0	M1
NMTTP	89	192	3	E	0	M1
NMTTP	89	192	4	E	0	M1
NMTAP	89	288	1
NMTAP	89	312	1
NMTAP	89	336	3
NMTAP	90	0	2
NMTAP	90	0	4
NMTAP	90	72	4
NMTAP	90	72	6
NMTAP	90	144	0
NMTAP	90	144	2
NMTAP	90	216	3
NMTAP	90	216	5
NMTTP	90	288	1	B	0	M1
NMTTP	90	288	2	B	0	M1
NMTTP	90	336	5	B	0	M1
NMTTP	90	336	6	B	0	M1
NMTTP	91	0	3	B	0	M1
NMTTP	91	0	4	B	0	M1
NMTTP	91	48	0	C	0	M1
NMTTP	91	72	0	C	0	M1
NMTTP	91	96	0	C	0	M1
NMTTP	91	120	0	C	0	M1
NMTTP	91	144	0	C	0	M1
NMTTP	91	168	0	C	0	M1
NMSTR	91	192	0
NMSI_	91	192	0	96	48	2
NMTAP	91	240	0
NMTAP	91	288	6
NMSTR	91	336	7
NMSI_	91	336	7	96	48	5
NMTAP	92	0	7
NMTAP	92	48	4
NMTAP	92	96	4
NMTAP	92	108	3
NMTAP	92	120	2
NMTAP	92	132	1
NMTAP	92	144	0
NMTAP	92	144	4
NMSTR	92	192	2
NMSCL	92	192	2	96	48	6
NMTAP	92	192	6
NMTAP	92	240	4
NMTAP	92	336	3
NMTAP	92	360	3
NMSTR	93	0	0
NMSLR	93	0	0	96	48	4
NMTAP	93	48	1
NMTAP	93	72	3
NMTAP	93	120	6
NMSTR	93	144	7
NMSLL	93	144	7	96	48	3
NMTAP	93	192	6
NMTAP	93	216	4
NMTAP	93	264	1
NMSTR	93	288	0
NMSF_	93	288	0	96	48	4
NMTAP	93	336	1
NMTAP	93	336	7
EXTAP	93	360	0

T_REC_TAP	494
T_REC_BRK	26
T_REC_XTP	52
T_REC_BXX	0
T_REC_HLD	35
T_REC_XHO	1
T_REC_BHO	3
T_REC_BXH	0
T_REC_STR	134
T_REC_BST	10
T_REC_XST	3
T_REC_XBS	0
T_REC_TTP	49
T_REC_THO	0
T_REC_SLD	140
T_REC_BSL	15
T_REC_ALL	962
T_NUM_TAP	732
T_NUM_BRK	54
T_NUM_HLD	36
T_NUM_SLD	140
T_NUM_ALL	962
T_JUDGE_TAP	768
T_JUDGE_HLD	64
T_JUDGE_SLD	155
T_JUDGE_ALL	987
TTM_EACHPAIRS	84
TTM_SCR_TAP	366000
TTM_SCR_BRK	140400
TTM_SCR_HLD	36000
TTM_SCR_SLD	210000
TTM_SCR_ALL	752400
TTM_SCR_S	724600
TTM_SCR_SS	747000
TTM_RAT_ACV	10072

