VERSION	0.00.00	1.04.00
FES_MODE	0
BPM_DEF	150.000	150.000	150.000	150.000
MET_DEF	4	4
RESOLUTION	384
CLK_DEF	384
COMPATIBLE_CODE	MA2

BPM	0	0	150.000
MET	0	0	4	4

BRTAP	1	192	4
BRTAP	1	192	7
EXHLD	2	0	1	96
EXHLD	2	0	3	1440
NMHLD	2	144	1	96
NMHLD	2	288	0	96
NMHLD	3	48	0	96
NMTAP	3	192	7
NMTAP	3	288	7
NMHLD	4	0	6	96
NMHLD	4	144	6	96
NMHLD	4	288	5	96
NMHLD	5	48	5	96
NMTAP	5	192	6
NMSTR	5	288	6
NMSSL	5	288	6	96	288	2
NMSTR	6	288	6
NMSSR	6	288	6	96	288	2
NMTAP	7	288	1
NMTAP	7	336	1
NMHLD	8	0	1	288
NMHLD	8	288	4	96
NMTAP	9	0	2
NMTAP	9	48	2
NMTAP	9	96	2
NMTAP	9	144	2
NMSTR	9	192	0
BRSI_	9	192	0	96	48	3
NMHLD	9	192	2	96
BRTAP	10	0	1
NMHLD	10	96	2	960
NMTAP	10	96	4
NMTAP	10	192	1
NMTAP	10	240	1
NMTAP	10	288	1
NMTAP	11	0	0
NMTAP	11	96	4
NMTAP	11	192	1
NMTAP	11	240	1
NMTAP	11	288	1
NMTAP	12	0	4
NMTAP	12	96	0
NMTAP	12	192	4
NMTAP	12	240	4
NMHLD	12	288	4	96
NMHLD	13	0	6	96
NMTAP	13	96	0
NMSTR	13	192	0
NMSI_	13	192	0	96	48	6
NMTAP	13	192	2
BRTAP	14	0	1
NMTAP	14	96	3
NMHLD	14	96	5	1056
NMTAP	14	192	6
NMTAP	14	240	6
NMTAP	14	288	6
NMTAP	15	0	7
NMTAP	15	96	3
NMTAP	15	192	6
NMTAP	15	240	6
NMTAP	15	288	6
NMTTP	16	0	7	E	0	M1
NMTTP	16	96	0	E	0	M1
NMTTP	16	192	1	E	0	M1
NMTTP	16	288	0	C	0	M1
NMHLD	17	0	7	96
NMHLD	17	96	1	96
NMTAP	17	192	3
NMTAP	17	288	0
NMTAP	17	288	6
NMTAP	17	336	1
NMTAP	17	336	5
BRHLD	18	0	2	1344
BRSTR	18	0	4
NMSI_	18	0	4	96	96	1
NMSTR	18	288	1
NMSI_	18	288	1	96	96	5
CNSCR	19	96	5	0	96	0
NMSTR	19	288	0
NMSI_	19	288	0	96	96	4
CNSCL	20	96	4	0	96	1
NMSTR	20	288	1
NMSI_	20	288	1	96	96	5
CNSCR	21	96	5	0	96	0
EXTAP	21	288	7
EXTAP	21	312	7
BRSTR	22	0	0
NMSI_	22	0	0	96	96	5
BRHLD	22	0	6	1248
NMSTR	22	288	5
NMSI_	22	288	5	96	96	1
CNSCR	23	96	1	0	96	4
NMSTR	23	288	4
NMSI_	23	288	4	96	96	0
CNSCL	24	96	0	0	96	5
NMTAP	24	288	5
NMHLD	25	0	5	96
NMTAP	25	192	4
NMTAP	25	192	7
EXTAP	25	288	5
EXTAP	25	288	6
BRHLD	26	0	4	96
BRHLD	26	0	6	144
NMHLD	26	144	3	144
NMHLD	26	192	5	144
NMHLD	26	336	3	144
NMHLD	27	0	5	96
NMTAP	27	192	4
NMSTR	27	192	6
NMSCR	27	192	6	96	96	1
NMTAP	27	288	3
NMHLD	28	0	2	96
NMHLD	28	144	3	144
NMHLD	28	192	1	96
NMSTR	29	0	0
NMSI_	29	0	0	96	96	4
NMHLD	29	0	4	96
CNSI_	29	192	4	0	96	2
BRTAP	29	288	0
NMTAP	30	0	3
BXHLD	30	0	6	384
NMHLD	30	96	5	96
NMTAP	30	288	4
NMTAP	31	0	5
NMSTR	31	96	5
NMSI_	31	96	5	96	48	1
NMSTR	31	96	7
NMSI_	31	96	7	96	48	3
BRTAP	32	0	2
NMHLD	32	0	4	96
NMHLD	32	96	6	96
NMHLD	32	192	2	96
NMHLD	32	288	4	288
NMTAP	33	0	1
NMTAP	33	48	1
NMTAP	33	96	1
NMTAP	33	144	1
NMSTR	33	192	1
NMSI_	33	192	1	96	48	4
BRSTR	34	0	1
NMSCL	34	0	1	96	48	6
NMTAP	34	96	4
EXTAP	34	192	5
EXTAP	34	192	7
NMTAP	34	288	0
NMTAP	34	288	2
NMTAP	35	0	4
NMSTR	35	0	6
NMSCL	35	0	6	96	48	3
NMTAP	35	96	1
EXTAP	35	192	0
EXTAP	35	192	2
NMTAP	35	288	5
NMTAP	35	288	7
NMHLD	36	0	4	48
NMHLD	36	0	6	48
NMHLD	36	96	4	48
NMHLD	36	96	6	48
NMHLD	36	192	2	48
NMHLD	36	192	4	48
NMHLD	36	288	4	48
NMHLD	36	288	6	48
NMTAP	37	0	5
NMTAP	37	48	3
NMTAP	37	96	1
NMTAP	37	144	7
NMTAP	37	192	5
EXTAP	37	240	3
EXTAP	37	240	7
EXTAP	37	288	3
EXSTR	37	288	7
BRSI_	37	288	7	96	48	3
BRTAP	38	0	1
NMTAP	38	96	2
NMTAP	38	96	4
BRTAP	38	192	5
BRTAP	38	192	7
NMTAP	38	288	1
NMTAP	38	288	3
BRTAP	38	336	2
BRTAP	38	336	4
NMTAP	39	0	3
NMSTR	39	0	5
NMSCR	39	0	5	96	48	0
EXSTR	39	96	2
NMSUL	39	96	2	96	144	3
NMTAP	40	0	5
NMTAP	40	48	5
NMTAP	40	96	7
NMTAP	40	144	7
NMTAP	40	192	1
NMTAP	40	240	1
NMTAP	40	288	3
NMTAP	40	336	3
NMTAP	41	0	1
NMTAP	41	0	3
NMTAP	41	48	1
NMTAP	41	48	3
NMTAP	41	96	1
NMTAP	41	96	3
NMTAP	41	144	1
NMTAP	41	144	3
NMTAP	41	192	1
NMTAP	41	192	2
NMTAP	41	240	1
NMTAP	41	240	2
BRTAP	41	288	0
BRTAP	41	288	3
BRTAP	42	0	4
BRSTR	42	0	6
NMSCR	42	0	6	96	48	1
NMTAP	42	96	3
EXTAP	42	192	0
EXTAP	42	192	2
NMTAP	42	288	5
NMTAP	42	288	7
NMSTR	43	0	1
NMSCR	43	0	1	96	48	4
NMTAP	43	0	3
NMTAP	43	96	6
EXTAP	43	192	5
EXTAP	43	192	7
NMTAP	43	288	0
NMTAP	43	288	2
NMHLD	44	0	1	48
NMHLD	44	0	3	48
NMHLD	44	96	1	48
NMHLD	44	96	3	48
NMHLD	44	192	3	48
NMHLD	44	192	5	48
NMHLD	44	288	1	48
NMHLD	44	288	3	48
NMTAP	45	0	2
NMTAP	45	48	4
NMTAP	45	96	6
NMTAP	45	144	0
NMTAP	45	192	2
EXTAP	45	240	0
EXTAP	45	240	4
EXSTR	45	288	0
BRSI_	45	288	0	96	48	4
EXTAP	45	288	4
BRTAP	46	0	6
NMTAP	46	96	5
NMTAP	46	96	7
BRTAP	46	192	1
BRTAP	46	192	3
NMTAP	46	288	1
NMTAP	46	288	7
BRTAP	46	336	2
BRTAP	46	336	6
NMTAP	47	0	3
NMSTR	47	0	5
NMSI_	47	0	5	96	48	0
NMSTR	47	96	4
NMSLR	47	96	4	96	120	1
NMHLD	48	0	7	72
NMHLD	48	72	5	72
NMTAP	48	144	3
NMHLD	48	192	0	72
NMHLD	48	264	2	72
NMTAP	48	336	4
BRSTR	49	0	4
BRSI_	49	0	4	96	96	0
CNSI_	49	192	0	0	96	3
NMHLD	50	0	2	96
BRTAP	50	0	4
NMHLD	50	96	0	96
NMHLD	50	192	3	96
NMHLD	50	288	1	96
NMHLD	51	0	2	96
NMHLD	51	96	0	288
NMTAP	51	192	2
NMTAP	51	240	2
NMTAP	51	288	2
NMHLD	52	0	6	96
NMHLD	52	96	4	96
NMHLD	52	192	7	96
NMHLD	52	288	5	96
NMHLD	53	0	3	96
NMHLD	53	96	5	96
NMTAP	53	192	6
NMTAP	53	240	6
EXTAP	53	288	5
EXTAP	53	288	6
BXHLD	54	0	1	96
BXTAP	54	0	7
NMHLD	54	96	3	96
NMHLD	54	192	5	96
NMHLD	54	288	2	96
NMHLD	55	0	6	96
NMHLD	55	96	1	288
NMTAP	55	192	7
NMTAP	55	240	7
NMTAP	55	288	7
NMHLD	56	0	6	96
NMHLD	56	96	0	96
NMHLD	56	192	5	96
NMHLD	56	288	1	96
NMHLD	57	0	4	96
NMHLD	57	96	2	96
NMTAP	57	192	3
NMTAP	57	240	3
BRTAP	57	288	0
BRTAP	57	288	3
BRTAP	58	0	4
BRTAP	58	0	7
NMTAP	58	96	1
NMHLD	58	144	1	144
NMTAP	58	240	3
NMSTR	58	288	3
NMSI_	58	288	3	96	96	7
NMSTR	59	96	1
NMSCR	59	96	1	96	96	4
NMSTR	59	192	6
NMSCR	59	192	6	96	48	7
CNSI_	59	336	7	0	48	1
EXTAP	60	0	4
NMTAP	60	96	6
NMHLD	60	144	6	96
NMTAP	60	240	5
NMSTR	60	288	5
NMSCL	60	288	5	96	96	2
NMSTR	61	96	7
NMSUL	61	96	7	96	96	3
NMTAP	61	192	1
BRTAP	61	288	1
BRTAP	62	0	0
BRTAP	62	0	2
NMTAP	62	96	1
NMHLD	62	144	1	96
NMTAP	62	240	2
NMTAP	62	288	1
NMSTR	62	288	3
NMSCR	62	288	3	96	96	6
NMSTR	63	96	1
NMSI_	63	96	1	96	96	4
NMSTR	63	192	7
NMSI_	63	192	7	96	96	2
EXTAP	64	0	4
NMTAP	64	96	7
NMHLD	64	144	7	96
NMTAP	64	240	5
NMHLD	64	288	4	288
NMTAP	64	288	6
NMTAP	65	0	2
NMTAP	65	96	2
NMSTR	65	192	2
NMSI_	65	192	2	96	48	7
BRTAP	66	0	0
BRTAP	66	0	6
NMTAP	66	96	2
NMHLD	66	96	5	1344
NMTAP	66	144	2
NMTAP	66	192	2
NMTAP	66	288	6
NMSTR	67	0	0
NMSI_	67	0	0	96	48	4
NMSTR	67	192	0
NMSI_	67	192	0	96	48	6
NMSTR	68	0	0
NMSI_	68	0	0	96	48	5
CNSI_	68	144	5	0	48	3
NMTAP	68	288	0
NMSTR	69	0	7
NMSI_	69	0	7	96	48	5
CNSI_	69	144	5	0	48	2
NMTAP	69	288	0
NMTAP	69	336	0
BRHLD	70	0	1	480
BRTAP	70	0	7
NMSTR	70	96	2
NMSI_	70	96	2	96	48	4
NMSTR	70	288	2
NMSI_	70	288	2	96	48	7
NMSTR	71	96	2
NMSI_	71	96	2	96	48	6
NMSI_	71	96	2	96	48	6
CNSI_	71	240	6	0	48	0
CNSI_	71	240	6	0	48	4
NMHLD	72	0	1	672
NMHLD	72	0	3	48
NMHLD	72	96	3	48
NMHLD	72	192	2	48
NMHLD	72	288	2	48
NMTAP	73	0	3
NMTAP	73	48	3
NMTAP	73	96	4
NMTAP	73	144	4
NMTAP	73	192	3
NMTAP	73	240	3
NMSTR	73	288	2
NMSCL	73	288	2	96	768	3
NMTTP	74	0	1	E	1	M1
CNSSL	76	0	3	0	384	7
NMTAP	77	0	3
NMTAP	77	96	3
NMTAP	77	192	3
EXTAP	77	240	2
EXTAP	77	240	4
EXTAP	77	288	2
EXTAP	77	288	4
BRHLD	78	0	5	96
BRHLD	78	0	7	96
BRHLD	78	192	0	96
BRHLD	78	192	2	96
BXTAP	78	336	4
BXTAP	78	336	6
NMTAP	79	48	2
NMTAP	79	48	4
NMTAP	79	96	2
NMSTR	79	96	4
NMSUR	79	96	4	96	192	5
NMTAP	80	0	7
NMTAP	80	48	7
NMTAP	80	96	5
NMTAP	80	144	5
NMTAP	80	192	3
NMTAP	80	240	3
NMTAP	80	288	1
NMTAP	80	336	1
NMTAP	81	0	1
NMTAP	81	0	2
NMTAP	81	48	1
NMTAP	81	48	2
NMTAP	81	96	1
NMTAP	81	96	2
NMTAP	81	144	1
NMTAP	81	144	2
NMSTR	81	192	1
NMSI_	81	192	1	96	48	4
NMSTR	81	192	2
NMSI_	81	192	2	96	48	6
BRSTR	82	0	1
BRSCR	82	0	1	96	48	4
BXTAP	82	0	7
NMTAP	82	96	6
NMTAP	82	144	6
NMTAP	82	192	5
NMHLD	82	192	7	96
NMTAP	82	288	4
NMTAP	82	336	5
NMTAP	83	0	3
NMSTR	83	0	6
BRSCL	83	0	6	96	48	3
NMTAP	83	96	1
NMTAP	83	144	1
NMHLD	83	192	0	96
NMTAP	83	192	2
NMTAP	83	288	3
NMTAP	83	336	2
NMHLD	84	0	1	48
NMHLD	84	0	3	48
NMHLD	84	96	3	48
NMHLD	84	96	5	48
NMHLD	84	192	5	48
NMHLD	84	192	7	48
NMHLD	84	288	1	48
NMHLD	84	288	7	48
NMTAP	85	0	0
NMTAP	85	48	6
NMTAP	85	96	4
NMTAP	85	144	2
NMTAP	85	192	0
EXTAP	85	240	3
EXTAP	85	240	7
EXSTR	85	288	3
BRSI_	85	288	3	96	48	7
EXTAP	85	288	7
BRTAP	86	0	5
NMTAP	86	96	0
NMTAP	86	96	6
BRTAP	86	192	2
BRTAP	86	192	4
NMTAP	86	288	0
BRTAP	86	336	1
BRTAP	86	336	7
NMSTR	87	0	2
NMSI_	87	0	2	96	48	6
NMTAP	87	0	6
NMSTR	87	96	4
NMSLL	87	96	4	96	96	7
NMHLD	88	0	7	72
NMHLD	88	72	1	72
NMTAP	88	144	3
NMHLD	88	192	5	72
NMHLD	88	264	7	72
NMTAP	88	336	1
BRHLD	89	0	2	192
BRTAP	89	0	6
BRTAP	89	96	5
BRSTR	89	192	4
BRSI_	89	192	4	96	48	1
BRTAP	89	288	1
NMHLD	90	0	0	72
NMHLD	90	72	2	72
NMTAP	90	144	4
NMTAP	90	216	4
NMTAP	90	216	6
NMTAP	90	288	1
NMTAP	90	288	7
NMTAP	90	336	1
NMTAP	90	336	7
NMTAP	91	0	1
NMTAP	91	0	7
NMTAP	91	48	2
NMTAP	91	72	6
NMTAP	91	96	2
NMTAP	91	120	6
NMTAP	91	144	2
NMTAP	91	168	6
BRTAP	91	192	2
BRTAP	91	240	3
BRTAP	91	288	4
BRTAP	91	336	3
BRTAP	91	336	5
BRTAP	92	0	4
BRSTR	92	0	6
NMSCL	92	0	6	96	96	2
BRTAP	92	96	7
EXTAP	92	192	0
EXTAP	92	240	0
NMTAP	92	336	2
NMTAP	92	336	4
NMHLD	93	0	2	48
NMHLD	93	0	4	48
NMHLD	93	72	3	48
NMHLD	93	72	5	48
NMHLD	93	144	4	48
NMHLD	93	144	6	48
NMHLD	93	216	5	48
NMHLD	93	216	7	48
NMHLD	93	288	0	48
NMHLD	93	288	6	48
NMTTP	93	360	0	C	1	M1
NMTTP	93	360	2	B	0	M1
NMTTP	93	360	2	E	0	M1
NMTTP	93	360	3	B	0	M1
NMTTP	93	360	3	E	0	M1
NMTTP	93	360	4	B	0	M1
NMTTP	93	360	4	E	0	M1
NMTTP	93	360	5	E	0	M1

T_REC_TAP	203
T_REC_BRK	45
T_REC_XTP	31
T_REC_BXX	4
T_REC_HLD	110
T_REC_XHO	2
T_REC_BHO	10
T_REC_BXH	2
T_REC_STR	42
T_REC_BST	8
T_REC_XST	4
T_REC_XBS	0
T_REC_TTP	13
T_REC_THO	0
T_REC_SLD	47
T_REC_BSL	8
T_REC_ALL	529
T_NUM_TAP	293
T_NUM_BRK	77
T_NUM_HLD	112
T_NUM_SLD	47
T_NUM_ALL	529
T_JUDGE_TAP	350
T_JUDGE_HLD	406
T_JUDGE_SLD	55
T_JUDGE_ALL	811
TTM_EACHPAIRS	109
TTM_SCR_TAP	146500
TTM_SCR_BRK	200200
TTM_SCR_HLD	112000
TTM_SCR_SLD	70500
TTM_SCR_ALL	529200
TTM_SCR_S	505900
TTM_SCR_SS	521500
TTM_RAT_ACV	10147

