VERSION	0.00.00	1.04.00
FES_MODE	0
BPM_DEF	150.000	150.000	150.000	150.000
MET_DEF	4	4
RESOLUTION	384
CLK_DEF	384
COMPATIBLE_CODE	MA2

BPM	0	0	150.000
MET	0	0	4	4

NMSTR	2	0	1
NMSUR	2	0	1	96	480	4
NMSTR	4	0	6
NMSUL	4	0	6	96	480	3
NMSTR	6	0	1
NMSI_	6	0	1	96	192	4
NMSTR	7	0	6
NMSI_	7	0	6	96	192	2
NMSTR	8	0	1
NMSI_	8	0	1	96	192	5
NMSTR	9	0	6
NMSI_	9	0	6	96	192	3
BRTAP	10	0	2
NMTAP	10	96	2
NMTAP	10	192	1
NMTAP	10	288	1
NMTAP	11	0	0
NMTAP	11	96	0
NMTAP	11	192	6
NMTAP	11	192	7
NMTAP	12	0	5
NMTAP	12	96	5
NMTAP	12	192	6
NMTAP	12	288	6
NMTAP	13	0	7
NMTAP	13	96	7
NMTAP	13	192	0
NMTAP	13	192	1
NMTAP	14	0	1
NMTAP	14	96	1
NMTAP	14	192	2
NMTAP	14	288	2
NMTAP	15	0	3
NMTAP	15	96	3
NMTAP	15	192	4
NMTAP	15	192	5
NMTAP	16	0	6
NMTAP	16	96	6
NMTAP	16	192	5
NMTAP	16	288	5
NMTAP	17	0	4
NMTAP	17	96	4
NMTAP	17	192	2
NMTAP	17	192	3
NMHLD	18	0	2	192
NMHLD	18	192	3	192
NMHLD	19	0	4	192
NMTAP	19	192	5
NMHLD	20	0	5	192
NMHLD	20	192	4	192
NMHLD	21	0	3	192
NMTAP	21	192	2
NMHLD	22	0	1	192
NMHLD	22	192	2	192
NMHLD	23	0	3	192
NMTAP	23	192	4
NMHLD	24	0	6	192
NMHLD	24	192	5	192
NMHLD	25	0	4	192
NMTAP	25	192	3
NMTAP	26	0	5
NMTAP	26	96	5
NMTAP	26	192	4
NMTAP	26	192	5
NMTAP	27	0	6
NMTAP	27	96	6
NMTAP	27	192	6
NMTAP	27	192	7
NMTAP	28	0	0
NMTAP	28	96	0
NMTAP	28	192	0
NMTAP	28	192	1
NMTAP	29	0	2
NMTAP	29	0	3
NMTAP	29	96	2
NMTAP	29	96	3
NMTAP	29	192	2
NMTAP	29	192	3
NMTAP	30	0	2
NMTAP	30	96	2
NMTAP	30	192	2
NMTAP	30	192	3
NMTAP	31	0	1
NMTAP	31	96	1
NMTAP	31	192	0
NMTAP	31	192	1
NMTAP	32	0	7
NMTAP	32	96	7
NMTAP	32	192	6
NMTAP	32	192	7
NMTAP	33	0	4
NMTAP	33	0	5
NMTAP	33	96	4
NMTAP	33	96	5
NMTAP	33	192	4
NMTAP	33	192	5
BRTAP	34	0	5
NMTAP	34	96	5
NMTAP	34	192	6
NMTAP	34	192	7
NMTAP	34	288	6
NMTAP	34	288	7
NMTAP	35	0	0
NMTAP	35	96	0
NMTAP	35	192	0
NMTAP	35	192	1
NMTAP	36	0	2
NMTAP	36	96	2
NMTAP	36	192	0
NMTAP	36	192	1
NMTAP	36	288	0
NMTAP	36	288	1
NMTAP	37	0	7
NMTAP	37	96	7
NMTAP	37	192	6
NMTAP	37	192	7
NMTAP	38	0	6
NMTAP	38	96	6
NMTAP	38	192	4
NMTAP	38	192	5
NMTAP	38	288	4
NMTAP	38	288	5
NMTAP	39	0	3
NMTAP	39	96	3
NMTAP	39	192	2
NMTAP	39	192	3
NMTAP	40	0	1
NMTAP	40	96	1
NMTAP	40	192	2
NMTAP	40	192	3
NMTAP	40	288	2
NMTAP	40	288	3
NMTAP	41	0	4
NMTAP	41	96	4
NMTAP	41	192	4
NMTAP	41	192	5
NMTAP	42	0	5
NMTAP	42	96	5
NMTAP	42	192	6
NMTAP	42	192	7
NMTAP	42	288	6
NMTAP	42	288	7
NMTAP	43	0	0
NMTAP	43	96	0
NMTAP	43	192	0
NMTAP	43	192	1
NMTAP	43	288	0
NMTAP	43	288	1
NMTAP	44	0	2
NMTAP	44	96	2
NMTAP	44	192	0
NMTAP	44	192	1
NMTAP	44	288	0
NMTAP	44	288	1
NMTAP	45	0	7
NMTAP	45	96	7
NMTAP	45	192	6
NMTAP	45	192	7
NMTAP	46	0	6
NMTAP	46	96	6
NMTAP	46	192	4
NMTAP	46	192	5
NMTAP	46	288	4
NMTAP	46	288	5
NMTAP	47	0	3
NMTAP	47	96	3
NMTAP	47	192	2
NMTAP	47	192	3
NMTAP	47	288	2
NMTAP	47	288	3
NMTAP	48	0	1
NMTAP	48	96	1
NMTAP	48	192	2
NMTAP	48	192	3
NMTAP	48	288	2
NMTAP	48	288	3
NMTAP	49	0	4
NMTAP	49	96	4
NMTAP	49	192	4
NMTAP	49	192	5
NMHLD	50	0	6	192
NMTAP	50	192	7
NMTAP	51	0	6
NMTAP	51	96	6
NMTAP	51	192	6
NMTAP	51	192	7
NMHLD	52	0	5	192
NMTAP	52	192	4
NMTAP	53	0	5
NMTAP	53	96	5
NMTAP	53	192	4
NMTAP	53	192	5
NMHLD	54	0	2	192
NMTAP	54	192	3
NMTAP	55	0	2
NMTAP	55	96	2
NMTAP	55	192	2
NMTAP	55	192	3
NMHLD	56	0	1	192
NMTAP	56	192	0
NMTAP	57	0	1
NMTAP	57	96	1
NMTAP	57	192	0
NMTAP	57	192	1
NMSTR	58	0	2
NMSI_	58	0	2	96	192	5
NMSTR	59	0	6
NMSI_	59	0	6	96	192	2
NMSTR	60	0	1
NMSI_	60	0	1	96	192	4
NMSTR	61	0	5
NMSI_	61	0	5	96	192	0
NMSTR	62	0	1
NMSI_	62	0	1	96	192	5
NMSTR	63	0	7
NMSI_	63	0	7	96	192	3
NMSTR	64	0	1
NMSI_	64	0	1	96	192	4
NMSTR	65	0	6
NMSI_	65	0	6	96	192	2
NMTAP	66	0	1
NMTAP	66	96	1
NMTAP	66	192	1
NMTAP	66	288	0
NMTAP	66	288	1
NMTAP	67	0	2
NMTAP	67	96	2
NMTAP	67	192	2
NMTAP	67	288	2
NMTAP	67	288	3
NMTAP	68	0	4
NMTAP	68	96	4
NMTAP	68	192	4
NMTAP	68	288	4
NMTAP	68	288	5
NMTAP	69	0	6
NMTAP	69	0	7
NMTAP	69	96	6
NMTAP	69	96	7
NMTAP	69	192	6
NMTAP	69	192	7
NMTAP	70	0	6
NMTAP	70	96	6
NMTAP	70	192	6
NMTAP	70	288	6
NMTAP	70	288	7
NMTAP	71	0	5
NMTAP	71	96	5
NMTAP	71	192	5
NMTAP	71	288	4
NMTAP	71	288	5
NMTAP	72	0	3
NMTAP	72	96	3
NMTAP	72	192	3
NMTAP	72	288	2
NMTAP	72	288	3
NMTAP	73	0	0
NMTAP	73	0	1
NMTAP	73	96	0
NMTAP	73	96	1
NMTAP	73	192	0
NMTAP	73	192	1
NMTTP	74	0	1	B	0	L1
NMTTP	74	96	2	B	0	L1
NMTTP	74	192	3	B	0	L1
NMTTP	75	0	6	B	0	L1
NMTTP	75	96	5	B	0	L1
NMTTP	75	192	4	B	0	L1
NMTTP	76	0	1	B	0	L1
NMTTP	76	96	2	B	0	L1
NMTTP	76	192	3	B	0	L1
NMTTP	76	288	4	B	0	L1
NMTTP	77	0	5	B	0	L1
NMTTP	77	96	6	B	0	L1
NMTTP	77	192	0	C	0	L1
NMTTP	78	0	7	B	0	L1
NMTTP	78	96	6	B	0	L1
NMTTP	78	192	4	B	0	L1
NMTTP	78	192	5	B	0	L1
NMTTP	79	0	0	B	0	L1
NMTTP	79	96	1	B	0	L1
NMTTP	79	192	2	B	0	L1
NMTTP	79	192	3	B	0	L1
NMTTP	80	0	6	B	0	L1
NMTTP	80	96	5	B	0	L1
NMTTP	80	192	4	B	0	L1
NMTTP	80	288	3	B	0	L1
NMTTP	81	0	0	C	0	L1
EXTAP	82	0	6
EXTAP	82	48	6
EXTAP	82	96	6
NMTAP	82	192	7
NMTAP	82	240	7
NMTAP	82	288	7
NMTAP	83	0	0
NMTAP	83	48	0
NMTAP	83	96	0
NMTAP	83	192	0
NMTAP	83	192	1
NMTAP	84	0	2
NMTAP	84	48	2
NMTAP	84	96	2
NMTAP	84	192	1
NMTAP	84	240	1
NMTAP	84	288	1
NMTAP	85	0	0
NMTAP	85	48	0
NMTAP	85	96	0
NMTAP	85	192	6
NMTAP	85	192	7
NMTAP	86	0	6
NMTAP	86	48	6
NMTAP	86	96	6
NMTAP	86	192	5
NMTAP	86	240	5
NMTAP	86	288	5
NMTAP	87	0	4
NMTAP	87	48	4
NMTAP	87	96	4
NMTAP	87	192	2
NMTAP	87	192	3
NMTAP	88	0	1
NMTAP	88	48	1
NMTAP	88	96	1
NMTAP	88	192	2
NMTAP	88	240	2
NMTAP	88	288	2
NMTAP	89	0	3
NMTAP	89	48	3
NMTAP	89	96	3
NMTAP	89	192	4
NMTAP	89	192	5
NMTAP	90	0	6
NMTAP	90	96	5
NMTAP	90	192	4
NMTAP	90	288	3
NMTAP	91	0	2
NMTAP	91	96	1
NMTAP	91	192	0
NMTAP	91	288	0
NMTAP	92	0	7
NMTAP	92	96	7
NMTAP	92	192	1
NMTAP	92	192	6
EXTAP	93	0	0
EXTAP	93	0	7
EXTAP	93	72	0
EXTAP	93	72	7
EXTAP	93	144	0
EXTAP	93	144	7
EXTAP	93	216	0
EXTAP	93	216	7
EXTAP	93	288	0
EXTAP	93	288	7
EXTAP	93	360	0
EXTAP	93	360	7

T_REC_TAP	269
T_REC_BRK	2
T_REC_XTP	15
T_REC_BXX	0
T_REC_HLD	16
T_REC_XHO	0
T_REC_BHO	0
T_REC_BXH	0
T_REC_STR	14
T_REC_BST	0
T_REC_XST	0
T_REC_XBS	0
T_REC_TTP	26
T_REC_THO	0
T_REC_SLD	14
T_REC_BSL	0
T_REC_ALL	356
T_NUM_TAP	324
T_NUM_BRK	2
T_NUM_HLD	16
T_NUM_SLD	14
T_NUM_ALL	356
T_JUDGE_TAP	326
T_JUDGE_HLD	64
T_JUDGE_SLD	14
T_JUDGE_ALL	404
TTM_EACHPAIRS	69
TTM_SCR_TAP	162000
TTM_SCR_BRK	5200
TTM_SCR_HLD	16000
TTM_SCR_SLD	21000
TTM_SCR_ALL	204200
TTM_SCR_S	197900
TTM_SCR_SS	204000
TTM_RAT_ACV	10009

