VERSION	0.00.00	1.04.00
FES_MODE	0
BPM_DEF	150.000	150.000	150.000	150.000
MET_DEF	4	4
RESOLUTION	384
CLK_DEF	384
COMPATIBLE_CODE	MA2

BPM	0	0	150.000
MET	0	0	4	4

NMTAP	2	0	0
NMTAP	3	0	0
NMTAP	4	0	0
NMTAP	4	0	7
NMTAP	6	0	7
NMTAP	7	0	7
NMTAP	8	0	0
NMTAP	8	0	7
BRTAP	10	0	0
NMTAP	10	192	0
NMTAP	11	0	1
NMTAP	12	0	2
NMTAP	12	192	2
NMTAP	13	0	3
NMTAP	13	0	4
BRTAP	14	0	4
NMTAP	14	192	4
NMTAP	15	0	5
NMTAP	16	0	6
NMTAP	16	192	6
NMTAP	17	0	0
NMTAP	17	0	7
BRTAP	18	0	7
NMTAP	18	192	7
NMTAP	19	0	6
NMTAP	19	192	6
NMTAP	20	0	5
NMTAP	20	192	5
NMTAP	21	0	3
NMTAP	21	0	4
BRTAP	22	0	3
NMTAP	22	192	3
NMTAP	23	0	2
NMTAP	23	192	2
NMTAP	24	0	1
NMTAP	24	192	1
NMTAP	25	0	0
NMTAP	25	0	7
NMHLD	26	0	0	384
NMHLD	26	0	1	384
NMHLD	28	0	2	384
NMHLD	28	0	3	384
NMHLD	30	0	4	384
NMHLD	30	0	5	384
NMHLD	32	0	6	384
NMHLD	32	0	7	384
BRTAP	34	0	7
NMTAP	34	96	7
NMTAP	34	192	7
NMTAP	35	0	6
NMTAP	35	96	6
NMTAP	35	192	6
NMTAP	36	0	5
NMTAP	36	96	5
NMTAP	36	192	5
NMTAP	37	0	4
NMTAP	37	0	5
BRTAP	38	0	3
NMTAP	38	96	3
BRTAP	38	192	3
BXTAP	39	0	2
NMTAP	39	96	2
NMTAP	39	192	2
NMTAP	40	0	1
NMTAP	40	96	1
NMTAP	40	192	1
NMTAP	41	0	0
NMTAP	41	0	1
BRTAP	42	0	0
NMTAP	42	96	0
NMTAP	42	192	0
NMTAP	43	0	1
NMTAP	43	96	1
NMTAP	43	192	1
NMTAP	44	0	2
NMTAP	44	96	2
NMTAP	44	192	2
NMTAP	45	0	3
NMTAP	45	0	4
BRTAP	46	0	4
NMTAP	46	96	4
BRTAP	46	192	4
BXTAP	47	0	5
NMTAP	47	96	5
NMTAP	47	192	5
NMTAP	48	0	6
NMTAP	48	96	6
NMTAP	48	192	6
BRTAP	49	0	0
BRTAP	49	0	7
NMSTR	50	0	7
NMSI_	50	0	7	96	288	3
NMSTR	52	0	0
NMSI_	52	0	0	96	288	4
NMSTR	54	0	6
NMSI_	54	0	6	96	288	2
NMSTR	56	0	1
NMSI_	56	0	1	96	288	5
NMTTP	58	0	7	E	0	L1
NMTTP	59	0	6	E	0	L1
NMTTP	60	0	5	E	0	L1
NMTTP	61	0	4	E	0	L1
NMTTP	62	0	3	E	0	L1
NMTTP	63	0	2	E	0	L1
NMTTP	64	0	1	E	0	L1
NMTTP	65	0	0	C	0	L1
BRTAP	66	0	0
NMTAP	66	96	0
NMTAP	66	192	0
NMTAP	67	0	0
NMTAP	67	0	1
NMTAP	67	192	0
NMTAP	67	192	1
NMTAP	68	0	2
NMTAP	68	96	2
NMTAP	68	192	2
NMTAP	69	0	3
NMTAP	69	0	4
NMTAP	69	192	3
NMTAP	69	192	4
NMTAP	70	0	4
NMTAP	70	96	4
NMTAP	70	192	4
NMTAP	71	0	4
NMTAP	71	0	5
NMTAP	71	192	4
NMTAP	71	192	5
NMTAP	72	0	6
NMTAP	72	96	6
NMTAP	72	192	6
NMTAP	73	0	0
NMTAP	73	0	7
NMHLD	74	0	0	384
NMHLD	74	0	1	384
NMHLD	76	0	6	384
NMHLD	76	0	7	384
BRTAP	78	0	7
NMTAP	78	96	7
BRTAP	78	192	6
NMTAP	78	288	6
BXTAP	79	0	5
NMTAP	79	96	5
NMTAP	79	192	3
NMTAP	79	192	4
NMTAP	80	0	3
NMTAP	80	96	3
NMTAP	80	192	2
NMTAP	80	288	2
NMTAP	81	0	1
NMTAP	81	96	1
NMTAP	81	192	0
NMTAP	81	192	7
BRTAP	82	0	0
NMTAP	82	96	0
NMTAP	82	192	1
NMTAP	82	288	1
NMTAP	83	0	2
NMTAP	83	96	2
NMTAP	83	192	3
NMTAP	83	288	3
NMTAP	84	0	4
NMTAP	84	96	4
NMTAP	84	192	5
NMTAP	84	288	5
NMTAP	85	0	6
NMTAP	85	0	7
NMTAP	85	96	6
NMTAP	85	96	7
NMTAP	85	192	6
NMTAP	85	192	7
BRTAP	86	0	6
NMTAP	86	96	6
BRTAP	86	192	5
NMTAP	86	288	5
BXTAP	87	0	4
NMTAP	87	96	4
NMTAP	87	192	3
NMTAP	87	288	3
NMTAP	88	0	2
NMTAP	88	96	2
NMTAP	88	192	1
NMTAP	88	288	1
BRTAP	89	0	0
BRTAP	89	0	7
BRTAP	89	96	0
BRTAP	89	96	7
BRTAP	89	192	0
BRTAP	89	192	7
NMSTR	90	0	1
NMSI_	90	0	1	96	288	5
EXSTR	91	192	6
NMSI_	91	192	6	96	288	2
NMSTR	93	0	0
NMSI_	93	0	0	96	264	4

T_REC_TAP	132
T_REC_BRK	24
T_REC_XTP	0
T_REC_BXX	4
T_REC_HLD	12
T_REC_XHO	0
T_REC_BHO	0
T_REC_BXH	0
T_REC_STR	6
T_REC_BST	0
T_REC_XST	1
T_REC_XBS	0
T_REC_TTP	8
T_REC_THO	0
T_REC_SLD	7
T_REC_BSL	0
T_REC_ALL	194
T_NUM_TAP	147
T_NUM_BRK	28
T_NUM_HLD	12
T_NUM_SLD	7
T_NUM_ALL	194
T_JUDGE_TAP	175
T_JUDGE_HLD	96
T_JUDGE_SLD	7
T_JUDGE_ALL	278
TTM_EACHPAIRS	31
TTM_SCR_TAP	73500
TTM_SCR_BRK	72800
TTM_SCR_HLD	12000
TTM_SCR_SLD	10500
TTM_SCR_ALL	168800
TTM_SCR_S	161050
TTM_SCR_SS	166000
TTM_RAT_ACV	10168

