VERSION	0.00.00	1.04.00
FES_MODE	0
BPM_DEF	185.000	185.000	185.000	185.000
MET_DEF	4	4
RESOLUTION	384
CLK_DEF	384
COMPATIBLE_CODE	MA2

BPM	0	0	185.000
MET	0	0	4	4

NMTAP	1	0	2
NMTAP	1	0	4
NMTAP	1	96	3
NMTAP	1	144	2
NMTAP	1	240	3
NMTAP	1	288	4
NMTAP	1	336	5
NMTAP	2	48	3
NMSTR	2	48	7
NMSI_	2	48	7	96	48	3
BRTAP	2	144	0
BRTAP	2	144	7
NMTAP	3	0	3
NMTAP	3	0	5
NMTAP	3	96	4
NMTAP	3	144	2
NMTAP	3	240	3
NMTAP	3	288	5
NMTAP	4	48	0
NMSTR	4	48	7
NMSI_	4	48	7	96	48	3
BRTAP	4	144	4
BRTAP	4	144	7
NMTAP	4	288	5
NMTAP	4	312	4
NMTAP	4	336	6
NMSTR	5	0	0
NMSI_	5	0	0	96	48	4
NMTAP	5	0	7
NMTAP	5	96	7
NMSTR	5	144	6
NMSI_	5	144	6	96	48	2
NMSTR	5	240	3
NMSXL	5	240	3	96	144	1
BRTAP	5	336	7
NMTAP	6	192	2
NMTAP	6	192	3
NMTAP	6	240	2
NMTAP	6	240	3
NMTAP	6	288	1
NMTAP	6	288	4
NMSTR	7	0	6
NMSI_	7	0	6	96	48	2
NMTAP	7	0	7
NMTAP	7	96	2
NMSTR	7	144	1
NMSI_	7	144	1	96	48	5
NMSTR	7	240	7
NMSXR	7	240	7	96	144	4
BRTAP	7	336	0
NMTAP	8	192	2
NMTAP	8	216	3
NMTAP	8	240	2
NMTAP	8	288	1
NMTAP	8	288	4
NMTAP	9	0	3
NMSTR	9	0	6
NMSI_	9	0	6	96	48	2
NMTAP	9	96	1
NMSTR	9	144	0
NMSI_	9	144	0	96	48	4
NMSTR	9	240	5
NMSXL	9	240	5	96	144	2
BRTAP	9	336	0
NMTAP	10	192	0
NMTAP	10	192	1
NMTAP	10	240	0
NMTAP	10	240	1
NMTAP	10	288	2
NMTAP	10	288	7
NMTAP	11	0	0
NMSTR	11	0	1
NMSI_	11	0	1	96	48	5
NMTAP	11	96	5
NMSTR	11	144	6
NMSI_	11	144	6	96	48	2
NMSTR	11	240	0
NMSXL	11	240	0	96	144	7
BRTAP	11	336	7
NMTAP	12	192	0
NMTAP	12	216	7
NMTAP	12	240	0
NMTAP	12	264	7
BRTAP	12	288	1
BRTAP	12	288	6
NMTAP	13	0	5
NMTAP	13	48	5
NMTAP	13	96	4
NMHLD	13	96	6	384
NMTAP	13	288	5
NMTAP	14	96	4
NMTAP	14	192	3
NMTAP	14	192	5
NMTAP	14	288	2
NMTAP	14	288	4
NMTAP	15	0	2
NMTAP	15	48	2
NMHLD	15	96	1	384
NMTAP	15	96	3
NMTAP	15	288	2
NMTAP	16	96	3
NMTAP	16	192	2
NMTAP	16	192	4
NMTAP	16	288	3
NMTAP	16	288	5
NMHLD	17	0	6	72
NMHLD	17	72	4	72
NMTAP	17	144	5
NMHLD	17	192	5	96
NMTTP	17	288	4	B	0	M1
NMTTP	17	288	5	E	0	M1
NMHLD	18	0	1	72
NMHLD	18	72	3	72
NMTAP	18	144	2
NMTAP	18	192	2
EXTAP	18	288	4
EXTAP	18	336	3
NMTAP	19	0	5
NMTAP	19	48	5
NMHLD	19	96	4	480
NMTAP	19	96	6
NMTAP	19	288	5
NMTAP	20	96	6
NMTAP	20	192	5
NMTAP	20	288	3
NMTAP	20	288	4
NMTAP	21	0	2
NMTAP	21	48	2
NMTAP	21	96	1
NMHLD	21	96	3	480
NMTAP	21	288	0
NMTAP	22	96	1
NMTAP	22	192	2
NMTAP	22	288	3
NMTAP	22	288	4
NMHLD	23	0	5	72
NMHLD	23	72	4	72
NMTAP	23	144	6
NMSTR	23	192	6
NMSI_	23	192	6	96	48	0
EXTAP	23	288	2
NMHLD	24	0	1	72
NMHLD	24	72	3	72
NMTAP	24	144	2
NMSTR	24	192	2
NMSI_	24	192	2	96	48	7
BRTAP	24	288	2
NMTAP	24	288	5
NMHLD	25	0	0	48
NMHLD	25	0	6	48
NMHLD	25	72	0	48
NMHLD	25	72	6	48
NMTAP	25	144	1
NMTAP	25	144	5
NMHLD	25	288	1	48
NMHLD	25	288	7	48
NMHLD	25	360	1	48
NMHLD	25	360	7	48
NMTAP	26	48	2
NMTAP	26	48	6
NMSTR	26	192	0
NMSI_	26	192	0	96	48	2
NMSTR	26	192	6
NMSI_	26	192	6	96	48	3
NMHLD	27	0	1	48
NMHLD	27	0	3	48
NMHLD	27	72	1	48
NMHLD	27	72	3	48
NMTAP	27	144	0
NMTAP	27	144	4
NMHLD	27	288	4	48
NMHLD	27	288	6	48
NMHLD	27	360	4	48
NMHLD	27	360	6	48
NMTAP	28	48	3
NMTAP	28	48	7
NMSTR	28	192	0
NMSI_	28	192	0	96	48	4
NMSTR	28	192	1
NMSI_	28	192	1	96	48	4
EXTAP	29	0	5
NMHLD	29	48	4	240
NMHLD	29	48	6	240
EXTAP	30	0	2
NMHLD	30	48	1	240
NMHLD	30	48	3	240
NMTAP	31	0	2
NMTAP	31	0	5
NMTAP	31	96	4
NMTAP	31	144	5
NMTAP	31	192	3
NMTAP	31	240	2
NMTAP	31	288	5
NMTAP	31	336	6
NMTAP	32	0	1
NMTAP	32	0	7
NMTAP	32	48	1
NMTAP	32	48	7
NMTAP	32	96	2
NMTAP	32	96	6
NMTAP	32	144	2
NMTAP	32	144	6
NMTAP	32	192	3
NMTAP	32	192	5
NMTAP	32	240	3
NMTAP	32	240	5
NMTAP	32	288	2
NMTAP	32	288	6
BXTAP	33	0	0
BXTAP	33	0	4
BXTAP	33	48	1
BXTAP	33	48	3
BXTAP	33	144	3
BXTAP	33	144	7
BXTAP	33	192	4
BXTAP	33	192	6
BXTAP	33	288	0
BXTAP	33	288	7
BXHLD	33	336	1	240
BXHLD	33	336	6	240
NMSTR	34	288	1
NMSI_	34	288	1	96	48	4
NMSTR	34	288	6
NMSI_	34	288	6	96	48	3
BRTAP	35	0	1
BRSTR	35	0	6
NMSI_	35	0	6	96	48	0
NMTAP	35	96	2
NMTAP	35	96	6
NMSTR	35	144	1
NMSI_	35	144	1	96	48	5
NMTAP	35	240	1
NMSTR	35	240	3
NMSCL	35	240	3	96	48	0
NMSCR	35	240	3	96	48	6
NMTAP	35	336	3
EXTAP	36	48	7
EXTAP	36	96	7
NMTAP	36	192	1
NMTAP	36	192	3
NMTAP	36	240	2
NMTAP	36	288	3
NMTAP	36	288	4
NMSTR	36	336	5
NMSI_	36	336	5	96	48	1
NMSTR	37	48	2
NMSCL	37	48	2	96	48	7
NMTAP	37	144	3
NMSTR	37	192	3
NMSXL	37	192	3	96	192	7
NMTAP	37	288	7
NMTAP	37	336	0
NMTAP	38	0	1
NMTAP	38	48	2
EXSTR	38	96	3
NMSCL	38	96	3	96	48	0
NMSTR	38	192	3
NMSCR	38	192	3	96	48	6
EXTAP	38	288	3
EXTAP	38	288	7
BRTAP	39	0	0
BRSTR	39	0	1
NMSI_	39	0	1	96	48	5
NMTAP	39	96	1
NMTAP	39	96	7
NMSTR	39	144	6
NMSI_	39	144	6	96	48	2
NMSTR	39	240	4
NMSI_	39	240	4	96	48	0
NMTAP	39	240	6
NMTAP	39	336	4
NMHLD	39	336	7	144
NMTAP	40	48	2
NMHLD	40	96	2	288
NMTAP	40	192	7
NMTAP	40	240	0
NMTAP	40	288	1
NMTAP	40	336	3
NMSTR	41	0	3
NMSI_	41	0	3	96	48	7
NMTAP	41	96	0
NMTAP	41	96	3
NMTAP	41	192	1
NMTAP	41	192	5
NMTAP	41	240	1
NMTAP	41	240	5
NMSTR	41	336	2
NMSCL	41	336	2	96	48	7
NMSTR	41	336	6
NMSCL	41	336	6	96	48	3
NMTAP	42	48	2
NMTAP	42	48	6
NMTAP	42	192	0
NMTAP	42	192	4
NMTAP	42	240	0
NMTAP	42	240	4
NMSTR	42	288	1
NMSI_	42	288	1	96	48	5
NMTAP	42	288	5
NMTAP	43	0	1
NMTAP	43	0	7
NMSTR	43	48	0
NMSCL	43	48	0	96	96	2
NMTAP	43	144	0
NMTTP	43	144	4	B	1	M1
NMTTP	43	144	4	E	0	M1
NMTTP	43	144	5	E	0	M1
NMTAP	43	240	1
NMSTR	43	288	1
NMSI_	43	288	1	96	48	5
NMTAP	44	0	1
NMTAP	44	0	7
NMSTR	44	48	0
NMSCL	44	48	0	96	24	6
NMTAP	44	144	0
NMTTP	44	144	4	B	0	M1
NMTTP	44	144	5	B	1	M1
NMTTP	44	144	6	B	0	M1
CNSI_	44	168	6	0	48	4
CNSCL	44	216	4	0	24	2
NMTAP	44	240	1
NMSTR	44	288	1
NMSI_	44	288	1	96	48	5
NMTAP	45	0	1
NMTAP	45	0	7
NMSTR	45	48	0
NMSI_	45	48	0	96	48	6
NMTAP	45	144	0
NMTTP	45	144	5	B	0	M1
NMTTP	45	144	6	B	0	M1
NMTTP	45	144	6	E	1	M1
CNSCL	45	192	6	0	24	4
CNSI_	45	216	4	0	24	2
NMTAP	45	240	1
NMSTR	45	288	1
NMSUR	45	288	1	96	48	5
NMTAP	46	0	1
NMTAP	46	0	7
NMSTR	46	48	0
NMSCL	46	48	0	96	96	2
NMTAP	46	144	0
NMTTP	46	144	6	B	1	M1
NMTTP	46	144	6	E	0	M1
NMTTP	46	144	7	E	0	M1
NMTAP	46	240	1
NMTAP	46	288	1
NMTAP	47	0	0
NMTAP	47	0	1
NMSTR	47	48	2
NMSCR	47	48	2	96	96	5
NMTAP	47	48	7
NMSTR	47	144	5
NMSCR	47	144	5	96	96	0
NMSTR	47	240	0
NMSCR	47	240	0	96	96	3
NMTAP	47	336	3
NMTAP	48	0	4
NMTAP	48	48	5
NMSTR	48	96	6
NMSI_	48	96	6	96	48	3
NMTAP	48	192	2
NMTAP	48	192	6
NMTAP	48	288	1
NMTAP	48	288	4
BRTAP	48	336	1
BRTAP	48	336	4
NMTAP	49	48	2
NMTAP	49	48	3
NMTAP	49	96	1
NMTAP	49	144	0
NMTAP	49	192	6
NMTAP	49	192	7
NMTAP	49	240	5
NMTAP	49	288	4
NMTAP	49	336	2
NMTAP	49	336	3
NMTAP	50	0	1
NMTAP	50	48	0
NMTAP	50	96	4
NMHLD	50	96	7	96
NMTAP	50	192	5
NMTAP	50	240	7
NMTAP	50	288	0
NMSTR	50	288	6
NMSI_	50	288	6	96	48	2
NMTAP	51	0	0
NMTAP	51	0	6
NMSTR	51	48	7
NMSCR	51	48	7	96	96	5
NMTTP	51	144	3	B	1	M1
NMTTP	51	144	3	E	0	M1
NMTTP	51	144	4	E	0	M1
NMTAP	51	144	7
NMTAP	51	240	6
NMSTR	51	288	6
NMSI_	51	288	6	96	48	2
NMTAP	52	0	0
NMTAP	52	0	6
NMSTR	52	48	7
NMSCR	52	48	7	96	96	5
NMTTP	52	144	2	B	1	M1
NMTTP	52	144	2	E	0	M1
NMTTP	52	144	3	E	0	M1
NMTAP	52	144	7
NMTAP	52	240	6
NMSTR	52	288	6
NMSI_	52	288	6	96	48	2
NMTAP	53	0	0
NMTAP	53	0	6
NMSTR	53	48	7
NMSI_	53	48	7	96	24	1
NMTTP	53	144	2	B	1	M1
NMTTP	53	144	2	E	0	M1
NMTTP	53	144	3	E	0	M1
NMTAP	53	144	7
CNSCR	53	168	1	0	48	3
CNSI_	53	216	3	0	24	5
NMTAP	53	240	6
NMSTR	53	288	6
NMSUL	53	288	6	96	48	2
NMTAP	54	0	0
NMTAP	54	0	6
NMSTR	54	48	7
BRSCR	54	48	7	96	96	5
NMTTP	54	144	1	B	1	M1
NMTTP	54	144	1	E	0	M1
NMTTP	54	144	2	E	0	M1
NMTAP	54	144	7
NMTAP	54	240	6
NMTAP	54	288	6
NMTAP	55	0	0
NMTAP	55	48	0
NMTAP	55	96	1
NMTAP	55	96	7
NMTAP	55	144	2
NMTAP	55	192	3
NMTAP	55	240	3
NMTAP	55	288	2
NMTAP	55	288	4
NMTAP	55	336	5
NMTAP	56	0	6
NMTAP	56	48	6
NMTAP	56	96	5
NMTAP	56	96	7
NMTAP	56	192	2
NMTAP	56	216	3
NMTAP	56	240	2
NMTAP	56	264	3
NMTAP	56	288	2
NMTAP	56	312	3
NMHLD	56	336	1	192
NMTAP	56	336	4
NMTAP	57	48	3
NMTAP	57	96	3
NMTAP	57	144	3
NMTAP	57	192	2
NMTAP	57	240	1
NMTAP	57	288	0
BRTAP	57	336	1
BRTAP	57	336	7
NMTAP	58	48	0
NMTAP	58	72	0
NMTAP	58	96	7
NMTAP	58	128	1
NMTAP	58	160	3
NMTAP	58	192	2
NMTAP	58	224	6
NMTAP	58	256	4
NMTAP	58	288	5
NMTAP	58	320	2
NMTAP	58	352	4
NMTAP	59	0	3
NMSTR	59	192	2
NMSUR	59	192	2	96	384	5
NMTAP	59	192	3
NMSTR	61	0	4
NMSXL	61	0	4	96	384	5
NMSXR	61	0	4	96	384	3
EXSTR	63	0	2
NMSXR	63	0	2	96	480	3
EXSTR	63	0	4
NMSXL	63	0	4	96	480	3
NMTAP	65	0	3
NMTAP	65	0	4
NMTAP	65	48	2
NMTAP	65	48	5
NMTAP	65	96	1
NMTAP	65	96	6
BRHLD	65	144	0	216
BRHLD	65	144	7	216
NMTTP	66	0	1	D	1	M1
NMTTP	66	0	7	D	0	M1
NMTTP	66	8	1	A	0	M1
NMTTP	66	8	6	A	0	M1
NMTTP	66	16	2	D	0	M1
NMTTP	66	16	6	D	0	M1
NMTTP	66	24	2	A	0	M1
NMTTP	66	24	5	A	0	M1
NMTTP	66	32	3	D	0	M1
NMTTP	66	32	5	D	0	M1
NMHLD	68	0	5	144
NMTAP	68	144	4
NMTAP	68	240	2
NMTAP	68	240	3
NMTAP	68	336	3
NMTAP	68	336	4
NMTAP	69	48	1
NMTAP	69	48	6
NMTAP	69	96	1
NMTAP	69	96	6
NMTAP	69	192	0
NMTAP	69	216	7
NMTAP	69	240	0
NMTAP	69	264	7
NMTAP	69	288	0
NMTAP	69	312	7
NMTAP	69	336	0
NMTAP	69	360	7
BRSTR	70	0	1
NMSI_	70	0	1	96	48	4
BRTAP	70	0	6
NMSTR	70	96	7
NMSI_	70	96	7	96	48	3
NMTAP	70	144	7
NMSTR	70	192	1
NMSI_	70	192	1	96	48	6
NMTAP	70	240	1
NMSTR	70	288	5
NMSI_	70	288	5	96	48	1
NMTAP	70	336	5
NMSTR	71	0	4
NMSI_	71	0	4	96	48	0
NMTAP	71	48	4
NMSTR	71	96	7
NMSCL	71	96	7	96	48	4
NMSCR	71	96	7	96	48	2
NMSTR	71	192	7
NMSF_	71	192	7	96	48	3
NMTAP	71	288	7
BRSTR	72	0	1
NMSI_	72	0	1	96	48	5
BRTAP	72	0	5
NMTAP	72	96	0
NMTAP	72	96	1
NMSTR	72	144	6
NMSI_	72	144	6	96	48	1
NMSTR	72	240	4
NMSI_	72	240	4	96	48	0
NMTAP	72	240	6
BRTAP	72	336	4
BRHLD	72	336	7	144
NMTAP	73	48	2
NMHLD	73	96	2	288
NMTAP	73	192	7
NMTAP	73	240	0
NMTAP	73	288	1
NMTAP	73	336	3
NMSTR	74	0	3
NMSCR	74	0	3	96	48	6
NMSTR	74	96	3
NMSCL	74	96	3	96	48	0
NMSTR	74	192	3
NMSI_	74	192	3	96	48	7
NMTAP	74	288	3
EXTAP	74	288	7
NMSTR	74	336	1
NMSI_	74	336	1	96	48	4
NMSI_	74	336	1	96	48	6
NMTAP	75	48	1
NMTAP	75	192	3
NMTAP	75	192	7
NMTAP	75	240	3
NMTAP	75	240	7
NMTAP	75	288	2
NMTAP	75	288	6
NMTAP	76	0	3
NMSTR	76	48	3
NMSXL	76	48	3	96	144	3
NMSXR	76	48	3	96	144	3
NMTTP	76	144	3	A	1	M1
NMTAP	77	0	7
NMSTR	77	48	7
NMSUL	77	48	7	96	48	3
NMSUR	77	48	7	96	48	3
NMSTR	77	144	7
NMSCR	77	144	7	96	120	6
NMTTP	77	156	0	C	1	M1
NMTAP	78	0	0
NMSTR	78	48	0
BRSI_	78	48	0	96	48	4
NMTTP	78	144	0	A	1	M1
NMHLD	78	144	6	144
CNSI_	78	192	4	0	48	0
NMTAP	79	0	7
NMSTR	79	48	7
NMSLL	79	48	7	96	72	3
NMSLR	79	48	7	96	72	3
NMTTP	79	144	0	D	0	M1
NMTTP	79	144	7	A	1	M1
NMTTP	79	144	7	D	0	M1
NMSTR	79	288	0
BRSCR	79	288	0	96	96	4
NMTAP	79	288	6
NMSTR	80	0	4
BRSCR	80	0	4	96	96	0
NMSTR	80	96	0
BRSLR	80	96	0	96	96	4
NMSTR	80	192	4
BRSLR	80	192	4	96	96	0
NMSTR	80	288	0
NMSCR	80	288	0	96	144	7
NMTTP	81	0	0	C	1	M1
EXTAP	81	192	1
EXTAP	81	192	6
NMTAP	81	240	0
NMTAP	81	264	7
NMTAP	81	288	0
NMTAP	81	312	7
NMTAP	81	336	0
NMTAP	81	360	7
NMSTR	82	0	1
NMSI_	82	0	1	96	48	5
NMTAP	82	0	6
NMTAP	82	96	0
NMTAP	82	96	1
NMSTR	82	144	7
NMSI_	82	144	7	96	48	3
NMSTR	82	240	4
NMSI_	82	240	4	96	48	1
NMTAP	82	240	7
NMTAP	82	336	4
NMTAP	82	336	5
NMTAP	83	48	2
NMTAP	83	48	6
BRTAP	83	96	2
BRTAP	83	96	6
NMTAP	83	192	0
NMTAP	83	192	1
NMTAP	83	240	7
NMTAP	83	288	0
NMTAP	83	288	6
NMSTR	83	336	1
NMSI_	83	336	1	96	48	6
NMTAP	83	336	5
NMSTR	84	48	5
NMSI_	84	48	5	96	48	2
NMTAP	84	144	1
NMSTR	84	192	1
NMSXL	84	192	1	96	144	5
NMTAP	84	288	4
NMTAP	84	336	5
NMTAP	85	0	6
NMTAP	85	48	7
NMSTR	85	96	0
NMSI_	85	96	0	96	48	4
NMTAP	85	192	0
NMSTR	85	192	4
NMSF_	85	192	4	96	48	0
BRTAP	86	0	2
BRSTR	86	0	6
NMSI_	86	0	6	96	48	3
NMTAP	86	96	3
NMTAP	86	96	6
NMSTR	86	144	2
NMSI_	86	144	2	96	48	7
NMTAP	86	240	2
NMSTR	86	240	5
NMSI_	86	240	5	96	48	1
NMHLD	86	336	0	240
NMTAP	86	336	5
NMTAP	87	48	2
NMTAP	87	96	2
NMSTR	87	192	3
NMSV_	87	192	3	96	48	0
NMSV_	87	192	3	96	48	6
NMTAP	87	288	3
BRTAP	88	0	1
BRHLD	88	0	7	96
NMHLD	88	96	5	96
NMHLD	88	192	3	96
NMTAP	88	288	1
NMSTR	88	336	1
NMSV_	88	336	1	96	48	3
NMSLL	88	336	1	96	48	5
NMTAP	89	48	1
NMTAP	89	192	2
NMTAP	89	192	4
NMTAP	89	240	2
NMTAP	89	240	4
NMSTR	89	288	1
NMSI_	89	288	1	96	48	6
NMTAP	89	288	5
NMTAP	90	0	1
NMTAP	90	0	4
NMSTR	90	48	3
NMSCR	90	48	3	96	96	0
NMTAP	90	144	3
NMTTP	90	144	6	B	1	M1
NMTTP	90	144	7	E	0	M1
EXTAP	90	240	1
EXSTR	90	288	1
NMSI_	90	288	1	96	48	6
NMTAP	91	0	1
NMTAP	91	0	4
NMSTR	91	48	3
NMSI_	91	48	3	96	48	5
EXTAP	91	144	3
NMTTP	91	144	6	B	0	M1
NMTTP	91	144	6	E	1	M1
CNSCR	91	192	5	0	48	0
EXTAP	91	240	1
EXSTR	91	288	1
NMSI_	91	288	1	96	48	6
NMTAP	92	0	1
NMTAP	92	0	4
NMSTR	92	48	3
NMSCR	92	48	3	96	24	6
NMTAP	92	144	3
NMTTP	92	144	5	B	0	M1
NMTTP	92	144	6	E	1	M1
CNSI_	92	168	6	0	72	0
EXTAP	92	240	1
EXSTR	92	288	1
NMSI_	92	288	1	96	48	6
NMTAP	93	0	1
NMTAP	93	0	4
NMSTR	93	48	3
NMSCR	93	48	3	96	96	1
NMTAP	93	144	3
NMTTP	93	144	5	B	1	M1
NMTTP	93	144	5	E	0	M1
NMTTP	93	144	6	E	0	M1
EXTAP	93	240	2
EXTAP	93	288	2
NMTAP	94	0	2
NMTAP	94	0	3
NMSTR	94	48	1
NMSI_	94	48	1	96	96	6
NMTAP	94	48	4
NMSTR	94	144	6
NMSCL	94	144	6	96	192	0
NMTAP	94	240	0
NMTAP	94	288	0
NMTAP	95	0	6
NMTAP	95	48	6
NMSTR	95	96	5
NMSI_	95	96	5	96	48	0
NMTAP	95	192	1
NMTAP	95	192	5
NMTAP	95	288	2
NMTAP	95	288	7
BRTAP	95	336	2
BRTAP	95	336	7
NMTAP	96	48	0
NMTAP	96	48	1
NMTAP	96	96	2
NMTAP	96	144	3
NMTAP	96	192	4
NMTAP	96	192	5
NMTAP	96	240	6
NMTAP	96	288	7
NMTAP	96	336	0
NMTAP	96	336	1
NMTAP	97	0	2
NMTAP	97	48	3
NMSTR	97	96	4
NMSI_	97	96	4	96	48	1
NMTAP	97	96	7
NMTAP	97	192	6
NMTAP	97	240	6
NMSTR	97	288	6
NMSI_	97	288	6	96	48	1
NMTAP	98	0	3
NMTAP	98	0	6
NMSTR	98	48	4
BRSCL	98	48	4	96	96	7
NMTTP	98	144	0	B	1	M1
NMTTP	98	144	0	E	0	M1
NMTTP	98	144	1	E	0	M1
NMTAP	98	144	4
EXTAP	98	240	6
EXSTR	98	288	6
NMSI_	98	288	6	96	48	2
NMTAP	99	0	3
NMTAP	99	0	6
NMSTR	99	48	4
BRSCL	99	48	4	96	96	7
NMTTP	99	144	0	B	0	M1
NMTTP	99	144	1	B	0	M1
NMTTP	99	144	1	E	1	M1
NMTAP	99	144	4
EXTAP	99	240	6
EXSTR	99	288	6
NMSI_	99	288	6	96	48	2
NMTAP	100	0	3
NMTAP	100	0	6
NMSTR	100	48	4
NMSI_	100	48	4	96	48	2
NMTTP	100	144	1	B	1	M1
NMTTP	100	144	1	E	0	M1
NMTTP	100	144	2	E	0	M1
NMTAP	100	144	4
CNSCL	100	192	2	0	48	7
NMTAP	100	240	6
EXSTR	100	288	6
NMSI_	100	288	6	96	48	2
NMTAP	101	0	3
NMTAP	101	0	6
NMSTR	101	48	4
NMSCL	101	48	4	96	120	5
NMTTP	101	144	1	A	0	M1
NMTTP	101	144	2	E	1	M1
NMTTP	101	144	2	A	0	M1
NMTAP	101	144	4
NMTAP	102	0	2
NMTAP	102	0	7
NMTAP	102	48	1
NMTAP	102	72	0
NMTAP	102	96	1
NMTAP	102	144	2
NMTAP	102	144	7
NMTAP	102	192	5
NMTAP	102	216	4
NMTAP	102	240	5
NMTAP	102	264	4
NMTAP	102	288	6
NMTAP	102	312	4
NMTAP	102	336	6
NMTAP	102	360	4
NMTAP	103	0	7
NMTAP	103	48	3
NMTAP	103	48	7
NMTAP	103	96	2
NMTAP	103	96	6
NMTAP	103	144	1
NMTAP	103	144	5
NMSTR	103	192	0
NMSI_	103	192	0	96	48	4
NMTAP	103	192	4
NMTAP	103	288	0
NMTAP	103	288	7
BRSTR	103	336	6
NMSCL	103	336	6	96	48	3
NMTAP	104	48	7
NMTAP	104	96	0
NMTAP	104	144	1
BRSTR	104	192	2
NMSCL	104	192	2	96	48	7
NMTAP	104	240	3
NMTAP	104	288	4
BRSTR	104	336	5
NMSCL	104	336	5	96	48	2
NMTAP	105	0	6
NMTAP	105	48	7
NMTAP	105	96	0
NMTAP	105	192	2
NMTAP	105	224	4
NMTAP	105	256	0
NMTAP	105	288	5
NMTAP	105	320	3
NMTAP	105	352	7
NMTTP	106	0	0	C	1	M1
NMHLD	106	0	1	288
NMTTP	107	0	0	B	0	M1
NMTTP	107	0	0	E	0	M1
NMTTP	107	0	1	E	0	M1
BXHLD	107	0	6	288
NMTTP	108	0	0	C	1	M1
NMHLD	108	0	2	288
NMTHO	109	0	0	192	C	0	M1
NMTTP	109	0	3	B	0	M1
NMTTP	109	0	4	B	0	M1
BXHLD	109	0	5	192
NMTAP	110	0	2
NMTAP	110	0	6
NMSTR	110	72	3
NMSI_	110	72	3	96	48	0
NMSTR	110	72	7
NMSI_	110	72	7	96	48	4
BRTAP	110	144	3
BRTAP	110	144	7
NMTAP	111	0	1
NMTAP	111	0	5
NMSTR	111	72	2
NMSI_	111	72	2	96	48	7
NMSTR	111	72	6
NMSI_	111	72	6	96	48	3
BRTAP	111	144	2
BRTAP	111	144	6
NMTAP	112	0	6
BRTAP	112	0	7
NMTAP	112	48	6
BRTAP	112	48	7
NMTAP	112	60	5
NMTAP	112	72	4
NMTAP	112	84	3
BRTAP	112	144	0
NMTAP	112	144	1
BRTAP	112	192	0
NMTAP	112	192	1
NMTAP	112	204	2
NMTAP	112	216	3
NMTAP	112	228	4
NMTAP	112	288	0
NMTAP	112	288	7
BRTAP	112	336	0
BRTAP	112	336	7
BRTAP	112	348	1
BRTAP	112	348	6
BRTAP	112	360	2
BRTAP	112	360	5
BRTAP	112	372	3
BRTAP	112	372	4

T_REC_TAP	447
T_REC_BRK	42
T_REC_XTP	20
T_REC_BXX	10
T_REC_HLD	45
T_REC_XHO	0
T_REC_BHO	4
T_REC_BXH	4
T_REC_STR	108
T_REC_BST	8
T_REC_XST	9
T_REC_XBS	0
T_REC_TTP	71
T_REC_THO	1
T_REC_SLD	126
T_REC_BSL	8
T_REC_ALL	903
T_NUM_TAP	655
T_NUM_BRK	76
T_NUM_HLD	46
T_NUM_SLD	126
T_NUM_ALL	903
T_JUDGE_TAP	715
T_JUDGE_HLD	177
T_JUDGE_SLD	134
T_JUDGE_ALL	1026
TTM_EACHPAIRS	179
TTM_SCR_TAP	327500
TTM_SCR_BRK	197600
TTM_SCR_HLD	46000
TTM_SCR_SLD	189000
TTM_SCR_ALL	760100
TTM_SCR_S	729950
TTM_SCR_SS	752500
TTM_RAT_ACV	10100

