VERSION	0.00.00	1.04.00
FES_MODE	0
BPM_DEF	185.000	185.000	185.000	185.000
MET_DEF	4	4
RESOLUTION	384
CLK_DEF	384
COMPATIBLE_CODE	MA2

BPM	0	0	185.000
MET	0	0	4	4

NMHLD	1	0	1	288
NMHLD	1	144	3	144
BXTAP	2	48	2
BXTAP	2	48	3
BRTAP	2	144	0
BRTAP	2	144	4
NMHLD	3	0	6	288
NMHLD	3	144	4	144
BXTAP	4	48	4
BXTAP	4	48	5
BRTAP	4	144	3
BRTAP	4	144	7
NMTAP	4	240	2
NMTAP	4	288	2
EXTAP	5	0	0
EXTAP	5	0	7
NMTAP	5	96	6
NMHLD	5	144	6	96
NMSTR	5	240	4
NMSXR	5	240	4	96	192	4
NMTAP	6	192	5
NMTAP	6	288	4
NMTAP	6	288	6
NMTAP	7	0	0
NMTAP	7	0	7
NMTAP	7	96	1
NMHLD	7	144	1	96
NMSTR	7	240	3
NMSXL	7	240	3	96	192	3
NMTAP	8	192	2
NMTAP	8	288	1
NMTAP	8	288	3
EXTAP	9	0	0
EXTAP	9	0	6
NMTAP	9	96	5
NMHLD	9	144	5	96
NMSTR	9	240	7
NMSCR	9	240	7	96	240	5
NMTAP	10	192	6
NMTAP	10	288	4
EXTAP	11	0	1
EXTAP	11	0	7
NMTAP	11	96	2
NMHLD	11	144	2	96
NMSTR	11	240	0
NMSCL	11	240	0	96	240	2
NMTAP	12	192	1
NMTAP	12	240	1
NMTAP	12	288	3
NMHLD	13	0	2	144
NMTAP	13	144	3
NMSTR	13	240	1
NMSI_	13	240	1	96	96	4
NMTAP	14	192	3
NMTAP	14	288	2
NMTAP	14	288	4
NMHLD	15	0	5	144
NMTAP	15	144	4
NMSTR	15	240	6
NMSI_	15	240	6	96	96	3
NMTAP	16	192	4
NMTAP	16	288	3
NMTAP	16	288	5
NMHLD	17	0	2	96
NMHLD	17	0	4	96
NMTAP	17	192	1
NMTAP	17	288	3
NMTAP	18	0	5
NMTAP	18	96	7
NMTAP	18	192	1
NMTAP	18	288	2
NMTAP	18	288	6
NMTAP	19	0	3
NMTAP	19	0	5
NMTAP	19	96	4
NMTAP	19	144	4
NMSTR	19	240	2
NMSCR	19	240	2	96	144	5
NMTAP	20	192	6
NMTAP	20	288	3
NMTAP	20	288	5
NMTAP	21	0	2
NMTAP	21	0	4
NMTAP	21	96	3
NMTAP	21	144	3
NMSTR	21	240	5
NMSCL	21	240	5	96	144	2
NMTAP	22	192	1
NMTAP	22	288	2
NMTAP	22	288	4
NMHLD	23	0	3	96
NMHLD	23	0	5	96
NMTAP	23	192	2
NMTAP	23	240	2
NMTAP	23	288	3
NMTAP	24	0	6
NMTAP	24	48	6
NMSTR	24	96	4
NMSI_	24	96	4	96	96	1
NMSI_	24	96	4	96	96	7
NMTAP	25	0	1
NMTAP	25	0	7
NMTAP	25	72	1
NMTAP	25	72	7
NMTAP	25	144	2
NMTAP	25	144	6
NMTAP	25	288	4
NMTAP	25	288	5
NMTAP	25	360	4
NMTAP	25	360	5
NMTAP	26	48	3
NMTAP	26	48	7
NMTAP	26	192	2
NMSTR	26	192	3
NMSI_	26	192	3	96	48	7
NMTAP	27	0	0
NMTAP	27	0	6
NMTAP	27	72	0
NMTAP	27	72	6
NMTAP	27	144	1
NMTAP	27	144	5
NMTAP	27	288	2
NMTAP	27	288	3
NMTAP	27	360	2
NMTAP	27	360	3
NMTAP	28	48	0
NMTAP	28	48	4
NMSTR	28	192	4
NMSI_	28	192	4	96	48	0
NMTAP	28	192	5
EXTAP	29	0	6
EXTAP	29	0	7
EXHLD	29	48	0	144
EXHLD	29	48	5	144
NMTAP	29	288	2
NMTAP	29	288	3
EXTAP	30	0	0
EXTAP	30	0	1
EXHLD	30	48	2	144
EXHLD	30	48	7	144
NMTAP	30	288	4
NMSTR	30	288	5
NMSUL	30	288	5	96	288	3
NMHLD	32	0	2	48
NMHLD	32	96	3	48
NMHLD	32	192	4	48
NMHLD	32	288	5	48
NMTAP	33	0	4
NMTAP	33	0	6
NMTAP	33	48	4
NMTAP	33	48	6
NMTAP	33	144	1
NMTAP	33	144	3
NMTAP	33	192	1
NMTAP	33	192	3
NMTAP	33	288	0
NMTAP	33	288	7
BRTAP	33	336	0
BRTAP	33	336	7
NMTTP	34	96	1	B	0	M1
NMTTP	34	96	2	E	0	M1
NMTTP	34	192	5	B	0	M1
NMTTP	34	192	6	E	0	M1
NMTTP	34	288	3	E	0	M1
NMTTP	34	288	3	A	0	M1
NMTTP	34	288	4	E	0	M1
BXTAP	35	0	0
BXTAP	35	0	6
NMTAP	35	96	7
NMTAP	35	144	7
NMTAP	35	240	0
NMSTR	35	240	1
NMSXL	35	240	1	96	240	4
NMTAP	36	192	5
NMTAP	36	288	3
NMTAP	36	288	7
NMTAP	37	0	4
NMHLD	37	0	6	96
NMTAP	37	96	0
NMHLD	37	192	2	96
NMTAP	37	192	3
NMTAP	37	288	7
NMTAP	38	0	4
NMTAP	38	48	4
NMTAP	38	96	3
NMTAP	38	96	5
NMSTR	38	192	2
NMSCR	38	192	2	96	48	5
NMTAP	38	192	6
EXTAP	39	0	7
NMTAP	39	96	0
NMTAP	39	96	1
NMTAP	39	144	0
NMTAP	39	144	1
NMSTR	39	240	6
NMSXR	39	240	6	96	240	3
NMTAP	39	240	7
NMTAP	40	192	2
NMTAP	40	288	0
NMTAP	40	288	4
NMHLD	41	0	1	96
NMHLD	41	96	3	96
NMHLD	41	192	4	96
NMTAP	41	288	6
NMHLD	41	336	6	288
NMTAP	42	48	0
NMTAP	42	96	0
NMTAP	42	144	0
NMTAP	42	192	0
NMTAP	42	240	0
EXTAP	42	288	1
EXTAP	42	288	5
NMTAP	43	0	2
NMTAP	43	0	3
NMSTR	43	48	2
NMSI_	43	48	2	96	72	6
NMSTR	43	48	3
NMSI_	43	48	3	96	72	5
NMTAP	43	288	0
NMTAP	43	288	7
NMTAP	44	0	4
NMTAP	44	0	5
NMSTR	44	48	4
NMSI_	44	48	4	96	72	2
NMSTR	44	48	5
NMSI_	44	48	5	96	72	1
NMTAP	44	288	0
NMTAP	44	288	7
NMTAP	45	0	2
NMTAP	45	0	3
NMSTR	45	48	2
NMSI_	45	48	2	96	72	7
NMSTR	45	48	3
NMSI_	45	48	3	96	72	6
NMTAP	45	288	0
NMTAP	46	0	4
NMTAP	46	0	5
NMSTR	46	48	4
NMSI_	46	48	4	96	48	1
NMSTR	46	48	5
NMSI_	46	48	5	96	48	0
BRTAP	46	288	2
BRTAP	46	288	7
NMTAP	47	0	4
NMHLD	47	0	5	96
NMTAP	47	96	0
NMHLD	47	192	2	96
NMTAP	47	192	3
NMTAP	47	288	7
NMTAP	48	0	0
NMHLD	48	0	6	96
NMHLD	48	96	4	96
NMHLD	48	192	3	96
NMTAP	48	288	1
NMTAP	48	336	1
NMTAP	49	48	7
NMTAP	49	96	7
NMTAP	49	192	0
NMTAP	49	192	1
NMTAP	49	288	2
NMTAP	49	288	3
NMTAP	50	0	4
NMTAP	50	0	5
NMTAP	50	96	6
NMTAP	50	96	7
NMTAP	50	192	0
NMTAP	50	240	0
NMTAP	50	288	1
NMTAP	50	288	7
NMTAP	51	0	4
NMTAP	51	0	5
NMSTR	51	48	4
NMSI_	51	48	4	96	72	2
NMSTR	51	48	5
NMSI_	51	48	5	96	72	1
NMTAP	51	288	7
NMTAP	52	0	2
NMTAP	52	0	3
NMSTR	52	48	2
NMSI_	52	48	2	96	72	6
NMSTR	52	48	3
NMSI_	52	48	3	96	72	5
NMTAP	52	288	0
NMTAP	53	0	4
NMTAP	53	0	5
NMSTR	53	48	4
NMSI_	53	48	4	96	72	1
NMSTR	53	48	5
NMSI_	53	48	5	96	72	0
NMTAP	53	288	7
NMTAP	54	0	2
NMTAP	54	0	3
NMSTR	54	48	2
NMSI_	54	48	2	96	48	7
NMSTR	54	48	3
NMSI_	54	48	3	96	48	6
BRTAP	54	288	0
BRTAP	54	288	5
NMHLD	55	0	6	96
NMHLD	55	96	4	96
NMHLD	55	192	3	96
NMHLD	55	288	1	96
NMSTR	56	0	7
NMSI_	56	0	7	96	48	3
NMTAP	56	96	2
NMTAP	56	192	0
NMTAP	56	240	0
NMTAP	56	288	0
NMTAP	56	336	1
NMTAP	56	336	7
NMTAP	57	48	4
NMTAP	57	48	5
NMTAP	57	96	4
NMTAP	57	96	5
NMTAP	57	192	0
NMTAP	57	192	7
NMTAP	57	240	0
NMTAP	57	240	7
NMTTP	57	336	0	C	1	M1
NMTTP	57	336	2	B	0	M1
NMTTP	57	336	2	E	0	M1
NMTTP	57	336	6	B	0	M1
NMTTP	57	336	6	E	0	M1
NMHLD	59	0	2	768
NMTTP	60	0	2	E	0	M1
NMTTP	60	192	4	E	0	M1
NMHLD	61	0	5	768
NMTTP	62	0	6	E	0	M1
NMTTP	62	192	4	E	0	M1
NMHLD	63	0	2	384
NMTAP	63	192	3
NMHLD	64	0	5	192
NMTAP	64	192	4
NMTAP	65	0	1
NMTAP	65	0	7
NMTAP	65	48	1
NMTAP	65	48	7
NMTAP	65	96	1
NMTAP	65	96	7
BXHLD	65	144	2	240
BXHLD	65	144	6	240
NMTTP	67	0	5	A	0	M1
NMTTP	67	96	4	A	0	M1
NMTTP	67	192	3	A	0	M1
NMTTP	67	288	2	A	0	M1
BRHLD	68	0	1	96
BRHLD	68	0	3	96
BRTAP	68	144	4
BRTAP	68	144	6
BRSTR	68	240	0
BRSCR	68	240	0	96	48	3
BRSTR	68	240	7
BRSCL	68	240	7	96	48	4
EXTAP	69	192	3
EXTAP	69	192	4
EXTAP	69	288	1
EXTAP	69	288	6
NMTAP	70	0	0
NMTAP	70	48	0
NMTAP	70	96	7
NMTAP	70	192	5
NMTAP	70	240	5
NMTAP	70	288	4
NMTAP	70	336	6
NMTAP	71	48	0
EXSTR	71	96	0
NMSCR	71	96	0	96	48	3
EXSTR	71	192	7
NMSCL	71	192	7	96	48	4
EXTAP	71	288	0
NMTAP	72	0	1
NMTAP	72	96	2
NMTAP	72	144	2
NMTAP	72	144	3
NMTAP	72	240	4
NMTAP	72	240	6
BRTAP	72	336	1
BRTAP	72	336	7
NMTAP	73	48	5
NMTAP	73	96	4
NMTAP	73	96	5
NMSTR	73	192	3
NMSI_	73	192	3	96	48	0
NMSI_	73	192	3	96	48	6
NMTAP	74	0	7
NMTAP	74	48	7
NMTAP	74	96	0
NMTAP	74	192	2
NMTAP	74	240	2
NMTAP	74	288	3
EXHLD	74	336	1	288
NMTAP	75	48	7
NMTAP	75	96	7
NMTAP	75	144	7
NMTAP	75	192	7
NMTAP	75	240	7
BRTAP	75	288	2
BRTAP	75	288	6
NMTAP	76	0	0
NMTAP	76	0	1
NMSTR	76	48	0
NMSUR	76	48	0	96	72	5
NMSTR	76	48	1
NMSCR	76	48	1	96	72	4
NMTAP	76	288	6
NMTAP	76	288	7
NMTAP	77	0	4
NMTAP	77	0	5
NMSTR	77	48	4
NMSUR	77	48	4	96	72	1
NMSTR	77	48	5
NMSCR	77	48	5	96	72	0
NMTAP	77	288	2
NMTAP	77	288	3
NMTAP	78	0	0
NMTAP	78	0	1
NMSTR	78	48	0
NMSUR	78	48	0	96	72	5
NMSTR	78	48	1
NMSCR	78	48	1	96	72	4
NMTAP	78	288	6
NMTAP	78	288	7
NMTAP	79	0	4
NMTAP	79	0	5
NMSTR	79	48	4
NMSI_	79	48	4	96	72	1
NMSTR	79	48	5
NMSI_	79	48	5	96	72	0
NMTAP	79	288	2
NMTAP	79	288	7
NMHLD	80	0	0	48
NMHLD	80	0	1	48
NMHLD	80	96	3	48
NMHLD	80	96	4	48
NMHLD	80	192	6	48
NMHLD	80	192	7	48
NMHLD	80	288	1	48
NMHLD	80	288	2	48
NMHLD	81	0	4	48
NMHLD	81	0	5	48
NMHLD	81	96	0	48
NMHLD	81	96	7	48
NMHLD	81	192	2	48
NMHLD	81	192	3	48
EXTAP	81	288	0
EXTAP	81	288	6
BRTAP	82	0	1
BRTAP	82	0	5
NMTAP	82	96	7
NMSTR	82	144	7
NMSI_	82	144	7	96	48	3
NMSTR	82	240	2
NMSCL	82	240	2	96	144	4
NMTAP	83	192	0
NMTAP	83	192	6
NMTAP	83	288	3
NMSTR	83	336	3
NMSF_	83	336	3	96	72	7
EXTAP	84	192	1
EXTAP	84	192	5
NMTAP	84	288	2
NMTAP	84	288	3
NMTAP	85	0	4
NMTAP	85	0	5
NMTAP	85	96	0
NMSTR	85	96	6
NMSI_	85	96	6	96	48	3
NMSTR	85	192	2
NMSI_	85	192	2	96	48	7
EXTAP	85	288	4
BRTAP	86	0	6
NMTAP	86	96	0
NMSTR	86	144	0
NMSI_	86	144	0	96	48	4
NMSTR	86	240	5
NMSCR	86	240	5	96	144	3
NMTAP	87	192	1
NMTAP	87	192	7
NMSTR	87	288	6
NMSI_	87	288	6	96	48	4
NMSTR	88	0	0
NMSI_	88	0	0	96	48	2
NMSTR	88	96	7
NMSI_	88	96	7	96	48	3
NMTAP	88	288	0
NMTAP	88	336	0
NMTAP	89	48	1
NMTAP	89	48	3
NMTAP	89	96	1
NMTAP	89	96	3
NMTAP	89	192	4
NMTAP	89	192	6
BRTAP	89	288	0
BRTAP	89	288	7
NMTAP	90	0	6
NMTAP	90	0	7
NMSTR	90	48	6
NMSCL	90	48	6	96	72	3
NMSTR	90	48	7
NMSUL	90	48	7	96	72	2
NMTAP	90	288	0
NMTAP	90	288	1
NMTAP	91	0	2
NMTAP	91	0	3
NMSTR	91	48	2
NMSCL	91	48	2	96	72	7
NMSTR	91	48	3
NMSUL	91	48	3	96	72	6
NMTAP	91	288	4
NMTAP	91	288	5
NMTAP	92	0	6
NMTAP	92	0	7
NMSTR	92	48	6
NMSCL	92	48	6	96	72	3
NMSTR	92	48	7
NMSUL	92	48	7	96	72	2
NMTAP	92	288	0
NMTAP	92	288	1
NMTAP	93	0	2
NMTAP	93	0	3
NMSTR	93	48	2
NMSI_	93	48	2	96	48	7
NMSTR	93	48	3
NMSI_	93	48	3	96	48	6
BRTAP	93	288	0
BRTAP	93	288	5
NMHLD	94	0	2	96
NMTAP	94	0	3
NMTAP	94	96	7
NMTAP	94	192	4
NMHLD	94	192	5	96
NMTAP	94	288	0
NMHLD	95	0	1	96
NMTAP	95	0	7
NMHLD	95	96	3	96
NMHLD	95	192	4	96
NMTAP	95	288	6
NMHLD	95	336	6	96
NMTAP	96	48	0
NMTAP	96	96	0
NMTAP	96	192	2
NMTAP	96	192	4
NMTAP	96	288	1
NMHLD	96	336	1	96
NMTAP	97	48	7
NMTAP	97	96	7
NMTAP	97	192	3
NMTAP	97	192	5
NMTAP	97	288	2
NMTAP	97	288	6
NMSTR	98	0	1
NMSCR	98	0	1	96	48	4
BRTAP	98	0	7
EXTAP	98	96	7
EXTAP	98	192	0
NMSTR	98	192	6
NMSI_	98	192	6	96	48	3
EXTAP	98	288	0
NMSTR	99	0	1
NMSI_	99	0	1	96	48	4
EXTAP	99	0	7
EXTAP	99	96	7
EXTAP	99	192	0
NMSTR	99	192	6
NMSCL	99	192	6	96	48	3
EXTAP	99	288	0
NMSTR	100	0	1
NMSI_	100	0	1	96	48	5
EXTAP	100	0	7
EXTAP	100	96	7
EXTAP	100	192	0
NMSTR	100	192	6
NMSI_	100	192	6	96	48	2
EXTAP	100	288	0
EXTAP	101	0	1
EXTAP	101	0	5
EXSTR	101	48	1
NMSI_	101	48	1	96	48	4
EXSTR	101	48	5
NMSI_	101	48	5	96	48	0
BRTAP	101	288	2
BRTAP	101	288	6
NMTAP	102	0	1
NMTAP	102	48	1
NMTAP	102	96	3
NMTAP	102	144	3
NMTAP	102	192	4
NMTAP	102	240	4
NMTAP	102	288	6
NMTAP	102	336	6
NMTAP	103	0	0
NMTAP	103	48	0
NMTAP	103	96	0
NMTAP	103	144	0
EXTAP	103	192	1
EXTAP	103	192	7
NMTAP	103	288	2
NMTAP	103	288	6
BRTAP	103	336	2
BRTAP	103	336	6
NMTAP	104	96	3
NMTAP	104	96	4
NMSTR	104	192	1
NMSI_	104	192	1	96	48	6
NMSTR	104	288	5
NMSI_	104	288	5	96	48	2
NMSTR	105	96	0
NMSCR	105	96	0	96	48	3
NMSTR	105	192	7
NMSCL	105	192	7	96	48	4
EXTAP	105	288	0
NMTTP	106	0	1	A	0	M1
NMTTP	106	0	2	E	0	M1
NMTTP	106	0	3	E	1	M1
NMTTP	106	0	3	A	0	M1
NMTTP	107	0	4	A	0	M1
NMTTP	107	0	5	E	1	M1
NMTTP	107	0	6	E	0	M1
NMTTP	107	0	6	A	0	M1
NMTTP	108	0	0	C	0	M1
NMTTP	108	0	1	B	1	M1
NMTTP	108	0	1	A	0	M1
NMTTP	108	0	5	B	0	M1
NMTTP	108	0	5	A	0	M1
NMTTP	109	0	0	C	0	M1
NMTTP	109	0	2	B	0	M1
NMTTP	109	0	2	A	0	M1
NMTTP	109	0	6	B	1	M1
NMTTP	109	0	6	A	0	M1
NMTAP	110	0	0
NMTAP	110	0	1
NMTAP	110	72	0
NMTAP	110	72	1
BRHLD	110	144	3	144
BRHLD	110	144	7	144
NMTAP	111	0	6
NMTAP	111	0	7
NMTAP	111	72	6
NMTAP	111	72	7
BRHLD	111	144	0	144
BRHLD	111	144	4	144
EXTAP	112	0	2
EXTAP	112	0	3
EXTAP	112	48	2
EXTAP	112	48	3
EXTAP	112	144	4
EXTAP	112	144	6
EXTAP	112	192	4
EXTAP	112	192	6
BRSTR	112	288	1
NMSCR	112	288	1	96	48	4
BRSTR	112	288	7
NMSCL	112	288	7	96	48	4
BRTAP	112	336	1
BRTAP	112	336	7

T_REC_TAP	307
T_REC_BRK	30
T_REC_XTP	47
T_REC_BXX	6
T_REC_HLD	58
T_REC_XHO	5
T_REC_BHO	6
T_REC_BXH	2
T_REC_STR	69
T_REC_BST	4
T_REC_XST	4
T_REC_XBS	0
T_REC_TTP	38
T_REC_THO	0
T_REC_SLD	77
T_REC_BSL	2
T_REC_ALL	655
T_NUM_TAP	465
T_NUM_BRK	50
T_NUM_HLD	63
T_NUM_SLD	77
T_NUM_ALL	655
T_JUDGE_TAP	505
T_JUDGE_HLD	194
T_JUDGE_SLD	79
T_JUDGE_ALL	778
TTM_EACHPAIRS	178
TTM_SCR_TAP	232500
TTM_SCR_BRK	130000
TTM_SCR_HLD	63000
TTM_SCR_SLD	115500
TTM_SCR_ALL	541000
TTM_SCR_S	519950
TTM_SCR_SS	536000
TTM_RAT_ACV	10093

