VERSION	0.00.00	1.04.00
FES_MODE	0
BPM_DEF	185.000	185.000	185.000	185.000
MET_DEF	4	4
RESOLUTION	384
CLK_DEF	384
COMPATIBLE_CODE	MA2

BPM	0	0	185.000
MET	0	0	4	4

NMTAP	5	0	0
NMTAP	5	96	0
NMTAP	5	192	0
NMTAP	6	0	1
NMTAP	6	96	1
NMTAP	6	192	1
NMTAP	7	0	2
NMTAP	7	96	2
NMTAP	7	192	2
NMTAP	8	0	3
NMTAP	8	0	4
NMTAP	8	192	3
NMTAP	8	192	4
NMTAP	9	0	4
NMTAP	9	96	4
NMTAP	9	192	4
NMTAP	10	0	5
NMTAP	10	96	5
NMTAP	10	192	5
NMTAP	11	0	6
NMTAP	11	96	6
NMTAP	11	192	6
NMTAP	12	0	0
NMTAP	12	0	7
NMTAP	12	192	0
NMTAP	12	192	7
NMTTP	13	0	1	B	0	L1
NMTTP	13	96	2	B	0	L1
NMTTP	13	192	3	B	0	L1
NMTTP	14	0	6	B	0	L1
NMTTP	14	96	5	B	0	L1
NMTTP	14	192	4	B	0	L1
NMTTP	15	0	0	B	0	L1
NMTTP	15	96	1	B	0	L1
NMTTP	15	192	2	B	0	L1
NMTTP	15	288	3	B	0	L1
NMTTP	16	0	4	B	0	L1
NMTTP	16	96	5	B	0	L1
NMTTP	16	192	0	C	0	L1
NMTTP	17	0	7	B	0	L1
NMTTP	17	96	6	B	0	L1
NMTTP	17	192	5	B	0	L1
NMTTP	17	288	4	B	0	L1
NMTTP	18	0	3	B	0	L1
NMTTP	18	96	2	B	0	L1
NMTTP	18	192	0	C	0	L1
NMTAP	19	0	6
NMTAP	19	96	6
NMTAP	19	192	6
NMTAP	19	192	7
NMTAP	20	0	5
NMTAP	20	96	5
NMTAP	20	192	4
NMTAP	20	192	5
NMTAP	21	0	3
NMTAP	21	96	3
NMTAP	21	192	2
NMTAP	21	192	3
NMTAP	22	0	0
NMTAP	22	0	1
NMTAP	22	96	0
NMTAP	22	96	1
NMTAP	22	192	0
NMTAP	22	192	1
NMTAP	23	0	2
NMTAP	23	96	2
NMTAP	23	192	2
NMTAP	23	192	3
NMTAP	24	0	4
NMTAP	24	96	4
NMTAP	24	192	3
NMTAP	24	192	4
NMSTR	25	0	5
NMSCR	25	0	5	96	288	0
NMTAP	26	192	1
NMSTR	27	0	1
NMSCR	27	0	1	96	288	4
NMTAP	28	192	5
NMHLD	29	0	5	192
NMHLD	29	192	4	192
NMHLD	30	0	3	192
NMTAP	30	192	2
NMHLD	31	0	2	192
NMHLD	31	192	3	192
NMHLD	32	0	4	192
NMTAP	32	192	5
NMHLD	33	0	5	192
NMHLD	33	192	4	192
NMTAP	34	0	3
NMTAP	34	192	3
NMTAP	34	192	4
NMTAP	35	0	2
NMTAP	35	96	2
NMTAP	35	192	1
NMTAP	35	288	1
NMTAP	36	0	0
NMTAP	36	96	0
NMTAP	36	192	6
NMTAP	36	192	7
NMTAP	37	0	5
NMTAP	37	96	5
NMTAP	37	192	6
NMTAP	37	288	6
NMTAP	38	0	7
NMTAP	38	96	7
NMTAP	38	192	0
NMTAP	38	192	1
NMTAP	39	0	1
NMTAP	39	96	1
NMTAP	39	192	2
NMTAP	39	288	2
NMTAP	40	0	3
NMTAP	40	96	3
NMTAP	40	192	4
NMTAP	40	192	5
NMTAP	41	0	6
NMTAP	41	96	6
NMTAP	41	192	5
NMTAP	41	288	5
NMTAP	42	0	4
NMTAP	42	96	4
NMTAP	42	192	2
NMTAP	42	192	3
NMTAP	43	0	2
NMTAP	43	96	2
NMTAP	43	192	0
NMTAP	43	192	1
NMTAP	43	288	0
NMTAP	43	288	1
NMTAP	44	0	7
NMTAP	44	96	7
NMTAP	44	192	6
NMTAP	44	192	7
NMTAP	44	288	6
NMTAP	44	288	7
NMTAP	45	0	5
NMTAP	45	96	5
NMTAP	45	192	6
NMTAP	45	192	7
NMTAP	45	288	6
NMTAP	45	288	7
NMTAP	46	0	0
NMTAP	46	96	0
NMTAP	46	192	0
NMTAP	46	192	1
NMTAP	47	0	1
NMTAP	47	96	1
NMTAP	47	192	2
NMTAP	47	192	3
NMTAP	47	288	2
NMTAP	47	288	3
NMTAP	48	0	4
NMTAP	48	96	4
NMTAP	48	192	4
NMTAP	48	192	5
NMTAP	48	288	4
NMTAP	48	288	5
NMTAP	49	0	6
NMTAP	49	96	6
NMTAP	49	192	4
NMTAP	49	192	5
NMTAP	49	288	4
NMTAP	49	288	5
NMTAP	50	0	3
NMTAP	50	96	3
NMTAP	50	192	2
NMTAP	50	192	3
NMTAP	51	0	1
NMTAP	51	96	1
NMTAP	51	192	1
NMTAP	51	288	0
NMTAP	51	288	1
NMTAP	52	0	2
NMTAP	52	96	2
NMTAP	52	192	2
NMTAP	52	288	2
NMTAP	52	288	3
NMTAP	53	0	4
NMTAP	53	96	4
NMTAP	53	192	4
NMTAP	53	288	4
NMTAP	53	288	5
NMTAP	54	0	6
NMTAP	54	0	7
NMTAP	54	96	6
NMTAP	54	96	7
NMTAP	54	192	0
NMTAP	54	192	5
NMTAP	55	0	6
NMTAP	55	96	6
NMTAP	55	192	6
NMTAP	55	288	6
NMTAP	55	288	7
NMTAP	56	0	5
NMTAP	56	96	5
NMTAP	56	192	5
NMTAP	56	288	4
NMTAP	56	288	5
NMTAP	57	0	3
NMTAP	57	96	3
NMTAP	57	192	3
NMTAP	57	288	2
NMTAP	57	288	3
NMTAP	58	0	0
NMTAP	58	0	1
NMTAP	58	96	0
NMTAP	58	96	1
NMTAP	58	192	2
NMTAP	58	192	7
NMSTR	59	0	0
NMSI_	59	0	0	96	288	5
NMSTR	59	0	1
NMSI_	59	0	1	96	288	4
NMTAP	60	192	6
NMTAP	60	192	7
NMSTR	61	0	6
NMSI_	61	0	6	96	288	3
NMSTR	61	0	7
NMSI_	61	0	7	96	288	2
NMTAP	62	192	0
NMTAP	62	192	1
NMSTR	63	0	0
NMSI_	63	0	0	96	288	5
NMSTR	63	0	1
NMSI_	63	0	1	96	288	4
NMTAP	64	192	6
NMTAP	64	192	7
NMSTR	65	0	6
NMSXR	65	0	6	96	672	3
NMSTR	65	0	7
NMSXL	65	0	7	96	672	2
NMTAP	68	0	4
NMTAP	68	96	5
NMTAP	68	192	6
NMTAP	68	288	7
NMTAP	69	0	0
NMTAP	69	96	1
NMTAP	69	192	2
NMTAP	69	192	3
NMTAP	70	0	3
NMTAP	70	96	2
NMTAP	70	192	1
NMTAP	70	288	0
NMTAP	71	0	7
NMTAP	71	96	6
NMTAP	71	192	4
NMTAP	71	192	5
NMTAP	72	0	4
NMTAP	72	96	5
NMTAP	72	192	6
NMTAP	72	288	7
NMTAP	73	0	0
NMTAP	73	96	1
NMTAP	73	192	2
NMTAP	73	288	3
NMTAP	74	0	4
NMTAP	74	96	5
NMTAP	74	192	6
NMTAP	74	288	7
NMTAP	75	0	0
NMTAP	75	0	7
NMTAP	75	96	0
NMTAP	75	96	7
NMTAP	75	192	1
NMTAP	75	192	6
NMTAP	76	0	6
NMTAP	76	0	7
NMTAP	76	96	6
NMTAP	76	96	7
NMTAP	76	192	0
NMTAP	76	192	5
NMTAP	77	0	4
NMTAP	77	0	5
NMTAP	77	96	4
NMTAP	77	96	5
NMTAP	77	192	3
NMTAP	77	192	6
NMTAP	78	0	2
NMTAP	78	0	3
NMTAP	78	96	2
NMTAP	78	96	3
NMTAP	78	192	1
NMTAP	78	192	4
NMTAP	79	0	0
NMTAP	79	0	1
NMTAP	79	96	0
NMTAP	79	96	1
NMTAP	79	192	2
NMTAP	79	192	7
NMHLD	80	0	1	192
NMTAP	80	192	0
NMHLD	81	0	6	192
NMTAP	81	192	7
EXTAP	82	0	0
EXTAP	82	48	0
EXTAP	82	96	0
NMTAP	82	192	0
NMTAP	82	192	1
NMTAP	82	288	0
NMTAP	82	288	1
NMTAP	83	0	2
NMTAP	83	48	2
NMTAP	83	96	2
NMTAP	83	192	2
NMTAP	83	192	3
NMTAP	84	0	4
NMTAP	84	48	4
NMTAP	84	96	4
NMTAP	84	192	4
NMTAP	84	192	5
NMTAP	84	288	4
NMTAP	84	288	5
NMTAP	85	0	6
NMTAP	85	48	6
NMTAP	85	96	6
NMTAP	85	192	6
NMTAP	85	192	7
NMTAP	86	0	6
NMTAP	86	48	6
NMTAP	86	96	6
NMTAP	86	192	6
NMTAP	86	192	7
NMTAP	86	288	6
NMTAP	86	288	7
NMTAP	87	0	5
NMTAP	87	48	5
NMTAP	87	96	5
NMTAP	87	192	4
NMTAP	87	192	5
NMTAP	88	0	3
NMTAP	88	48	3
NMTAP	88	96	3
NMTAP	88	192	2
NMTAP	88	192	3
NMTAP	88	288	2
NMTAP	88	288	3
NMTAP	89	0	1
NMTAP	89	48	1
NMTAP	89	96	1
BRTAP	89	192	0
BRTAP	89	192	1
NMTAP	90	0	2
NMTAP	90	48	2
NMTAP	90	96	2
NMTAP	90	192	1
NMTAP	90	240	1
NMTAP	90	288	1
NMTAP	91	0	0
NMTAP	91	48	0
NMTAP	91	96	0
NMTAP	91	192	6
NMTAP	91	192	7
NMTAP	92	0	5
NMTAP	92	48	5
NMTAP	92	96	5
NMTAP	92	192	6
NMTAP	92	240	6
NMTAP	92	288	6
NMTAP	93	0	7
NMTAP	93	48	7
NMTAP	93	96	7
NMTAP	93	192	0
NMTAP	93	192	1
NMTAP	94	0	1
NMTAP	94	48	1
NMTAP	94	96	1
NMTAP	94	192	2
NMTAP	94	240	2
NMTAP	94	288	2
NMTAP	95	0	3
NMTAP	95	48	3
NMTAP	95	96	3
NMTAP	95	192	4
NMTAP	95	192	5
NMTAP	96	0	6
NMTAP	96	48	6
NMTAP	96	96	6
NMTAP	96	192	5
NMTAP	96	240	5
NMTAP	96	288	5
NMTAP	97	0	4
NMTAP	97	48	4
NMTAP	97	96	4
NMTAP	97	192	2
NMTAP	97	192	3
NMTAP	98	0	2
NMTAP	98	48	2
NMTAP	98	96	2
NMTAP	98	192	0
NMTAP	98	192	1
NMTAP	98	288	0
NMTAP	98	288	1
NMTAP	99	0	2
NMTAP	99	0	7
NMTAP	99	96	3
NMTAP	99	96	6
NMTAP	99	192	4
NMTAP	99	192	5
NMTAP	100	0	5
NMTAP	100	48	5
NMTAP	100	96	5
NMTAP	100	192	6
NMTAP	100	192	7
NMTAP	100	288	6
NMTAP	100	288	7
NMTAP	101	0	0
NMTAP	101	0	5
NMTAP	101	96	1
NMTAP	101	96	4
NMTAP	101	192	2
NMTAP	101	192	3
NMTAP	102	0	1
NMTAP	102	48	1
NMTAP	102	96	1
NMTAP	102	192	2
NMTAP	102	192	3
NMTAP	102	288	2
NMTAP	102	288	3
NMTAP	103	0	1
NMTAP	103	0	4
NMTAP	103	96	0
NMTAP	103	96	5
NMTAP	103	192	6
NMTAP	103	192	7
NMTAP	104	0	6
NMTAP	104	48	6
NMTAP	104	96	6
NMTAP	104	192	4
NMTAP	104	192	5
NMTAP	104	288	4
NMTAP	104	288	5
NMTAP	105	0	3
NMTAP	105	0	6
NMTAP	105	96	2
NMTAP	105	96	7
BXTAP	105	192	0
BXTAP	105	192	1
NMSTR	106	0	1
NMSUR	106	0	1	96	480	4
NMSTR	108	0	6
NMSUL	108	0	6	96	480	3
EXHLD	110	0	2	144
EXHLD	110	0	4	144
EXHLD	111	0	3	144
EXHLD	111	0	5	144
EXTAP	112	0	3
EXTAP	112	0	4
EXTAP	112	48	3
EXTAP	112	48	4
EXTAP	112	144	2
EXTAP	112	144	5
EXTAP	112	192	2
EXTAP	112	192	5
EXTAP	112	288	1
EXTAP	112	288	6
BXTAP	112	336	1
BXTAP	112	336	6

T_REC_TAP	380
T_REC_BRK	2
T_REC_XTP	13
T_REC_BXX	4
T_REC_HLD	10
T_REC_XHO	4
T_REC_BHO	0
T_REC_BXH	0
T_REC_STR	12
T_REC_BST	0
T_REC_XST	0
T_REC_XBS	0
T_REC_TTP	20
T_REC_THO	0
T_REC_SLD	12
T_REC_BSL	0
T_REC_ALL	457
T_NUM_TAP	425
T_NUM_BRK	6
T_NUM_HLD	14
T_NUM_SLD	12
T_NUM_ALL	457
T_JUDGE_TAP	431
T_JUDGE_HLD	52
T_JUDGE_SLD	12
T_JUDGE_ALL	495
TTM_EACHPAIRS	111
TTM_SCR_TAP	212500
TTM_SCR_BRK	15600
TTM_SCR_HLD	14000
TTM_SCR_SLD	18000
TTM_SCR_ALL	260100
TTM_SCR_S	251750
TTM_SCR_SS	259500
TTM_RAT_ACV	10023

